<?xml version="1.0" standalone="no"?>
<!DOCTYPE svg PUBLIC "-//W3C//DTD SVG 1.1//EN" "http://www.w3.org/Graphics/SVG/1.1/DTD/svg11.dtd" >
<svg xmlns="http://www.w3.org/2000/svg">
<metadata>
Copyright (c) 2014 by Fontsmith Ltd. All rights reserved.
</metadata>
<defs>
<font id="JLREmericWeb-ExtraLight" horiz-adv-x="596" >
  <font-face 
    font-family="JLR Emeric Web ExtraLight"
    font-weight="280"
    font-stretch="normal"
    units-per-em="1000"
    panose-1="2 0 5 3 4 0 0 2 0 4"
    ascent="731"
    descent="-269"
    x-height="488"
    cap-height="663"
    bbox="-64 -250 1194 1007.08"
    underline-thickness="50"
    underline-position="-50"
    unicode-range="U+000D-FB04"
  />
<missing-glyph horiz-adv-x="604" 
d="M70 650h464v-650h-464v650zM460 604h-316l159 -237zM488 88v474l-158 -237zM460 47l-157 236l-159 -236h316zM117 88l157 237l-157 237v-474z" />
    <glyph glyph-name="fi" unicode="fi" horiz-adv-x="528" 
d="M2 474l93 13q-8 19 -11.5 39.5t-3.5 39.5q0 35 12 63t34 47.5t52 30t65 10.5q33 0 68 -10t65 -26l-11 -27l-23 6q-57 15 -95 15q-55 0 -85.5 -26t-30.5 -86q0 -38 13 -75h187v-40h-181v-448h-51v448h-97v26zM397 488h51v-488h-51v488z" />
    <glyph glyph-name="fl" unicode="fl" horiz-adv-x="551" 
d="M319 668q-24 4 -41 5.5t-31 1.5q-55 0 -85.5 -26t-30.5 -86q0 -38 13 -75h187v-40h-181v-448h-51v448h-97v26l93 13q-8 19 -11.5 39.5t-3.5 39.5q0 35 12 63t33.5 47.5t51.5 30t65 10.5q26 0 56 -7t56 -19l-9 -27zM543 11q-14 -5 -33.5 -9t-34.5 -4q-38 0 -56 18t-18 58
v635h51v-664l91 -13v-21z" />
    <glyph glyph-name="f_f" unicode="ff" horiz-adv-x="648" 
d="M150 0h-51v448h-97v26l93 13q-8 19 -11.5 39.5t-3.5 39.5q0 35 12 63t34 47.5t52 30t65 10.5q33 0 68 -10t65 -26l-11 -27l-23 6q-57 15 -95 15q-55 0 -85.5 -26t-30.5 -86q0 -38 13 -75h270q-14 39 -14 78q0 35 12 63t34 47.5t52 30t65 10.5q33 0 68 -10t65 -26l-11 -27
l-23 6q-57 15 -95 15q-55 0 -85.5 -26t-30.5 -86q0 -38 13 -75h187v-40h-181v-448h-51v448h-269v-448z" />
    <glyph glyph-name="f_f_i" unicode="ffi" horiz-adv-x="848" 
d="M150 0h-51v448h-97v26l93 13q-8 19 -11.5 39.5t-3.5 39.5q0 35 12 63t34 47.5t52 30t65 10.5q33 0 68 -10t65 -26l-11 -27l-23 6q-57 15 -95 15q-55 0 -85.5 -26t-30.5 -86q0 -38 13 -75h270q-14 39 -14 78q0 35 12 63t34 47.5t52 30t65 10.5q33 0 68 -10t65 -26l-11 -27
l-23 6q-57 15 -95 15q-55 0 -85.5 -26t-30.5 -86q0 -38 13 -75h187v-40h-181v-448h-51v448h-269v-448zM717 488h51v-488h-51v488z" />
    <glyph glyph-name="f_f_l" unicode="ffl" horiz-adv-x="871" 
d="M415 488q-8 19 -11.5 39t-3.5 39q0 35 12 63t33.5 47.5t51.5 30t65 10.5q26 0 56 -7t56 -19l-9 -27l-26 4q-24 4 -41 5.5t-31 1.5q-55 0 -85.5 -26t-30.5 -86q0 -38 13 -75h187v-40h-181v-448h-51v448h-269v-448h-51v448h-97v26l93 13q-8 19 -11.5 39.5t-3.5 39.5
q0 35 12 63t34 47.5t52 30t65 10.5q33 0 68 -10t65 -26l-11 -27l-23 6q-57 15 -95 15q-55 0 -85.5 -26t-30.5 -86q0 -38 13 -75h271zM863 11q-14 -5 -33.5 -9t-34.5 -4q-38 0 -56 18t-18 58v635h51v-664l91 -13v-21z" />
    <glyph glyph-name="f_j" unicode="fj" horiz-adv-x="528" 
d="M2 474l93 13q-8 19 -11.5 39.5t-3.5 39.5q0 35 12 63t34 47.5t52 30t65 10.5q33 0 68 -10t65 -26l-11 -27l-23 6q-57 15 -95 15q-55 0 -85.5 -26t-30.5 -86q0 -38 13 -75h187v-40h-181v-448h-51v448h-97v26zM448 -89q0 -40 -8 -66.5t-25 -43.5q-33 -34 -97 -34
q-14 0 -32 1.5t-32 3.5v26l41 4q29 3 49 8.5t31 16.5q13 13 17.5 33t4.5 62v566h51v-577z" />
    <glyph glyph-name="f_f_j" unicode="ffj" horiz-adv-x="848" 
d="M150 0h-51v448h-97v26l93 13q-8 19 -11.5 39.5t-3.5 39.5q0 35 12 63t34 47.5t52 30t65 10.5q33 0 68 -10t65 -26l-11 -27l-23 6q-57 15 -95 15q-55 0 -85.5 -26t-30.5 -86q0 -38 13 -75h270q-14 39 -14 78q0 35 12 63t34 47.5t52 30t65 10.5q33 0 68 -10t65 -26l-11 -27
l-23 6q-57 15 -95 15q-55 0 -85.5 -26t-30.5 -86q0 -38 13 -75h187v-40h-181v-448h-51v448h-269v-448zM768 -89q0 -40 -8 -66.5t-25 -43.5q-33 -34 -97 -34q-14 0 -32 1.5t-32 3.5v26l41 4q29 3 49 8.5t31 16.5q13 13 17.5 33t4.5 62v566h51v-577z" />
    <glyph glyph-name="f_t" unicode="ft" horiz-adv-x="702" 
d="M247 675q-55 0 -85.5 -26t-30.5 -86q0 -38 13 -75h268v141h51v-141h181v-40h-181v-314q0 -52 22 -77q21 -23 65 -23q17 0 38.5 4.5t50.5 12.5l33 9l12 -25q-31 -19 -70 -31t-71 -12q-65 0 -98 35q-17 17 -25 42t-8 62v317h-262v-448h-51v448h-97v26l93 13
q-8 19 -11.5 39.5t-3.5 39.5q0 35 12 63t34 47.5t52 30t65 10.5q26 0 56 -7t56 -19l-9 -27l-26 4q-24 4 -41.5 5.5t-31.5 1.5z" />
    <glyph glyph-name="f_f_t" unicode="fft" horiz-adv-x="1022" 
d="M470 0h-51v448h-269v-448h-51v448h-97v26l93 13q-8 19 -11.5 39.5t-3.5 39.5q0 35 12 63t34 47.5t52 30t65 10.5q33 0 68 -10t65 -26l-11 -27l-23 6q-57 15 -95 15q-55 0 -85.5 -26t-30.5 -86q0 -38 13 -75h270q-14 39 -14 78q0 35 12 63t34 47.5t52 30t65 10.5
q26 0 56 -7t56 -19l-9 -27l-26 4q-24 4 -41.5 5.5t-31.5 1.5q-55 0 -85.5 -26t-30.5 -86q0 -38 13 -75h268v141h51v-141h181v-40h-181v-314q0 -52 22 -77q21 -23 65 -23q17 0 38.5 4.5t50.5 12.5l33 9l12 -25q-31 -19 -70 -31t-71 -12q-65 0 -98 35q-17 17 -25 42t-8 62v317
h-262v-448z" />
    <glyph glyph-name=".notdef" horiz-adv-x="604" 
d="M70 650h464v-650h-464v650zM460 604h-316l159 -237zM488 88v474l-158 -237zM460 47l-157 236l-159 -236h316zM117 88l157 237l-157 237v-474z" />
    <glyph glyph-name=".null" horiz-adv-x="0" 
 />
    <glyph glyph-name=".null" horiz-adv-x="0" 
 />
    <glyph glyph-name="nonmarkingreturn" unicode="&#xd;" horiz-adv-x="228" 
 />
    <glyph glyph-name="space" unicode=" " horiz-adv-x="228" 
 />
    <glyph glyph-name="nonbreakingspace" unicode="&#xa0;" horiz-adv-x="228" 
 />
    <glyph glyph-name="A" unicode="A" horiz-adv-x="658" 
d="M593 0q-10 0 -14 8l-71 167h-360l-69 -167q-2 -5 -4.5 -6.5t-8.5 -1.5h-45l277 663h44q7 0 9.5 -2t4.5 -7l282 -654h-45zM489 218l-98 232q-19 45 -37.5 90t-28.5 73q-10 -28 -27 -72t-36 -89l-96 -234h323z" />
    <glyph glyph-name="B" unicode="B" horiz-adv-x="601" 
d="M84 663h220q51 0 93 -9.5t69 -37.5q17 -17 26 -41.5t9 -57.5q0 -45 -19 -89.5t-53 -76.5q52 -17 87 -55.5t35 -106.5q0 -45 -13.5 -78t-38.5 -56q-29 -28 -73 -41.5t-101 -13.5h-241v663zM137 44h181q48 0 83.5 9.5t59.5 32.5q17 17 27 42.5t10 61.5q0 32 -8.5 54.5
t-24.5 38.5q-21 21 -55.5 30.5t-88.5 9.5h-184v-279zM137 365h225q18 0 28 3.5t20 15.5q18 23 29.5 55t11.5 68q0 32 -8 52.5t-23 33.5q-19 16 -48.5 21t-71.5 5h-163v-254z" />
    <glyph glyph-name="C" unicode="C" horiz-adv-x="660" 
d="M622 100q-57 -50 -128 -80t-145 -30q-67 0 -123.5 25t-97 70.5t-63.5 108t-23 137.5q0 72 24 134.5t66 108.5t99 72.5t123 26.5q87 0 153.5 -44.5t107.5 -122.5l-32 -19l-51 52q-38 40 -80.5 63t-96.5 23q-57 0 -105 -22t-82 -61t-53 -92.5t-19 -117.5q0 -65 17.5 -118.5
t51.5 -92t83 -60t111 -21.5q44 0 88.5 14t86.5 37l67 36z" />
    <glyph glyph-name="D" unicode="D" horiz-adv-x="691" 
d="M258 44q83 0 143.5 13.5t103.5 45.5q45 34 67.5 90.5t22.5 138.5t-22.5 138t-67.5 90q-43 32 -103.5 45.5t-143.5 13.5h-121v-575h121zM84 0v663h187q81 0 147 -15t115 -50q55 -39 85.5 -104t30.5 -162t-30.5 -162.5t-85.5 -104.5q-49 -35 -115 -50t-147 -15h-187z" />
    <glyph glyph-name="E" unicode="E" horiz-adv-x="536" 
d="M480 663v-43h-343v-252h310v-43h-310v-282h355v-43h-408v663h396z" />
    <glyph glyph-name="F" unicode="F" horiz-adv-x="505" 
d="M475 663v-43h-338v-252h303v-43h-303v-325h-53v663h391z" />
    <glyph glyph-name="G" unicode="G" horiz-adv-x="719" 
d="M596 274h-138v41h179q10 0 10 -10v-305h-35l-12 73l-37 -20q-57 -31 -108 -47t-105 -16q-70 0 -126.5 26t-97 71.5t-62.5 107.5t-22 135q0 77 25.5 140t69 108t101.5 70t123 25q93 0 163 -44.5t112 -116.5l-30 -21l-57 53q-42 40 -87.5 61t-105.5 21q-49 0 -96 -18.5
t-83.5 -55.5t-58.5 -92.5t-22 -128.5q0 -68 18.5 -122t53 -92t83 -58t107.5 -20q56 0 112.5 18.5t116.5 51.5q9 5 9 15v150z" />
    <glyph glyph-name="H" unicode="H" horiz-adv-x="688" 
d="M551 324h-414v-324h-53v663h53v-294h414v294h53v-663h-53v324z" />
    <glyph glyph-name="I" unicode="I" horiz-adv-x="231" 
d="M142 0h-53v663h53v-663z" />
    <glyph glyph-name="J" unicode="J" horiz-adv-x="479" 
d="M32 68l53 -13q42 -11 73 -15.5t56 -4.5q68 0 101 36q18 20 25.5 49t7.5 69v474h53v-481q0 -95 -48 -144q-48 -48 -139 -48q-44 0 -95 13t-99 36z" />
    <glyph glyph-name="K" unicode="K" horiz-adv-x="610" 
d="M316 402l282 -402h-46q-13 0 -19 9l-252 361q-38 -35 -78 -69t-66 -54v-247h-53v663h53v-366l405 372l31 -32z" />
    <glyph glyph-name="L" unicode="L" horiz-adv-x="504" 
d="M84 663h53v-620h339v-43h-392v663z" />
    <glyph glyph-name="M" unicode="M" horiz-adv-x="823" 
d="M434 225h-31q-10 0 -17 8l-186 253q-17 23 -36 49.5t-30 44.5q1 -25 1 -57v-56v-467h-51v663h35q7 0 9.5 -1t7.5 -7l278 -380l278 380q4 5 7 6.5t9 1.5h31v-663h-50v463v56t1 57q-11 -16 -30.5 -43.5t-36.5 -50.5z" />
    <glyph glyph-name="N" unicode="N" horiz-adv-x="728" 
d="M529 166q16 -20 35 -44t33 -45q-2 27 -2.5 57t-0.5 50v479h50v-663h-31q-7 0 -9.5 1.5t-7.5 6.5l-396 487q-17 20 -35.5 44t-32.5 45q2 -27 2.5 -57t0.5 -50v-477h-51v663h29q8 0 11 -1.5t8 -7.5z" />
    <glyph glyph-name="O" unicode="O" horiz-adv-x="724" 
d="M42 331q0 68 23 130t65 109t101 75t131 28t131 -28t101 -75t65 -109t23 -130t-23 -130t-65 -109t-101 -74.5t-131 -27.5t-131 27.5t-101 74.5t-65 109t-23 130zM628 331q0 65 -19.5 118.5t-54.5 92t-84 60t-108 21.5t-108 -21.5t-84 -60t-54.5 -92t-19.5 -118.5
t19.5 -118.5t54.5 -92t84 -59.5t108 -21t108 21t84 59.5t54.5 92t19.5 118.5z" />
    <glyph glyph-name="P" unicode="P" horiz-adv-x="593" 
d="M137 0h-53v663h233q65 0 108 -14t71 -41q26 -26 38 -62t12 -81q0 -54 -17.5 -103.5t-50.5 -80.5q-23 -22 -46.5 -29.5t-65.5 -7.5h-229v-244zM137 286h234q30 0 48.5 7t32.5 25q22 29 31.5 66.5t9.5 78.5q0 38 -8.5 66.5t-26.5 47.5q-22 23 -57 33t-92 10h-172v-334z" />
    <glyph glyph-name="Q" unicode="Q" horiz-adv-x="724" 
d="M42 331q0 68 23 130t65 109t101 75t131 28t131 -28t101 -75t65 -109t23 -130q0 -52 -13 -100t-38 -89t-60 -73t-79 -52l111 -161l-47 -24l-110 169q-20 -5 -41 -8t-43 -3q-72 0 -131 27.5t-101 74.5t-65 109t-23 130zM628 331q0 65 -19.5 118.5t-54.5 92t-84 60
t-108 21.5t-108 -21.5t-84 -60t-54.5 -92t-19.5 -118.5t19.5 -118.5t54.5 -92t84 -59.5t108 -21t108 21t84 59.5t54.5 92t19.5 118.5z" />
    <glyph glyph-name="R" unicode="R" horiz-adv-x="620" 
d="M378 303q26 0 47 7.5t35 29.5q17 25 24 57t7 66q0 39 -9 69t-29 49q-22 21 -57 30t-90 9h-169v-317h241zM315 663q65 0 108 -13.5t71 -40.5q26 -26 38 -62.5t12 -81.5q0 -35 -7.5 -67t-22 -58t-36 -45t-49.5 -29l153 -266h-45q-8 0 -10.5 1.5t-5.5 6.5l-138 243
q-4 7 -6.5 8.5t-10.5 1.5h-229v-261h-53v663h231z" />
    <glyph glyph-name="S" unicode="S" horiz-adv-x="554" 
d="M120 60q79 -24 147 -24q89 0 134.5 41t45.5 105q0 27 -8 46.5t-25.5 35.5t-44.5 29.5t-65 27.5l-73 27q-47 17 -79.5 35t-53 38.5t-30 44.5t-9.5 53q0 37 15.5 66t44 48.5t67.5 29.5t86 10q45 0 98.5 -10t99.5 -27l-10 -31l-49 8q-38 6 -70.5 9.5t-67.5 3.5
q-75 0 -120 -24.5t-45 -81.5q0 -48 34.5 -75t105.5 -52l71 -26q40 -15 73.5 -32t56.5 -38.5t36 -50t13 -66.5q0 -44 -17.5 -79.5t-48.5 -60t-73 -37.5t-91 -13q-26 0 -55.5 4.5t-59.5 12t-58 18.5t-50 24l14 29z" />
    <glyph glyph-name="T" unicode="T" horiz-adv-x="559" 
d="M253 620h-228v43h509v-43h-228v-620h-53v620z" />
    <glyph glyph-name="U" unicode="U" horiz-adv-x="679" 
d="M599 244q0 -58 -14 -100.5t-43 -74.5q-34 -38 -85 -58.5t-117 -20.5t-117 20.5t-85 58.5q-29 32 -43.5 75t-14.5 101v418h53v-409q0 -57 11 -94t37 -64t67 -42t92 -15t92 15t67 42t37 64t11 94v409h52v-419z" />
    <glyph glyph-name="V" unicode="V" horiz-adv-x="655" 
d="M62 663q6 0 9 -1.5t5 -6.5l193 -446q9 -20 18 -42.5t18 -44t16.5 -41t12.5 -33.5q5 14 12 33t15.5 40.5t17.5 43.5t17 42l184 448q2 5 4.5 6.5t9.5 1.5h44l-276 -663h-46q-10 0 -14 8l-285 655h45z" />
    <glyph glyph-name="W" unicode="W" horiz-adv-x="991" 
d="M702 0q-10 0 -13 8l-147 439q-14 41 -27.5 85t-21.5 77q-8 -34 -20 -78t-24 -86l-131 -445h-49q-10 0 -13 8l-229 655h47q6 0 8 -1.5t4 -6.5l155 -454q14 -40 26 -81t19 -67q3 12 7.5 29t10 36.5t11.5 40t12 40.5l137 464h48q10 0 13 -8l152 -454q6 -18 12.5 -39t13 -41
t11.5 -38t8 -31q3 11 8 28.5t11 37.5t12.5 41.5t12.5 41.5l142 454q2 5 4 6.5t8 1.5h44l-212 -663h-50z" />
    <glyph glyph-name="X" unicode="X" horiz-adv-x="628" 
d="M561 0q-6 0 -9 1.5t-6 5.5l-235 307l-228 -306q-4 -5 -6.5 -6.5t-8.5 -1.5h-51l264 351l-240 312h50q6 0 8.5 -1.5t6.5 -6.5l207 -269l201 269q4 5 6.5 6.5t10.5 1.5h47l-235 -313l268 -350h-50z" />
    <glyph glyph-name="Y" unicode="Y" horiz-adv-x="580" 
d="M316 223v-223h-53v223l-256 440h46q10 0 15 -8l222 -387l223 386q3 5 6 7t11 2h44z" />
    <glyph glyph-name="Z" unicode="Z" horiz-adv-x="546" 
d="M500 638q0 -8 -6 -18l-387 -577h401v-43h-464v23q0 6 1 9.5t5 9.5l387 578h-392v43h455v-25z" />
    <glyph glyph-name="a" unicode="a" horiz-adv-x="531" 
d="M524 32v-21q-13 -5 -29.5 -9t-31.5 -4q-58 0 -69 50l-25 -13q-36 -19 -73 -31t-75 -12q-39 0 -71 13t-55 34.5t-35.5 50.5t-12.5 62q0 49 29 78q36 37 117 37q19 0 51.5 -1t68.5 -3l79 -3v58q0 37 -7.5 60t-21.5 39q-17 19 -45 27t-59 8q-28 0 -56.5 -5t-66.5 -17
l-49 -15l-13 27q51 26 98.5 40t87.5 14q45 0 81.5 -13t61.5 -40q20 -21 30 -50.5t10 -73.5v-276zM392 218q0 6 -2 7.5t-8 1.5h-191q-53 0 -72 -18q-20 -19 -20 -56q0 -51 34.5 -84.5t97.5 -33.5q19 0 40 4t40.5 10t37.5 14t31 16q8 5 10 8.5t2 10.5v120z" />
    <glyph glyph-name="b" unicode="b" horiz-adv-x="565" 
d="M109 0h-32v709h51v-277l25 14q48 26 85.5 38t72.5 12q49 0 88 -19.5t66 -54t41 -80.5t14 -98t-14.5 -98t-42 -80t-66.5 -54t-88 -20q-36 0 -73.5 12t-76.5 35l-34 20zM128 109q0 -12 8 -17q36 -23 81.5 -39t86.5 -16q75 0 119 52t44 155t-43.5 155t-117.5 52
q-76 0 -170 -54q-8 -4 -8 -16v-272z" />
    <glyph glyph-name="c" unicode="c" horiz-adv-x="514" 
d="M482 72q-49 -36 -102.5 -58t-107.5 -22q-52 0 -94 19.5t-72 54t-46 80.5t-16 100q0 52 17.5 97.5t49 79.5t75 53.5t94.5 19.5q58 0 110.5 -33t82.5 -93l-30 -18l-29 28q-38 37 -68.5 54t-69.5 17t-71.5 -14.5t-56.5 -40.5t-37.5 -64t-13.5 -84q0 -101 49 -156t131 -55
q62 0 129 32l58 27z" />
    <glyph glyph-name="d" unicode="d" horiz-adv-x="567" 
d="M439 709h51v-709h-33l-15 57l-37 -21q-78 -44 -148 -44q-50 0 -89 20t-66.5 54t-42 80t-14.5 98q0 56 17.5 102.5t48 79.5t71 51.5t86.5 18.5q40 0 82 -15t89 -47v275zM439 382q0 11 -9 17q-35 23 -75.5 37.5t-80.5 14.5q-86 0 -131 -55.5t-45 -151.5q0 -102 45.5 -154.5
t117.5 -52.5q42 0 86 14.5t83 37.5q6 4 7.5 7.5t1.5 8.5v277z" />
    <glyph glyph-name="e" unicode="e" horiz-adv-x="538" 
d="M280 -8q-54 0 -97.5 19.5t-74.5 53.5t-47.5 80t-16.5 99t16.5 99t46.5 80t72 53.5t93 19.5q48 0 88 -18t69 -49.5t45.5 -73.5t16.5 -91q0 -18 -3.5 -23.5t-11.5 -5.5h-380q2 -42 14 -78t35 -62.5t57.5 -42t81.5 -15.5q32 0 66.5 9t66.5 24l51 24l17 -25
q-51 -37 -103.5 -57t-101.5 -20zM442 274q-5 87 -51.5 132.5t-118.5 45.5q-73 0 -120.5 -46.5t-54.5 -131.5h345z" />
    <glyph glyph-name="f" unicode="f" horiz-adv-x="328" 
d="M2 474l93 13q-8 19 -11.5 39.5t-3.5 39.5q0 35 12 63t34 47.5t52 30t65 10.5q33 0 68 -9.5t65 -25.5l-11 -28l-23 6q-57 15 -95 15q-55 0 -85.5 -26t-30.5 -86q0 -38 13 -75h187v-40h-181v-448h-51v448h-97v26z" />
    <glyph glyph-name="g" unicode="g" horiz-adv-x="533" 
d="M343 50q86 0 125 -39q33 -33 33 -85q0 -36 -17.5 -67t-49 -54t-76 -36.5t-98.5 -13.5q-53 0 -97.5 13t-76.5 36t-50 54.5t-18 68.5q0 35 16.5 58t42.5 37q-15 13 -15 32q0 11 5.5 21.5t16.5 25.5l50 65q-33 26 -51.5 63.5t-18.5 81.5q0 38 14 71.5t39.5 59t61.5 40
t80 14.5q40 0 73 -12.5t59 -33.5l30 21q30 21 45.5 28t28.5 7q8 0 17 -2.5t17 -6.5v-27l-106 -41q-5 -2 -5.5 -4t1.5 -5q17 -23 26 -51t9 -58q0 -38 -14 -71.5t-39.5 -59t-61.5 -40t-80 -14.5q-49 0 -90 19q-5 2 -8 -2l-40 -68q-6 -11 -6 -15q0 -10 18 -10h210zM165 8
q-29 0 -46.5 -4.5t-29.5 -15.5q-22 -20 -22 -58q0 -58 52 -95t141 -37q42 0 77.5 9.5t60.5 26.5t39 41t14 54q0 37 -20 55q-15 14 -38.5 19t-54.5 5h-173zM404 311q0 67 -38.5 104t-106.5 37t-106.5 -37t-38.5 -104t38.5 -104t106.5 -37t106.5 37t38.5 104z" />
    <glyph glyph-name="h" unicode="h" horiz-adv-x="552" 
d="M128 448l24 11q39 17 75.5 27t70.5 10q45 0 82.5 -14t60.5 -38q20 -22 31 -52.5t11 -74.5v-317h-51v307q0 42 -7 65.5t-22 40.5q-18 19 -47 27.5t-64 8.5q-32 0 -66 -6t-71 -20l-16 -6q-8 -3 -9.5 -5.5t-1.5 -8.5v-403h-51v709h51v-261z" />
    <glyph glyph-name="i" unicode="i" horiz-adv-x="211" 
d="M80 488h51v-488h-51v488zM76 657h47q12 0 12 -11v-52h-59v63z" />
    <glyph glyph-name="j" unicode="j" horiz-adv-x="211" 
d="M131 -89q0 -40 -8 -66.5t-25 -43.5q-33 -34 -97 -34q-14 0 -32 1.5t-32 3.5v26l41 4q29 3 49 8.5t31 16.5q13 13 17.5 33t4.5 62v566h51v-577zM76 657h47q12 0 12 -11v-52h-59v63z" />
    <glyph glyph-name="k" unicode="k" horiz-adv-x="528" 
d="M297 300l213 -300h-47q-8 0 -10.5 1.5t-6.5 6.5l-184 261q-29 -26 -65.5 -55t-68.5 -52v-162h-51v709h51v-500l329 285l28 -33z" />
    <glyph glyph-name="l" unicode="l" horiz-adv-x="231" 
d="M223 11q-14 -5 -33.5 -9t-34.5 -4q-38 0 -56 18t-18 58v635h51v-664l91 -13v-21z" />
    <glyph glyph-name="m" unicode="m" horiz-adv-x="879" 
d="M759 304q0 38 -7.5 64.5t-22.5 43.5q-17 20 -43.5 28.5t-62.5 8.5q-29 0 -62 -6t-68 -20l-23 -9q-10 -4 -11 -7.5t1 -8.5q13 -32 13 -81v-317h-51v304q0 38 -7.5 64.5t-22.5 43.5q-17 20 -43.5 28.5t-62.5 8.5q-29 0 -62.5 -7t-67.5 -19l-17 -6q-11 -4 -11 -14v-403h-51
v488h35l13 -41l27 12q38 17 72.5 27t65.5 10q45 0 82.5 -14t64.5 -45l50 23q78 36 140 36q45 0 81.5 -14t59.5 -38q20 -22 31 -52.5t11 -74.5v-317h-51v304z" />
    <glyph glyph-name="n" unicode="n" horiz-adv-x="552" 
d="M112 488l13 -41l27 12q39 17 75.5 27t70.5 10q45 0 82.5 -14t60.5 -38q20 -22 31 -52.5t11 -74.5v-317h-51v307q0 42 -7 65.5t-22 40.5q-18 19 -47 27.5t-64 8.5q-32 0 -66 -6t-71 -20l-16 -6q-8 -3 -9.5 -5.5t-1.5 -8.5v-403h-51v488h35z" />
    <glyph glyph-name="o" unicode="o" horiz-adv-x="552" 
d="M508 244q0 -52 -17 -97.5t-47.5 -80t-73 -54.5t-94.5 -20t-94.5 20t-73 54.5t-47.5 80t-17 97.5t17 97.5t47.5 80t73 54.5t94.5 20t94.5 -20t73 -54.5t47.5 -80t17 -97.5zM455 244q0 94 -47 150t-132 56t-132 -56t-47 -150t47 -150t132 -56t132 56t47 150z" />
    <glyph glyph-name="p" unicode="p" horiz-adv-x="565" 
d="M128 57v-286h-51v717h37l11 -58l28 16q48 26 85.5 38t72.5 12q49 0 88 -19.5t66 -54t41 -80.5t14 -98t-14.5 -98t-42 -80t-66.5 -54t-88 -20q-36 0 -73.5 12t-76.5 35zM128 109q0 -12 8 -17q36 -23 81.5 -39t86.5 -16q75 0 119 52t44 155t-43.5 155t-117.5 52
q-76 0 -170 -54q-8 -4 -8 -16v-272z" />
    <glyph glyph-name="q" unicode="q" horiz-adv-x="567" 
d="M268 496q39 0 81.5 -15t90.5 -48l11 55h39v-717h-51v284l-34 -19q-78 -44 -148 -44q-50 0 -89 20t-66.5 54t-42 80t-14.5 98q0 56 17.5 102.5t48 79.5t71 51.5t86.5 18.5zM439 382q0 11 -9 17q-35 23 -75.5 37.5t-80.5 14.5q-86 0 -131 -55.5t-45 -151.5
q0 -102 45.5 -154.5t117.5 -52.5q42 0 86 14.5t83 37.5q6 4 7.5 7.5t1.5 8.5v277z" />
    <glyph glyph-name="r" unicode="r" horiz-adv-x="348" 
d="M126 408q44 26 73.5 43t50 26.5t33.5 13.5t25 4q8 0 17 -2t17 -5v-30q-18 -5 -42.5 -14t-51.5 -20t-55.5 -23.5t-54.5 -24.5q-10 -5 -10 -14v-362h-51v488h38z" />
    <glyph glyph-name="s" unicode="s" horiz-adv-x="456" 
d="M329 444q-29 5 -54 7.5t-45 2.5q-25 0 -49 -4t-42.5 -13.5t-29.5 -24.5t-11 -37q0 -34 25.5 -51.5t79.5 -33.5l72 -21q70 -20 102 -50t32 -82q0 -33 -13 -60t-36.5 -46t-56 -29t-71.5 -10q-25 0 -51 4.5t-51.5 11.5t-48.5 16t-42 19l13 27l39 -11q44 -12 76 -18.5
t67 -6.5q62 0 95.5 28.5t33.5 73.5q0 36 -23.5 55t-82.5 36l-78 23q-60 17 -93.5 46t-33.5 78q0 29 13.5 51.5t37.5 38.5t56.5 24t69.5 8q38 0 79.5 -8.5t81.5 -24.5l-9 -28z" />
    <glyph glyph-name="t" unicode="t" horiz-adv-x="385" 
d="M367 35q-31 -19 -70 -31t-71 -12q-65 0 -98 35q-17 17 -25 42t-8 62v317h-97v26l97 14v141h51v-141h181v-40h-181v-314q0 -52 22 -77q21 -23 65 -23q17 0 38.5 4.5t50.5 12.5l33 9z" />
    <glyph glyph-name="u" unicode="u" horiz-adv-x="550" 
d="M438 0l-13 41l-27 -12q-39 -17 -75 -27t-70 -10q-45 0 -82 14t-60 38q-20 22 -31 52.5t-11 74.5v317h51v-307q0 -42 7 -65.5t22 -40.5q18 -19 46.5 -28t63.5 -9q62 0 136 27l16 6q8 3 9.5 5.5t1.5 8.5v403h51v-488h-35z" />
    <glyph glyph-name="v" unicode="v" horiz-adv-x="511" 
d="M504 488l-220 -488h-40q-10 0 -13 7l-224 481h44q8 0 12 -7l136 -298q17 -37 33 -74t28 -66q12 29 27.5 66t32.5 75l131 297q3 7 12 7h41z" />
    <glyph glyph-name="w" unicode="w" horiz-adv-x="809" 
d="M404 442q-7 -23 -19.5 -63.5t-28.5 -89.5l-95 -289h-39q-8 0 -10.5 1.5t-4.5 6.5l-196 480h42q5 0 8 -1.5t5 -6.5l117 -294q6 -15 13 -33t14 -37t13 -37t11 -31q3 12 8 28.5t11 35t12 38t12 36.5l100 302h43q6 0 8.5 -1.5t4.5 -6.5l115 -294q15 -38 29 -75t22 -63
l20 62.5t26 75.5l103 295q2 4 3.5 5.5t8.5 1.5h38l-173 -488h-41q-6 0 -9 1.5t-5 6.5l-109 278q-18 47 -33.5 90t-23.5 66z" />
    <glyph glyph-name="x" unicode="x" horiz-adv-x="507" 
d="M464 488l-183 -232l214 -256h-48q-6 0 -8.5 1t-6.5 5l-183 220l-170 -220q-3 -4 -5.5 -5t-9.5 -1h-47l203 257l-191 231h48q10 0 16 -7l160 -194l150 194q4 5 6.5 6t9.5 1h45z" />
    <glyph glyph-name="y" unicode="y" horiz-adv-x="511" 
d="M182 -231l-45 13l98 215l-228 491h44q8 0 12 -7l197 -432l190 432q3 7 12 7h42z" />
    <glyph glyph-name="z" unicode="z" horiz-adv-x="480" 
d="M53 19q0 6 1 9.5t5 8.5l305 411h-306v40h371v-19q0 -6 -1 -9.5t-5 -8.5l-306 -411h312v-40h-376v19z" />
    <glyph glyph-name="ampersand" unicode="&#x26;" horiz-adv-x="713" 
d="M471 525q0 -51 -37.5 -98.5t-103.5 -101.5l169 -179q20 29 42 66.5t37 76.5l39 102l33 -8q-17 -70 -47 -141t-75 -128l69 -73l90 -11v-19q-12 -5 -31.5 -10t-33.5 -5q-27 0 -46.5 10.5t-43.5 36.5l-33 36q-42 -41 -95.5 -65t-121.5 -24q-53 0 -99 18t-80 48.5t-53.5 70.5
t-19.5 85q0 61 42 108t115 94q-20 26 -31 51.5t-11 55.5q0 34 14 62.5t37 48t53 30.5t62 11q31 0 59.5 -10.5t51 -30t36 -46.5t13.5 -61zM189 372q-29 -23 -49.5 -42t-33.5 -37.5t-19 -37.5t-6 -43q0 -36 15.5 -68t43 -56.5t64.5 -39t79 -14.5q60 0 105 19.5t82 56.5
l-261 278zM191 525q0 -16 4.5 -30t13.5 -29.5t23.5 -33.5t35.5 -40l39 -43q26 26 48 50t38 45q15 20 24 40.5t9 43.5q0 43 -33 72t-84 29q-49 0 -83.5 -28.5t-34.5 -75.5z" />
    <glyph glyph-name="at" unicode="@" horiz-adv-x="745" 
d="M669 1q-31 -20 -67 -38t-73.5 -31.5t-76.5 -21.5t-76 -8q-70 0 -133 25t-110 70.5t-75 108t-28 137.5t28 138t75.5 108t110.5 70t134 25q73 0 133.5 -24.5t104.5 -65.5t68.5 -96.5t24.5 -116.5q0 -46 -12.5 -83.5t-34 -64.5t-50.5 -41.5t-63 -14.5q-29 0 -52 13.5
t-34 29.5l-27 -15q-25 -14 -46.5 -20.5t-42.5 -6.5q-27 0 -50 9t-39.5 24.5t-26 35.5t-9.5 43q0 39 25.5 59t69.5 20q11 0 36.5 -1t50.5 -3l51 -3v26q0 43 -15 59q-20 22 -66 22q-37 0 -88 -13l-30 -7l-10 25q30 15 64 25t66 10q29 0 53 -8.5t40 -24.5q14 -14 21.5 -34
t7.5 -50v-124q0 -23 13.5 -38t40.5 -15q48 0 80 43t32 119q0 60 -21.5 108.5t-59.5 82.5t-90 52.5t-113 18.5q-65 0 -120 -20.5t-95 -59t-62.5 -93.5t-22.5 -124q0 -66 23 -120.5t64 -94t96 -61t120 -21.5q45 0 93 12.5t89 29.5l89 38zM312 232q-44 0 -44 -42
q0 -32 24 -52.5t62 -20.5q23 0 47.5 8.5t44.5 20.5q6 4 7.5 7t1.5 10v61q0 8 -9 8h-134z" />
    <glyph glyph-name="exclam" unicode="!" horiz-adv-x="231" 
d="M90 663h52v-241q0 -29 -1 -59.5t-3 -60.5l-10 -138h-24l-10 138q-2 29 -3 60t-1 60v241zM82 69h54q13 0 13 -11v-58h-67v69z" />
    <glyph glyph-name="exclamdown" unicode="&#xa1;" horiz-adv-x="231" 
d="M140.991 -174.989h-51.9971v240.985q0 28.998 1 59.4961t3 60.4961l10 137.992h23.998l9.99902 -137.992q2 -28.998 3 -59.9961t1 -59.9961v-240.985zM148.991 418.975h-53.9971q-12.999 0 -12.999 10.999v57.9971h66.9961v-68.9961z" />
    <glyph glyph-name="question" unicode="?" horiz-adv-x="467" 
d="M187 164l-8 64q-3 25 -3 40q0 14 5.5 21.5t19.5 15.5l31 17q37 20 65.5 38.5t48 38.5t30 43t10.5 53q0 67 -43 99.5t-109 32.5q-36 0 -71 -8t-72 -19l-58 -18l-13 27q53 29 110 46.5t105 17.5q43 0 79.5 -12.5t63.5 -36t42 -56t15 -72.5q0 -59 -35 -103.5t-119 -87.5
l-59 -30l-10 -111h-25zM164 69h54q13 0 13 -11v-58h-67v69z" />
    <glyph glyph-name="questiondown" unicode="&#xbf;" horiz-adv-x="467" 
d="M279.982 316.98l8 -63.9961q3 -24.998 3 -39.9971q0 -13.999 -5.5 -21.499t-19.499 -15.499l-30.998 -16.999q-36.9971 -19.999 -65.4961 -38.498q-28.498 -18.498 -47.9971 -38.4971q-19.498 -19.999 -29.998 -42.9971q-10.499 -22.999 -10.499 -52.9971
q0 -66.9961 42.9971 -99.4941q42.998 -32.498 108.993 -32.498q35.998 0 70.9961 8q34.998 7.99902 71.9951 18.998l57.9971 17.999l12.999 -26.998q-52.9971 -28.998 -109.993 -46.4971q-56.9971 -17.499 -104.993 -17.499q-42.998 0 -79.4961 12.499
q-36.4971 12.499 -63.4961 35.998q-26.998 23.499 -41.9971 55.9961q-14.999 32.498 -14.999 72.4961q0 58.9961 34.998 103.493q34.998 44.498 118.992 87.4951l58.9971 29.998l9.99902 110.993h24.998zM302.981 411.975h-53.9971q-12.999 0 -12.999 11v57.9961h66.9961
v-68.9961z" />
    <glyph glyph-name="asterisk" unicode="*" horiz-adv-x="413" 
d="M232 486l106 -117l-33 -18q-8 -4 -12 -3t-9 9l-76 113l-85 -126l-34 21q-11 7 -1 17l96 104l-136 44l14 38q4 11 18 4l114 -62l-10 153h37q6 0 9.5 -2.5t2.5 -10.5l-12 -140l127 65l14 -31q3 -8 2.5 -12t-10.5 -7z" />
    <glyph glyph-name="period" unicode="." horiz-adv-x="205" 
d="M68 71h56q8 0 10.5 -2t2.5 -9v-60h-69v71z" />
    <glyph glyph-name="comma" unicode="," horiz-adv-x="205" 
d="M123 71q13 0 13 -11v-30q0 -20 -4.5 -37.5t-14 -36t-25.5 -41t-40 -52.5l-20 11l56 111q3 7 -1 11l-11 9q-7 6 -8.5 9t-1.5 10v47h57z" />
    <glyph glyph-name="colon" unicode=":" horiz-adv-x="205" 
d="M68 71h56q8 0 10.5 -2t2.5 -9v-60h-69v71zM68 406h56q8 0 10.5 -2t2.5 -9v-60h-69v71z" />
    <glyph glyph-name="semicolon" unicode=";" horiz-adv-x="205" 
d="M68 406h56q8 0 10.5 -2t2.5 -9v-60h-69v71zM124 71q13 0 13 -11v-30q0 -20 -4.5 -37.5t-14 -36t-25.5 -41t-40 -52.5l-20 11l56 111q3 7 -1 11l-11 9q-7 6 -8.5 9t-1.5 10v47h57z" />
    <glyph glyph-name="ellipsis" unicode="&#x2026;" horiz-adv-x="615" 
d="M68 71h56q8 0 10.5 -2t2.5 -9v-60h-69v71zM273 71h56q8 0 10.5 -2t2.5 -9v-60h-69v71zM478 71h56q8 0 10.5 -2t2.5 -9v-60h-69v71z" />
    <glyph glyph-name="periodcentered" unicode="&#xb7;" horiz-adv-x="205" 
d="M68 316h56q8 0 10.5 -2t2.5 -9v-60h-69v71z" />
    <glyph glyph-name="bullet" unicode="&#x2022;" horiz-adv-x="338" 
d="M255 194h-172v171h152q13 0 16.5 -3.5t3.5 -14.5v-153z" />
    <glyph glyph-name="slash" unicode="/" horiz-adv-x="417" 
d="M16 0l335 663h50l-335 -663h-50z" />
    <glyph glyph-name="parenleft" unicode="(" horiz-adv-x="297" 
d="M76 217q0 121 51 237t165 223l28 -23q-103 -103 -148 -212t-45 -225t45 -225t148 -212l-28 -23q-114 106 -165 222t-51 238z" />
    <glyph glyph-name="brokenbar" unicode="&#xa6;" horiz-adv-x="227" 
d="M90 709h47v-418h-47v418zM90 189h47v-418h-47v418z" />
    <glyph glyph-name="parenright" unicode=")" horiz-adv-x="297" 
d="M221 217q0 -122 -51 -238t-165 -222l-28 23q103 103 148 212t45 225t-45 225t-148 212l28 23q114 -107 165 -223t51 -237z" />
    <glyph glyph-name="bracketleft" unicode="[" horiz-adv-x="287" 
d="M90 663h190v-43h-141v-806h141v-43h-190v892z" />
    <glyph glyph-name="backslash" unicode="\" horiz-adv-x="417" 
d="M351 0l-335 663h50l335 -663h-50z" />
    <glyph glyph-name="bracketright" unicode="]" horiz-adv-x="287" 
d="M197 -229h-190v43h141v806h-141v43h190v-892z" />
    <glyph glyph-name="braceleft" unicode="{" horiz-adv-x="314" 
d="M54 233q61 10 83.5 34.5t22.5 70.5q0 23 -5.5 55.5t-11.5 67t-11.5 67.5t-5.5 57q0 40 26.5 64t74.5 24q20 0 44.5 -4t42.5 -9v-22l-90 -9q-26 -2 -38.5 -12t-12.5 -33t5.5 -56t11.5 -68t11.5 -68t5.5 -56q0 -44 -21 -72.5t-66 -45.5q45 -17 66 -45.5t21 -72.5
q0 -23 -5.5 -56t-11.5 -68t-11.5 -68t-5.5 -56t12.5 -33t38.5 -12l90 -9v-22q-18 -5 -42.5 -9t-44.5 -4q-48 0 -74.5 24t-26.5 64q0 24 5.5 57t11.5 67.5t11.5 67t5.5 55.5q0 46 -22.5 70.5t-83.5 34.5v30z" />
    <glyph glyph-name="bar" unicode="|" horiz-adv-x="227" 
d="M90 709h47v-938h-47v938z" />
    <glyph glyph-name="braceright" unicode="}" horiz-adv-x="314" 
d="M260 203q-61 -10 -83.5 -34.5t-22.5 -70.5q0 -23 5.5 -55.5t11.5 -67t11.5 -67.5t5.5 -57q0 -40 -26.5 -64t-74.5 -24q-20 0 -44.5 4t-42.5 9v22l90 9q26 2 38.5 12t12.5 33t-5.5 56t-11.5 68t-11.5 68t-5.5 56q0 44 21 72.5t66 45.5q-45 17 -66 45.5t-21 72.5
q0 23 5.5 56t11.5 68t11.5 68t5.5 56t-12.5 33t-38.5 12l-90 9v22q18 5 42.5 9t44.5 4q48 0 74.5 -24t26.5 -64q0 -24 -5.5 -57t-11.5 -67.5t-11.5 -67t-5.5 -55.5q0 -46 22.5 -70.5t83.5 -34.5v-30z" />
    <glyph glyph-name="hyphen" unicode="-" horiz-adv-x="421" 
d="M70 224v41h281v-41h-281z" />
    <glyph glyph-name="uni00AD" unicode="&#xad;" horiz-adv-x="421" 
d="M70 224v41h281v-41h-281z" />
    <glyph glyph-name="endash" unicode="&#x2013;" horiz-adv-x="635" 
d="M70 224v41h495v-41h-495z" />
    <glyph glyph-name="emdash" unicode="&#x2014;" horiz-adv-x="1135" 
d="M70 224v41h995v-41h-995z" />
    <glyph glyph-name="underscore" unicode="_" horiz-adv-x="424" 
d="M7 -113v37h410v-37h-410z" />
    <glyph glyph-name="dagger" unicode="&#x2020;" horiz-adv-x="520" 
d="M284 40q0 -20 -1 -52.5t-3 -66.5l-7 -150h-26l-7 150q-2 35 -3 67t-1 52v112q0 15 0.5 39.5t2 53.5t2.5 60t3 59q-24 -2 -50 -3.5t-51.5 -2.5t-49.5 -2t-43 -1h-15v45h15q19 0 43 -1t49.5 -2t51.5 -3t50 -3q-3 48 -5.5 99t-2.5 101v72h48v-72q0 -50 -2.5 -101t-5.5 -99
q49 3 102 6t92 3h15v-45h-15q-20 0 -43.5 1t-49 2t-51.5 2.5t-50 3.5q1 -28 2.5 -59t3 -60t2 -53.5t0.5 -39.5v-112z" />
    <glyph glyph-name="daggerdbl" unicode="&#x2021;" horiz-adv-x="520" 
d="M284 217q0 -6 -0.5 -13.5t-1 -23.5t-2 -42t-4.5 -68q24 1 50 3t51.5 3t49 2t43.5 1h15v-45h-15q-39 0 -92 3t-102 6q3 -48 5.5 -99t2.5 -101v-72h-48v72q0 50 2.5 101t5.5 99q-24 -2 -50 -3.5t-51.5 -2.5t-49.5 -2t-43 -1h-15v45h15q19 0 43 -1t49.5 -2t51.5 -3t50 -3
q-3 42 -4.5 68t-2 42t-1 23.5t-0.5 13.5t0.5 13.5t1 23.5t2 42t4.5 68q-24 -2 -50 -3.5t-51.5 -2.5t-49.5 -2t-43 -1h-15v45h15q19 0 43 -1t49.5 -2t51.5 -3t50 -3q-3 48 -5.5 99t-2.5 101v72h48v-72q0 -50 -2.5 -101t-5.5 -99q49 3 102 6t92 3h15v-45h-15q-20 0 -43.5 1
t-49 2t-51.5 2.5t-50 3.5q3 -42 4.5 -68t2 -42t1 -23.5t0.5 -13.5z" />
    <glyph glyph-name="section" unicode="&#xa7;" horiz-adv-x="554" 
d="M417 37q30 -23 45.5 -52t15.5 -68q0 -36 -16.5 -65t-45 -49.5t-67 -32t-81.5 -11.5q-19 0 -41.5 3t-45.5 9t-46 14t-43 18l12 28l55 -14q23 -6 53 -10t57 -4q32 0 61 7t50.5 21t34.5 35t13 49q0 27 -10 47.5t-28 36.5t-42 27.5t-52 22.5l-80 30q-86 32 -121 70t-34 91
q0 43 22.5 82.5t53.5 71.5q-30 23 -45.5 52t-15.5 68q0 36 16 65t44 49.5t66 32t81 11.5t89 -11t84 -31l-10 -30l-55 14q-29 8 -55.5 11t-53.5 3q-32 0 -60.5 -7t-49.5 -21t-33.5 -35t-12.5 -49q0 -27 10 -47.5t28 -36.5t42 -28t52 -22l80 -30q86 -32 121 -70t34 -91
q0 -43 -22.5 -82.5t-53.5 -71.5zM389 56q23 27 39.5 60t16.5 68q0 19 -6 36t-20.5 32.5t-39 30t-62.5 28.5l-77 29q-22 8 -40 16t-34 18q-23 -27 -40 -59.5t-17 -67.5q0 -20 6 -36.5t20.5 -32t39 -30t62.5 -28.5l77 -29q23 -9 40.5 -17t34.5 -18z" />
    <glyph glyph-name="paragraph" unicode="&#xb6;" horiz-adv-x="502" 
d="M229 -229v671h-166q-13 0 -13 12v209h432v-43h-93v-849h-47v849h-66v-849h-47z" />
    <glyph glyph-name="registered" unicode="&#xae;" horiz-adv-x="738" 
d="M30 332q0 71 26.5 133.5t72 108.5t107.5 72.5t133 26.5t133 -26.5t107.5 -72.5t72 -108.5t26.5 -133.5t-26.5 -133.5t-72 -108.5t-107.5 -72.5t-133 -26.5t-133 26.5t-107.5 72.5t-72 108.5t-26.5 133.5zM663 332q0 63 -22 117.5t-61.5 94.5t-93.5 63t-117 23t-117 -23
t-93.5 -63t-62 -94.5t-22.5 -117.5t22.5 -117.5t62 -95t93.5 -63.5t117 -23t117 23t93.5 63.5t61.5 95t22 117.5zM456 189q-8 0 -11 5l-62 105q-2 4 -3.5 4.5t-6.5 0.5h-73v-115h-37v290h109q104 0 104 -87q0 -32 -16 -53t-42 -32l71 -118h-33zM300 337h100q16 0 25 10
q14 16 14 44q0 32 -15.5 43t-53.5 11h-70v-108z" />
    <glyph glyph-name="copyright" unicode="&#xa9;" horiz-adv-x="738" 
d="M496 232q-26 -20 -59 -33.5t-68 -13.5q-30 0 -56 11t-45 30.5t-29.5 47t-10.5 59.5q0 33 12 60.5t32 47.5t46.5 31t55.5 11q41 0 71.5 -22t45.5 -54l-22 -15l-25 21q-21 18 -37 25.5t-37 7.5q-20 0 -38.5 -7.5t-32.5 -21.5t-22.5 -35t-8.5 -48q0 -47 26.5 -79.5
t77.5 -32.5q20 0 39.5 5t44.5 15l26 10zM30 332q0 71 26.5 133.5t72 108.5t107.5 72.5t133 26.5t133 -26.5t107.5 -72.5t72 -108.5t26.5 -133.5t-26.5 -133.5t-72 -108.5t-107.5 -72.5t-133 -26.5t-133 26.5t-107.5 72.5t-72 108.5t-26.5 133.5zM663 332q0 63 -22 117.5
t-61.5 94.5t-93.5 63t-117 23t-117 -23t-93.5 -63t-62 -94.5t-22.5 -117.5t22.5 -117.5t62 -95t93.5 -63.5t117 -23t117 23t93.5 63.5t61.5 95t22 117.5z" />
    <glyph glyph-name="trademark" unicode="&#x2122;" horiz-adv-x="688" 
d="M636 663v-307h-38v238l-103 -127h-17q-5 0 -7 1t-6 5l-104 125v-242h-37v307h22q5 0 7 -0.5t6 -5.5l124 -154l122 154q3 4 5.5 5t8.5 1h17zM163 356h-40v273h-105v34h249v-34h-104v-273z" />
    <glyph glyph-name="quotedblleft" unicode="&#x201c;" horiz-adv-x="345" 
d="M212 452q-13 0 -13 11v30q0 20 4.5 37.5t14 36t25.5 41t40 52.5l20 -11l-56 -111q-3 -7 1 -11l11 -9q7 -6 8.5 -9t1.5 -10v-47h-57zM79 452q-13 0 -13 11v30q0 20 4.5 37.5t14 36t25.5 41t40 52.5l20 -11l-56 -111q-3 -7 1 -11l11 -9q7 -6 8.5 -9t1.5 -10v-47h-57z" />
    <glyph glyph-name="quotedblright" unicode="&#x201d;" horiz-adv-x="345" 
d="M133 663q13 0 13 -11v-30q0 -20 -4.5 -37.5t-14 -36t-25.5 -41t-40 -52.5l-20 11l56 111q3 7 -1 11l-11 9q-7 6 -8.5 9t-1.5 10v47h57zM266 663q13 0 13 -11v-30q0 -20 -4.5 -37.5t-14 -36t-25.5 -41t-40 -52.5l-20 11l56 111q3 7 -1 11l-11 9q-7 6 -8.5 9t-1.5 10v47h57
z" />
    <glyph glyph-name="quoteleft" unicode="&#x2018;" horiz-adv-x="212" 
d="M79 451q-13 0 -13 11v30q0 20 4.5 37.5t14 36t25.5 41t40 52.5l20 -11l-56 -111q-3 -7 1 -11l11 -9q7 -6 8.5 -9t1.5 -10v-47h-57z" />
    <glyph glyph-name="quoteright" unicode="&#x2019;" horiz-adv-x="212" 
d="M133 663q13 0 13 -11v-30q0 -20 -4.5 -37.5t-14 -36t-25.5 -41t-40 -52.5l-20 11l56 111q3 7 -1 11l-11 9q-7 6 -8.5 9t-1.5 10v47h57z" />
    <glyph glyph-name="guillemotleft" unicode="&#xab;" horiz-adv-x="565" 
d="M482 64l-190 156q-6 5 -7.5 8t-1.5 10v27l199 163l21 -22l-167 -160l167 -160zM261 64l-190 156q-6 5 -7.5 8t-1.5 10v27l199 163l21 -22l-167 -160l167 -160z" />
    <glyph glyph-name="guillemotright" unicode="&#xbb;" horiz-adv-x="565" 
d="M83 428l190 -156q6 -5 7.5 -8t1.5 -10v-27l-199 -163l-21 22l167 160l-167 160zM304 428l190 -156q6 -5 7.5 -8t1.5 -10v-27l-199 -163l-21 22l167 160l-167 160z" />
    <glyph glyph-name="guilsinglleft" unicode="&#x2039;" horiz-adv-x="344" 
d="M261 64l-190 156q-6 5 -7.5 8t-1.5 10v27l199 163l21 -22l-167 -160l167 -160z" />
    <glyph glyph-name="guilsinglright" unicode="&#x203a;" horiz-adv-x="344" 
d="M83 428l190 -156q6 -5 7.5 -8t1.5 -10v-27l-199 -163l-21 22l167 160l-167 160z" />
    <glyph glyph-name="quotesinglbase" unicode="&#x201a;" horiz-adv-x="201" 
d="M120 65q13 0 13 -11v-30q0 -20 -4.5 -37.5t-14 -36t-25.5 -41t-40 -52.5l-20 11l56 111q3 7 -1 11l-11 9q-7 6 -8.5 9t-1.5 10v47h57z" />
    <glyph glyph-name="quotedblbase" unicode="&#x201e;" horiz-adv-x="334" 
d="M120 65q13 0 13 -11v-30q0 -20 -4.5 -37.5t-14 -36t-25.5 -41t-40 -52.5l-20 11l56 111q3 7 -1 11l-11 9q-7 6 -8.5 9t-1.5 10v47h57zM253 65q13 0 13 -11v-30q0 -20 -4.5 -37.5t-14 -36t-25.5 -41t-40 -52.5l-20 11l56 111q3 7 -1 11l-11 9q-7 6 -8.5 9t-1.5 10v47h57z
" />
    <glyph glyph-name="ordfeminine" unicode="&#xaa;" horiz-adv-x="464" 
d="M333 527q0 102 -108 102q-47 0 -109 -20l-39 -13l-13 27q41 23 82.5 36.5t79.5 13.5q32 0 60.5 -9t49.5 -27t33 -44.5t12 -62.5v-225l61 -11v-22q-11 -4 -25 -7t-25 -3q-20 0 -36.5 12t-20.5 31l-24 -13q-28 -15 -59 -24.5t-63 -9.5q-28 0 -54.5 9.5t-47 26.5t-33 41
t-12.5 53q0 53 35.5 76.5t89.5 23.5q14 0 34.5 -0.5t43 -1.5t45.5 -2t43 -2v45zM333 441q0 9 -9 9h-157q-38 0 -57 -12.5t-19 -46.5q0 -45 30.5 -68.5t80.5 -23.5q29 0 60.5 10t57.5 24q8 5 10.5 8t2.5 10v90z" />
    <glyph glyph-name="ordmasculine" unicode="&#xba;" horiz-adv-x="464" 
d="M427 466q0 -44 -15 -82t-41 -66t-61.5 -43.5t-77.5 -15.5t-78 15.5t-62 43.5t-41 66t-15 82t15 82t41 65.5t62 43.5t78 16t77.5 -16t61.5 -43.5t41 -65.5t15 -82zM377 466q0 36 -9.5 65.5t-28 51t-45.5 33.5t-62 12q-71 0 -108.5 -45t-37.5 -117t37.5 -117.5t108.5 -45.5
q70 0 107.5 45.5t37.5 117.5z" />
    <glyph glyph-name="arrowleft" unicode="&#x2190;" horiz-adv-x="769" 
d="M263 455l24 -24l-152 -163h564v-43h-564l152 -165l-24 -24l-192 190v29q0 9 5 14z" />
    <glyph glyph-name="arrowup" unicode="&#x2191;" horiz-adv-x="769" 
d="M594 367l-24 -24l-161 151v-564h-46v565l-164 -152l-24 24l191 191h28q10 0 15 -5z" />
    <glyph glyph-name="arrowright" unicode="&#x2192;" horiz-adv-x="769" 
d="M507 38l-24 24l152 163h-564v43h564l-152 165l24 24l192 -190v-29q0 -9 -5 -14z" />
    <glyph glyph-name="arrowdown" unicode="&#x2193;" horiz-adv-x="769" 
d="M175 121l24 24l161 -151v564h46v-565l164 152l24 -24l-191 -191h-28q-10 0 -15 5z" />
    <glyph glyph-name="zero" unicode="0" 
d="M298 36q46 0 81 22.5t59 62t36.5 93.5t12.5 117t-12.5 117t-36.5 93.5t-59 62t-81 22.5t-81 -22.5t-59 -62t-36.5 -93.5t-12.5 -117t12.5 -117t36.5 -93.5t59 -62t81 -22.5zM298 -11q-58 0 -103 27.5t-76 74.5t-47 109t-16 131t16 131t47 109t76 74.5t103 27.5t103 -27.5
t76 -74.5t47 -109t16 -131t-16 -131t-47 -109t-76 -74.5t-103 -27.5z" />
    <glyph glyph-name="one" unicode="1" 
d="M122 40h188v567l-183 -79l-17 31l197 96q10 5 15 6.5t15 1.5h24v-623h157v-40h-396v40z" />
    <glyph glyph-name="two" unicode="2" 
d="M510 0h-417v29q0 6 1.5 9t6.5 9l200 214q35 38 61.5 68t44 57t26.5 53.5t9 56.5q0 63 -39.5 96.5t-103.5 33.5q-35 0 -70 -7.5t-77 -22.5l-52 -19l-16 30q52 30 107.5 48t109.5 18q43 0 78.5 -13t61 -36.5t40 -56t14.5 -72.5q0 -32 -10 -61.5t-30 -60t-50 -65t-71 -77.5
l-182 -189h358v-42z" />
    <glyph glyph-name="three" unicode="3" 
d="M122 75q47 -18 89 -28.5t81 -10.5q82 0 129 42.5t47 117.5q0 32 -9 55t-24 38q-32 32 -105 32h-71q-9 0 -9 7v32h103q21 0 31.5 4.5t20.5 20.5q35 56 35 116q0 61 -35.5 93.5t-101.5 32.5q-34 0 -66 -7t-74 -21l-63 -22l-16 29q55 31 112 49t106 18q37 0 71 -10.5
t60 -30.5t41 -51t15 -71q0 -42 -17 -82.5t-48 -82.5q48 -21 72 -60t24 -93q0 -42 -15.5 -78.5t-44.5 -64t-70.5 -43.5t-94.5 -16q-63 0 -126.5 22t-119.5 58l17 27z" />
    <glyph glyph-name="four" unicode="4" 
d="M398 654q5 5 8 7t10 2h36v-446h104v-40h-104v-177h-50v177h-348v27q0 11 6 18zM108 217h294v377z" />
    <glyph glyph-name="five" unicode="5" 
d="M114 331q-7 4 -7 14v318h362v-42h-317v-149q0 -30 -1 -59.5t-3 -50.5q35 15 78.5 25t85.5 10q43 0 81 -13t66 -37.5t44 -60t16 -81.5t-14.5 -85t-43 -68t-70 -45.5t-94.5 -16.5q-57 0 -117 19.5t-109 51.5l16 28l62 -23q42 -15 75 -22.5t68 -7.5q83 0 129.5 43t46.5 127
q0 74 -44.5 111t-119.5 37q-42 0 -83.5 -9.5t-76.5 -23.5q-8 -3 -16 2z" />
    <glyph glyph-name="six" unicode="6" 
d="M482 612q-34 8 -63 12.5t-55 4.5q-58 0 -102 -22.5t-74.5 -61.5t-47.5 -92t-20 -114l25 14q46 26 94 40.5t93 14.5q46 0 84 -14t65.5 -39.5t42.5 -61.5t15 -79q0 -47 -17.5 -88t-47 -71t-69.5 -47.5t-85 -17.5q-62 0 -108.5 26t-78 69.5t-47.5 100t-16 118.5v6
q0 73 19.5 139t56.5 116t90 79t121 29q69 0 136 -28zM489 213q0 76 -45 112.5t-120 36.5q-46 0 -96.5 -15.5t-92.5 -40.5q-9 -5 -11.5 -10t-2.5 -16q0 -48 13 -92.5t38 -78t62 -54t84 -20.5q37 0 68.5 13t54.5 36.5t35.5 56.5t12.5 72z" />
    <glyph glyph-name="seven" unicode="7" 
d="M202 0q1 43 5.5 77t14.5 67t27 69t43 81l185 325h-410v44h461v-25q0 -8 -1 -12.5t-5 -11.5l-186 -335q-25 -45 -41 -79.5t-25 -65.5t-13.5 -62.5t-6.5 -71.5h-48z" />
    <glyph glyph-name="eight" unicode="8" 
d="M541 179q0 -39 -18.5 -73.5t-50.5 -60t-76.5 -40.5t-96.5 -15q-50 0 -94.5 14.5t-78 40.5t-53 62t-19.5 80q0 59 38 108.5t92 86.5q-38 22 -64.5 53t-26.5 79q0 37 18 66.5t47 50t67 31.5t78 11t77.5 -11t66.5 -32t46 -51t17 -67q0 -48 -30.5 -91t-78.5 -83
q30 -14 56 -29.5t44.5 -34.5t29 -42.5t10.5 -52.5zM103 189q0 -32 14 -60t40 -49t62 -33t81 -12q40 0 75 10.5t61.5 29.5t41.5 45t15 57q0 29 -14.5 50.5t-39 39t-57 32t-67.5 28.5l-81 33q-12 5 -24 -4q-48 -35 -77.5 -75.5t-29.5 -91.5zM464 510q0 28 -12.5 50t-34.5 37
t-51.5 22.5t-62.5 7.5q-32 0 -61 -7t-52 -21t-36.5 -35t-13.5 -50q0 -23 10.5 -40.5t27 -31.5t38 -25.5t44.5 -20.5l87 -36q13 -5 23 2q17 14 34 31t30.5 36t21.5 39.5t8 41.5z" />
    <glyph glyph-name="nine" unicode="9" 
d="M121 51q15 -4 31.5 -7t32.5 -5.5t31 -4t26 -1.5q57 0 99 20.5t70 58.5t43 91.5t18 120.5l-25 -14q-42 -23 -91.5 -38.5t-97.5 -15.5q-46 0 -84 15t-65 42t-42 64t-15 80q0 47 17 86.5t46 68.5t69 45t86 16q62 0 109 -25.5t79 -68.5t48 -100t16 -119v-6
q0 -86 -18.5 -153.5t-53.5 -114.5t-86 -71.5t-116 -24.5q-34 0 -69 7t-70 22zM471 383q0 49 -13 93t-38.5 77.5t-63 53.5t-85.5 20q-38 0 -69 -12t-53 -34.5t-34.5 -53.5t-12.5 -69q0 -75 45 -116t120 -41q46 0 96.5 15t92.5 40q9 5 11.5 10.5t3.5 16.5z" />
    <glyph glyph-name="dollar" unicode="$" 
d="M141 60q75 -24 141 -24v301l-30 11q-47 17 -79.5 35t-53 38.5t-30 44.5t-9.5 53q0 72 55.5 112t146.5 42l6 93h36v-94q40 -3 84.5 -12.5t82.5 -23.5l-10 -31l-49 8q-29 5 -55.5 8t-52.5 4v-252l16 -6q40 -15 73.5 -32t56.5 -38.5t36 -50t13 -66.5q0 -41 -14.5 -73.5
t-40.5 -56.5t-62 -39t-78 -19l-6 -96h-36v94q-26 1 -55 5.5t-57.5 12t-55.5 18t-48 23.5l14 29zM324 38q71 9 107.5 48t36.5 96q0 27 -8 46.5t-25.5 35.5t-45 29.5t-65.5 27.5v-283zM129 520q0 -24 9 -42t26.5 -32t43.5 -27t61 -26l13 -5v238q-69 -2 -111 -27t-42 -79z" />
    <glyph glyph-name="cent" unicode="&#xa2;" 
d="M333 495q54 -5 101 -37t75 -88l-30 -18l-29 28q-32 32 -59 48.5t-58 20.5v-412q52 4 109 32l58 27l18 -24q-44 -32 -90.5 -52.5t-94.5 -25.5l-6 -98h-34v97q-49 3 -88.5 23.5t-67 54t-42.5 78.5t-15 97q0 49 15.5 92t44 76.5t67.5 54.5t86 25l6 94h34v-93zM132 248
q0 -95 43.5 -149t117.5 -61v412q-35 -3 -64.5 -19t-51 -42t-33.5 -62t-12 -79z" />
    <glyph glyph-name="Euro" unicode="&#x20ac;" 
d="M559 58q-43 -31 -94.5 -49.5t-98.5 -18.5q-52 0 -94.5 18.5t-74.5 52.5t-53 82t-30 106h-81v29l77 6q-1 11 -1.5 23t-0.5 24v17.5t1 17.5h-76v29l79 6q8 58 29 108t53.5 86.5t75 57t93.5 20.5q31 0 60 -9.5t53.5 -26.5t44.5 -39.5t33 -48.5l-25 -16l-55 48q-29 25 -55 36
t-60 11t-66 -14t-58 -41.5t-44.5 -69.5t-25.5 -98h218v-39h-221q-1 -8 -1 -17v-17v-22t1 -22h221v-39h-217q14 -97 65.5 -156t139.5 -59q53 0 126 31l45 19z" />
    <glyph glyph-name="florin" unicode="&#x192;" 
d="M292 -64q0 -89 -45 -135t-122 -46q-24 0 -52 5t-48 13l6 31q21 -3 41.5 -4.5t37.5 -1.5q39 0 65 8.5t41 26.5t21 45t6 64v336h-98v27l98 11v176q0 89 44.5 135t121.5 46q24 0 52 -5t48 -13l-6 -31q-21 3 -41.5 4.5t-37.5 1.5q-39 0 -64.5 -8.5t-40.5 -26.5t-21 -45
t-6 -64v-169h186v-39h-186v-342z" />
    <glyph glyph-name="sterling" unicode="&#xa3;" 
d="M534 42v-42h-439v24q0 7 1 10.5t6 10.5l31 41q29 39 39 62t10 49q0 22 -6.5 50.5t-17.5 60.5h-98v28l84 10q-12 36 -21.5 73.5t-9.5 75.5q0 37 13.5 69.5t39 56.5t62.5 38t83 14q57 0 112 -22t106 -64l-21 -26l-65 32q-66 33 -132 33q-69 0 -109 -33t-40 -99q0 -32 9 -69
t24 -79h224v-38h-211q11 -33 17 -61.5t6 -46.5q0 -17 -3 -32.5t-9.5 -30.5t-17.5 -31t-27 -35l-24 -29h384z" />
    <glyph glyph-name="yen" unicode="&#xa5;" 
d="M257 248l-240 415h42q11 0 16 -8l223 -388l222 387q4 6 7 7.5t10 1.5h41l-241 -415h132v-38h-146v-52h146v-38h-146v-120h-51v120h-146v38h146v52h-146v38h131z" />
    <glyph glyph-name="numbersign" unicode="#" 
d="M434 663h46l-34 -192h95v-43h-102l-36 -193h138v-43h-145l-33 -192h-46l33 192h-156l-33 -192h-46l33 192h-93v43h101l35 193h-136v43h143l34 192h46l-34 -192h156zM202 235h155l36 193h-156z" />
    <glyph glyph-name="percent" unicode="%" horiz-adv-x="868" 
d="M333 501q0 65 -35 96.5t-84 31.5q-24 0 -45.5 -8t-38 -23.5t-26 -39.5t-9.5 -57t9.5 -57t26 -39.5t38 -23.5t45.5 -8q49 0 84 31.5t35 96.5zM47 501q0 36 13 67.5t35.5 55t53 36.5t65.5 13t65.5 -13t53 -36.5t35.5 -55t13 -67.5q0 -37 -13 -68.5t-35.5 -54.5t-53 -36
t-65.5 -13t-65.5 13t-53 36t-35.5 54.5t-13 68.5zM773 162q0 65 -35 96.5t-84 31.5q-24 0 -45.5 -8t-38 -23.5t-26 -39.5t-9.5 -57t9.5 -57t26 -39.5t38 -23.5t45.5 -8q49 0 84 31.5t35 96.5zM487 162q0 36 13 67.5t35.5 55t53 36.5t65.5 13t65.5 -13t53 -36.5t35.5 -55
t13 -67.5q0 -37 -13 -68.5t-35.5 -54.5t-53 -36t-65.5 -13t-65.5 13t-53 36t-35.5 54.5t-13 68.5zM244 0l330 663h49l-329 -663h-50z" />
    <glyph glyph-name="perthousand" unicode="&#x2030;" horiz-adv-x="1241" 
d="M333 501q0 65 -35 96.5t-84 31.5q-24 0 -45.5 -8t-38 -23.5t-26 -39.5t-9.5 -57t9.5 -57t26 -39.5t38 -23.5t45.5 -8q49 0 84 31.5t35 96.5zM47 501q0 36 13 67.5t35.5 55t53 36.5t65.5 13t65.5 -13t53 -36.5t35.5 -55t13 -67.5q0 -37 -13 -68.5t-35.5 -54.5t-53 -36
t-65.5 -13t-65.5 13t-53 36t-35.5 54.5t-13 68.5zM773 162q0 65 -35 96.5t-84 31.5q-24 0 -45.5 -8t-38 -23.5t-26 -39.5t-9.5 -57t9.5 -57t26 -39.5t38 -23.5t45.5 -8q49 0 84 31.5t35 96.5zM487 162q0 36 13 67.5t35.5 55t53 36.5t65.5 13t65.5 -13t53 -36.5t35.5 -55
t13 -67.5q0 -37 -13 -68.5t-35.5 -54.5t-53 -36t-65.5 -13t-65.5 13t-53 36t-35.5 54.5t-13 68.5zM1146 162q0 65 -35 96.5t-84 31.5q-24 0 -45.5 -8t-38 -23.5t-26 -39.5t-9.5 -57t9.5 -57t26 -39.5t38 -23.5t45.5 -8q49 0 84 31.5t35 96.5zM860 162q0 36 13 67.5t35.5 55
t53 36.5t65.5 13t65.5 -13t53 -36.5t35.5 -55t13 -67.5q0 -37 -13 -68.5t-35.5 -54.5t-53 -36t-65.5 -13t-65.5 13t-53 36t-35.5 54.5t-13 68.5zM244 0l330 663h49l-329 -663h-50z" />
    <glyph glyph-name="plus" unicode="+" horiz-adv-x="520" 
d="M239 423h41v-157h157v-41h-157v-157h-41v157h-157v41h157v157z" />
    <glyph glyph-name="minus" unicode="&#x2212;" horiz-adv-x="520" 
d="M437 266v-41h-355v41h355z" />
    <glyph glyph-name="multiply" unicode="&#xd7;" horiz-adv-x="520" 
d="M120 357l29 29l111 -111l111 111l29 -29l-111 -111l111 -111l-29 -29l-111 111l-111 -111l-29 29l111 111z" />
    <glyph glyph-name="less" unicode="&#x3c;" horiz-adv-x="520" 
d="M437 426v-45l-303 -135l303 -136v-45l-355 161v39z" />
    <glyph glyph-name="divide" unicode="&#xf7;" horiz-adv-x="520" 
d="M437 266v-41h-355v41h355zM227 126h51q10 0 12.5 -1.5t2.5 -8.5v-60h-66v70zM227 436h51q10 0 12.5 -1.5t2.5 -9.5v-60h-66v71z" />
    <glyph glyph-name="equal" unicode="=" horiz-adv-x="520" 
d="M437 354v-41h-355v41h355zM437 179v-42h-355v42h355z" />
    <glyph glyph-name="logicalnot" unicode="&#xac;" horiz-adv-x="520" 
d="M437 354v-215h-41v174h-314v41h355z" />
    <glyph glyph-name="greater" unicode="&#x3e;" horiz-adv-x="520" 
d="M437 265v-39l-355 -161v45l302 136l-302 135v45z" />
    <glyph glyph-name="notequal" unicode="&#x2260;" horiz-adv-x="520" 
d="M437 179v-42h-203l-49 -111l-38 14l44 97h-109v42h128l60 134h-188v41h206l50 112l38 -14l-44 -98h105v-41h-124l-60 -134h184z" />
    <glyph glyph-name="approxequal" unicode="&#x2248;" horiz-adv-x="520" 
d="M342 123q-22 0 -42.5 7t-41 15.5t-39.5 15.5t-38 7q-29 0 -47.5 -11t-35.5 -34l-24 8q18 38 44.5 58.5t58.5 20.5q22 0 42.5 -7t40.5 -15t39.5 -15t38.5 -7q29 0 47.5 10t35.5 34l24 -8q-18 -38 -44.5 -58.5t-58.5 -20.5zM342 279q-22 0 -42.5 7t-41 15.5t-39.5 15.5
t-38 7q-29 0 -47.5 -11t-35.5 -34l-24 8q18 38 44.5 58.5t58.5 20.5q22 0 42.5 -7t40.5 -15t39.5 -15t38.5 -7q29 0 47.5 10t35.5 34l24 -8q-18 -38 -44.5 -58.5t-58.5 -20.5z" />
    <glyph glyph-name="plusminus" unicode="&#xb1;" horiz-adv-x="520" 
d="M239 488h41v-155h157v-41h-157v-154h-41v154h-157v41h157v155zM437 41v-41h-355v41h355z" />
    <glyph glyph-name="lessequal" unicode="&#x2264;" horiz-adv-x="520" 
d="M437 41v-41h-355v41h355zM437 489v-45l-303 -130l303 -131v-45l-355 156v39z" />
    <glyph glyph-name="greaterequal" unicode="&#x2265;" horiz-adv-x="520" 
d="M437 41v-41h-355v41h355zM437 333v-39l-355 -156v45l302 131l-302 130v45z" />
    <glyph glyph-name="asciicircum" unicode="^" horiz-adv-x="520" 
d="M443 460l-35 -24l-148 195l-148 -195l-35 24l162 213h42z" />
    <glyph glyph-name="asciitilde" unicode="~" horiz-adv-x="520" 
d="M343 279q-22 0 -43 7t-41 15.5t-39.5 15.5t-37.5 7q-29 0 -48 -10.5t-35 -34.5l-25 8q19 38 45 58.5t58 20.5q22 0 43 -7t41 -15t39 -15t38 -7q29 0 47.5 10t35.5 34l25 -8q-19 -38 -45 -58.5t-58 -20.5z" />
    <glyph glyph-name="lozenge" unicode="&#x25ca;" 
d="M497 332l-200 277l-199 -277l199 -279zM288 0q-8 0 -12 6l-222 309q-11 16 0 33l226 315h24q7 0 9 -1t5 -6l223 -308q6 -8 7 -15t-7 -18l-227 -315h-26z" />
    <glyph glyph-name="degree" unicode="&#xb0;" horiz-adv-x="414" 
d="M366 512q0 -35 -12 -64t-33.5 -51t-50.5 -34t-63 -12t-63 12t-50.5 34t-33.5 51t-12 64q0 34 12 63.5t33.5 51.5t50.5 34t63 12t63 -12t50.5 -34t33.5 -51.5t12 -63.5zM318 512q0 60 -32.5 89t-78.5 29t-78.5 -29t-32.5 -89t32.5 -89t78.5 -29t78.5 29t32.5 89z" />
    <glyph glyph-name="quotesingle" unicode="'" horiz-adv-x="214" 
d="M94 420l-9 93q-3 32 -4 59.5t-1 51.5v39h54v-39q0 -24 -1 -51.5t-4 -59.5l-9 -93h-26z" />
    <glyph glyph-name="quotedbl" unicode="&#x22;" horiz-adv-x="357" 
d="M94 420l-9 93q-3 32 -4 59.5t-1 51.5v39h54v-39q0 -24 -1 -51.5t-4 -59.5l-9 -93h-26zM237 420l-9 93q-3 32 -4 59.5t-1 51.5v39h54v-39q0 -24 -1 -51.5t-4 -59.5l-9 -93h-26z" />
    <glyph glyph-name="radical" unicode="&#x221a;" horiz-adv-x="690" 
d="M724 793l-328 -793h-39q-9 0 -12 7l-190 441h-101v40h128q6 0 8 -1.5t4 -5.5l178 -429l298 734q2 4 4 5.5t8 1.5h42z" />
    <glyph glyph-name="currency" unicode="&#xa4;" 
d="M492 331q0 -66 -32 -116l74 -73l-31 -31l-70 70q-27 -26 -61 -41t-74 -15t-74 15t-61 41l-70 -70l-31 31l74 73q-32 50 -32 116t32 116l-74 73l31 31l70 -70q27 26 61 41t74 15t74 -15t61 -41l70 70l31 -31l-74 -73q32 -50 32 -116zM444 331q0 33 -10 62.5t-28.5 51.5
t-46 35t-61.5 13q-35 0 -62 -13t-45.5 -35t-28.5 -51.5t-10 -62.5t10 -62.5t28.5 -51.5t45.5 -35t62 -13q34 0 61.5 13t46 35t28.5 51.5t10 62.5z" />
    <glyph glyph-name="infinity" unicode="&#x221e;" horiz-adv-x="731" 
d="M211 170q38 0 67 31.5t56 102.5l25 65q4 11 3 16t-8 12q-37 36 -69.5 61t-71.5 25q-54 0 -82.5 -43.5t-28.5 -112.5q0 -31 6 -59.5t19.5 -50t34 -34.5t49.5 -13zM350 232q-25 -50 -60 -78t-82 -28q-36 0 -64.5 17t-47.5 45.5t-29 65t-10 74.5q0 41 10.5 77t30.5 63
t48.5 43t63.5 16q46 0 89 -28t82 -78q25 50 60 78t82 28q36 0 64.5 -17t47.5 -45.5t29 -65t10 -74.5q0 -41 -10.5 -77t-30.5 -63t-48.5 -43t-63.5 -16q-46 0 -89 28t-82 78zM520 483q-38 0 -67 -31.5t-56 -102.5l-25 -65q-4 -11 -3 -16t8 -12q37 -36 69.5 -61t71.5 -25
q54 0 82.5 43.5t28.5 112.5q0 31 -6 59.5t-19.5 50t-34 34.5t-49.5 13z" />
    <glyph glyph-name="uni00B5" unicode="&#xb5;" horiz-adv-x="558" 
d="M446 0l-13 41l-27 -12q-39 -17 -75 -27t-70 -10q-42 0 -76 11.5t-57 31.5v-264h-51v717h51v-307q0 -42 7 -65.5t22 -40.5q18 -19 46.5 -27.5t63.5 -8.5q65 0 136 26l16 6q8 3 9.5 5.5t1.5 8.5v403h51v-488h-35z" />
    <glyph glyph-name="partialdiff" unicode="&#x2202;" 
d="M103 645q67 28 136 28q67 0 120.5 -29t90.5 -79t56.5 -116t19.5 -139v-6q0 -62 -16 -118.5t-47.5 -100t-78 -69.5t-108.5 -26q-45 0 -85 17.5t-69.5 47.5t-47 71t-17.5 88q0 43 15 79t42.5 61.5t65.5 39.5t84 14q45 0 93 -14.5t94 -40.5l25 -14q-3 61 -20 114t-47.5 92
t-74.5 61.5t-102 22.5q-26 0 -55 -4.5t-63 -12.5zM107 213q0 -39 12.5 -72t35.5 -56.5t54 -36.5t69 -13q47 0 84 20.5t62 54t38 78t13 92.5q0 11 -2.5 16t-11.5 10q-42 25 -92.5 40.5t-96.5 15.5q-75 0 -120 -36.5t-45 -112.5z" />
    <glyph glyph-name="summation" unicode="&#x2211;" horiz-adv-x="543" 
d="M29 663h472v-43h-404l351 -393v-27l-340 -385h409v-44h-481v21q0 7 1.5 10.5t8.5 11.5l354 400l-363 405q-5 6 -6.5 9.5t-1.5 9.5v25z" />
    <glyph glyph-name="product" unicode="&#x220f;" horiz-adv-x="700" 
d="M492 620h-284v-849h-53v849h-128v43h646v-43h-128v-849h-53v849z" />
    <glyph glyph-name="integral" unicode="&#x222b;" 
d="M412 -73q0 -36 -11 -67t-32 -53t-51.5 -34.5t-69.5 -12.5q-40 0 -85 18l8 30q19 -3 39 -5.5t36 -2.5q57 0 87 31.5t30 93.5q0 40 -13.5 87t-33 97.5t-43 103t-43 103.5t-33 99.5t-13.5 90.5q0 36 11 67t32 53t51.5 34.5t69.5 12.5q40 0 85 -18l-8 -30q-19 3 -39 5.5
t-36 2.5q-57 0 -87 -31.5t-30 -93.5q0 -41 13.5 -87.5t33 -97t43 -102.5t43 -103t33 -99.5t13.5 -91.5z" />
    <glyph glyph-name="Ohm" unicode="&#x2126;" horiz-adv-x="704" 
d="M352 625q-51 0 -94.5 -14.5t-76 -43.5t-51 -71.5t-18.5 -98.5q0 -70 28.5 -132.5t79.5 -129.5l66 -87q4 -5 5.5 -9.5t1.5 -12.5v-26h-201v43h154l-47 57q-65 79 -101 150.5t-36 154.5q0 60 23 109t63 84.5t92.5 55t111.5 19.5t111.5 -19.5t92.5 -55t63 -84.5t23 -109
q0 -83 -36 -154.5t-101 -150.5l-47 -57h154v-43h-201v26q0 8 1.5 12.5t5.5 9.5l66 87q51 67 79.5 129.5t28.5 132.5q0 56 -18.5 98.5t-51 71.5t-76 43.5t-94.5 14.5z" />
    <glyph glyph-name="glyph161" unicode="&#x2206;" horiz-adv-x="669" 
d="M612 62q3 -8 4.5 -14t1.5 -17v-31h-567v31q0 8 1 14t5 16l250 602h39q7 0 9.5 -2t4.5 -7zM103 45h466l-237 556z" />
    <glyph glyph-name="litre" unicode="&#x2113;" horiz-adv-x="231" 
d="M223 11q-14 -5 -33.5 -9t-34.5 -4q-38 0 -56 18t-18 58v635h51v-664l91 -13v-21z" />
    <glyph glyph-name="estimated" unicode="&#x212e;" horiz-adv-x="876" 
d="M202 323q-8 0 -8 -6v-187q0 -7 3 -11t9 -10q44 -45 104.5 -71.5t129.5 -26.5q74 0 136.5 30t107.5 80h56q-54 -60 -132 -95.5t-169 -35.5q-79 0 -149 26.5t-122 72.5t-82 108.5t-30 133.5t30 133.5t82 109t122 73t149 26.5q78 0 147 -26.5t120.5 -73t82 -109t30.5 -133.5
v-8h-617zM680 537q0 6 -3.5 11t-9.5 11q-42 44 -101.5 69t-125.5 25q-69 0 -129 -26t-105 -71q-6 -6 -9 -11t-3 -13v-185q0 -5 8 -5h470q8 0 8 5v190z" />
    <glyph glyph-name="numero" unicode="&#x2116;" horiz-adv-x="1060" 
d="M528 166q16 -20 35 -44t33 -45q-2 27 -2.5 57t-0.5 50v479h50v-663h-31q-7 0 -9.5 1.5t-7.5 6.5l-396 487q-17 20 -35.5 44t-32.5 45q2 -27 2.5 -57t0.5 -50v-477h-51v663h29q8 0 11 -1.5t8 -7.5zM1030 512q0 -35 -12 -64t-33.5 -51t-50.5 -34t-63 -12t-63 12t-50.5 34
t-33.5 51t-12 64q0 34 12 63.5t33.5 51.5t50.5 34t63 12t63 -12t50.5 -34t33.5 -51.5t12 -63.5zM982 512q0 60 -32.5 89t-78.5 29t-78.5 -29t-32.5 -89t32.5 -89t78.5 -29t78.5 29t32.5 89z" />
    <glyph glyph-name="fraction" unicode="&#x2044;" horiz-adv-x="371" 
d="M-4 0l330 663h49l-329 -663h-50z" />
    <glyph glyph-name="onesuperior" unicode="&#xb9;" horiz-adv-x="408" 
d="M105 371h88v248l-90 -38l-14 30l110 53q10 5 20 5h18v-298h75v-35h-207v35z" />
    <glyph glyph-name="twosuperior" unicode="&#xb2;" horiz-adv-x="408" 
d="M141 371h171v-35h-224v18q0 8 2 12t9 11l111 111q27 27 38 47.5t11 41.5q0 29 -18.5 44t-48.5 15q-17 0 -35.5 -3.5t-48.5 -13.5l-22 -7l-12 26q27 15 57.5 25t59.5 10q50 0 80.5 -26.5t30.5 -70.5q0 -35 -21 -64.5t-65 -70.5z" />
    <glyph glyph-name="threesuperior" unicode="&#xb3;" horiz-adv-x="408" 
d="M125 385q48 -17 79 -17q41 0 58.5 19t17.5 45q0 27 -15.5 38.5t-51.5 11.5h-34q-8 0 -8 6v27h63q13 0 21 10t11.5 23t3.5 25q0 27 -16 45t-48 18q-29 0 -69 -14l-36 -13l-14 25q29 17 58.5 28t60.5 11q43 0 74 -24.5t31 -67.5q0 -42 -34 -79q23 -10 35 -29.5t12 -42.5
q0 -44 -33 -71.5t-87 -27.5q-32 0 -68 11.5t-61 30.5l14 25z" />
    <glyph glyph-name="onehalf" unicode="&#xbd;" horiz-adv-x="840" 
d="M244 0l330 663h49l-329 -663h-50zM90 370h88v248l-90 -38l-14 30l110 53q10 5 20 5h18v-298h75v-35h-207v35zM601 35h171v-35h-224v18q0 8 2 12t9 11l111 111q27 27 38 47.5t11 41.5q0 29 -18.5 44t-48.5 15q-17 0 -35.5 -3.5t-48.5 -13.5l-22 -7l-12 26q27 15 57.5 25
t59.5 10q50 0 80.5 -26.5t30.5 -70.5q0 -35 -21 -64.5t-65 -70.5z" />
    <glyph glyph-name="onequarter" unicode="&#xbc;" horiz-adv-x="840" 
d="M492 104q0 6 1 9.5t7 11.5l154 197q5 7 8.5 9t10.5 2h37v-211h53v-35h-53v-87h-43v87h-175v17zM667 283l-125 -161h125v161zM249 0l330 663h49l-329 -663h-50zM93 370h88v248l-90 -38l-14 30l110 53q10 5 20 5h18v-298h75v-35h-207v35z" />
    <glyph glyph-name="threequarters" unicode="&#xbe;" horiz-adv-x="840" 
d="M491 104q0 6 1 9.5t7 11.5l154 197q5 7 8.5 9t10.5 2h37v-211h53v-35h-53v-87h-43v87h-175v17zM666 283l-125 -161h125v161zM254 0l330 663h49l-329 -663h-50zM127 384q48 -17 79 -17q41 0 58.5 19t17.5 45q0 27 -15.5 38.5t-51.5 11.5h-34q-8 0 -8 6v27h63q13 0 21 10
t11.5 23t3.5 25q0 27 -16 45t-48 18q-29 0 -69 -14l-36 -13l-14 25q29 17 58.5 28t60.5 11q43 0 74 -24.5t31 -67.5q0 -42 -34 -79q23 -10 35 -29.5t12 -42.5q0 -44 -33 -71.5t-87 -27.5q-32 0 -68 11.5t-61 30.5l14 25z" />
    <glyph glyph-name="grave" unicode="`" horiz-adv-x="384" 
d="M79 654l27 40q5 8 13 2l186 -137l-16 -22z" />
    <glyph glyph-name="acute" unicode="&#xb4;" horiz-adv-x="384" 
d="M95 537l-16 22l186 137q8 5 13 -2l27 -40z" />
    <glyph glyph-name="dieresis" unicode="&#xa8;" horiz-adv-x="384" 
d="M73 646h57q9 0 11.5 -2t2.5 -9v-63h-71v74zM240 646h57q9 0 11.5 -2t2.5 -9v-63h-71v74z" />
    <glyph glyph-name="circumflex" unicode="&#x2c6;" horiz-adv-x="384" 
d="M341 561l-19 -18l-129 106h-3l-129 -106l-19 18l123 130q5 5 8.5 6.5t11.5 1.5h12q8 0 11 -1.5t8 -6.5z" />
    <glyph glyph-name="tilde" unicode="&#x2dc;" horiz-adv-x="384" 
d="M257 573q-16 0 -33.5 6.5t-35 15t-34.5 15t-33 6.5q-15 0 -30.5 -9.5t-27.5 -33.5l-26 8q13 39 36 59t53 20q16 0 33.5 -6.5t35 -15t34.5 -15t33 -6.5q15 0 30 10t28 34l26 -9q-13 -38 -36 -58.5t-53 -20.5z" />
    <glyph glyph-name="macron" unicode="&#xaf;" horiz-adv-x="384" 
d="M49 577v40h285v-40h-285z" />
    <glyph glyph-name="breve" unicode="&#x2d8;" horiz-adv-x="384" 
d="M192 551q-51 0 -90.5 32t-52.5 94l29 4q14 -38 44 -60t70 -22q41 0 70.5 22t43.5 60l29 -4q-12 -62 -52 -94t-91 -32z" />
    <glyph glyph-name="dotaccent" unicode="&#x2d9;" horiz-adv-x="384" 
d="M153 648h64q9 0 11.5 -2.5t2.5 -10.5v-65h-78v78z" />
    <glyph glyph-name="ring" unicode="&#x2da;" horiz-adv-x="384" 
d="M290 648q0 -22 -8 -40t-21.5 -30.5t-31.5 -19t-37 -6.5t-36.5 6.5t-31 19t-22 30.5t-8.5 40t8.5 40t22 30.5t31 19t36.5 6.5t37 -6.5t31.5 -19t21.5 -30.5t8 -40zM134 648q0 -26 15 -42t43 -16t43 16t15 42q0 27 -15 42.5t-43 15.5t-43 -15.5t-15 -42.5z" />
    <glyph glyph-name="cedilla" unicode="&#xb8;" horiz-adv-x="384" 
d="M181 19q-10 -14 -16 -26t-6 -22q0 -12 18 -20t40 -17t40 -22.5t18 -37.5q0 -34 -38.5 -56.5t-120.5 -26.5l-7 31l66 14q50 11 50 32q0 13 -17.5 21t-38.5 16.5t-38.5 19t-17.5 28.5q0 17 13 35.5t34 37.5z" />
    <glyph glyph-name="hungarumlaut" unicode="&#x2dd;" horiz-adv-x="384" 
d="M49 572l-20 17l126 148q7 9 15 1l30 -30zM204 572l-20 17l126 148q7 9 15 1l30 -30z" />
    <glyph glyph-name="ogonek" unicode="&#x2db;" horiz-adv-x="384" 
d="M233 3q-34 -22 -56.5 -48t-22.5 -52q0 -20 13.5 -32.5t41.5 -12.5q8 0 18.5 1.5t22.5 3.5l20 4l9 -25q-14 -9 -36 -15.5t-44 -6.5q-42 0 -68.5 21.5t-26.5 56.5t29.5 65.5t78.5 53.5z" />
    <glyph glyph-name="caron" unicode="&#x2c7;" horiz-adv-x="384" 
d="M216 551q-5 -5 -8 -6.5t-11 -1.5h-12q-8 0 -11.5 1.5t-8.5 6.5l-123 130l19 18l129 -106h3l129 106l19 -18z" />
    <glyph glyph-name="commaaccent" unicode="&#xf6c3;" horiz-adv-x="384" 
d="M146 -245l36 187h39q16 0 16 -16q0 -15 -17 -56l-50 -120z" />
    <glyph glyph-name="grave.cap" horiz-adv-x="384" 
d="M79 842l27 40q5 8 13 2l186 -137l-16 -22z" />
    <glyph glyph-name="acute.cap" horiz-adv-x="384" 
d="M95 725l-16 22l186 137q8 5 13 -2l27 -40z" />
    <glyph glyph-name="dieresis.cap" horiz-adv-x="384" 
d="M73 826h57q9 0 11.5 -2t2.5 -9v-63h-71v74zM240 826h57q9 0 11.5 -2t2.5 -9v-63h-71v74z" />
    <glyph glyph-name="circumflex.cap" horiz-adv-x="384" 
d="M341 731l-19 -18l-129 106h-3l-129 -106l-19 18l123 130q5 5 8.5 6.5t11.5 1.5h12q8 0 11 -1.5t8 -6.5z" />
    <glyph glyph-name="tilde.cap" horiz-adv-x="384" 
d="M257 743q-16 0 -33.5 6.5t-35 15t-34.5 15t-33 6.5q-15 0 -30.5 -9.5t-27.5 -33.5l-26 8q13 39 36 59t53 20q16 0 33.5 -6.5t35 -15t34.5 -15t33 -6.5q15 0 30 10t28 34l26 -9q-13 -38 -36 -58.5t-53 -20.5z" />
    <glyph glyph-name="macron.cap" horiz-adv-x="384" 
d="M49 748v40h285v-40h-285z" />
    <glyph glyph-name="breve.cap" horiz-adv-x="384" 
d="M192 721q-51 0 -90.5 32t-52.5 94l29 4q14 -38 44 -60t70 -22q41 0 70.5 22t43.5 60l29 -4q-12 -62 -52 -94t-91 -32z" />
    <glyph glyph-name="dotaccent.cap" horiz-adv-x="384" 
d="M153 818h64q9 0 11.5 -2.5t2.5 -10.5v-65h-78v78z" />
    <glyph glyph-name="ring.cap" horiz-adv-x="384" 
d="M290 828q0 -22 -8 -40t-21.5 -30.5t-31.5 -19t-37 -6.5t-36.5 6.5t-31 19t-22 30.5t-8.5 40t8.5 40t22 30.5t31 19t36.5 6.5t37 -6.5t31.5 -19t21.5 -30.5t8 -40zM134 828q0 -26 15 -42t43 -16t43 16t15 42q0 27 -15 42.5t-43 15.5t-43 -15.5t-15 -42.5z" />
    <glyph glyph-name="hungarumlaut.cap" horiz-adv-x="384" 
d="M49 741l-20 17l126 148q7 9 15 1l30 -30zM204 741l-20 17l126 148q7 9 15 1l30 -30z" />
    <glyph glyph-name="caron.cap" horiz-adv-x="384" 
d="M216 731q-5 -5 -8 -6.5t-11 -1.5h-12q-8 0 -11.5 1.5t-8.5 6.5l-123 130l19 18l129 -106h3l129 106l19 -18z" />
    <glyph glyph-name="Agrave" unicode="&#xc0;" horiz-adv-x="658" 
d="M593 0q-10 0 -14 8l-71 167h-360l-69 -167q-2 -5 -4.5 -6.5t-8.5 -1.5h-45l277 663h44q7 0 9.5 -2t4.5 -7l282 -654h-45zM489 218l-98 232q-19 45 -37.5 90t-28.5 73q-10 -28 -27 -72t-36 -89l-96 -234h323zM205 842l27 40q5 8 13 2l186 -137l-16 -22z" />
    <glyph glyph-name="Aacute" unicode="&#xc1;" horiz-adv-x="658" 
d="M593 0q-10 0 -14 8l-71 167h-360l-69 -167q-2 -5 -4.5 -6.5t-8.5 -1.5h-45l277 663h44q7 0 9.5 -2t4.5 -7l282 -654h-45zM489 218l-98 232q-19 45 -37.5 90t-28.5 73q-10 -28 -27 -72t-36 -89l-96 -234h323zM241 725l-16 22l186 137q8 5 13 -2l27 -40z" />
    <glyph glyph-name="Acircumflex" unicode="&#xc2;" horiz-adv-x="658" 
d="M593 0q-10 0 -14 8l-71 167h-360l-69 -167q-2 -5 -4.5 -6.5t-8.5 -1.5h-45l277 663h44q7 0 9.5 -2t4.5 -7l282 -654h-45zM489 218l-98 232q-19 45 -37.5 90t-28.5 73q-10 -28 -27 -72t-36 -89l-96 -234h323zM476 731l-19 -18l-129 106h-3l-129 -106l-19 18l123 130
q5 5 8.5 6.5t11.5 1.5h12q8 0 11 -1.5t8 -6.5z" />
    <glyph glyph-name="Atilde" unicode="&#xc3;" horiz-adv-x="658" 
d="M593 0q-10 0 -14 8l-71 167h-360l-69 -167q-2 -5 -4.5 -6.5t-8.5 -1.5h-45l277 663h44q7 0 9.5 -2t4.5 -7l282 -654h-45zM489 218l-98 232q-19 45 -37.5 90t-28.5 73q-10 -28 -27 -72t-36 -89l-96 -234h323zM391 743q-16 0 -33.5 6.5t-35 15t-34.5 15t-33 6.5
q-15 0 -30.5 -9.5t-27.5 -33.5l-26 8q13 39 36 59t53 20q16 0 33.5 -6.5t35 -15t34.5 -15t33 -6.5q15 0 30 10t28 34l26 -9q-13 -38 -36 -58.5t-53 -20.5z" />
    <glyph glyph-name="Adieresis" unicode="&#xc4;" horiz-adv-x="658" 
d="M593 0q-10 0 -14 8l-71 167h-360l-69 -167q-2 -5 -4.5 -6.5t-8.5 -1.5h-45l277 663h44q7 0 9.5 -2t4.5 -7l282 -654h-45zM489 218l-98 232q-19 45 -37.5 90t-28.5 73q-10 -28 -27 -72t-36 -89l-96 -234h323zM206 826h57q9 0 11.5 -2t2.5 -9v-63h-71v74zM373 826h57
q9 0 11.5 -2t2.5 -9v-63h-71v74z" />
    <glyph glyph-name="Amacron" unicode="&#x100;" horiz-adv-x="658" 
d="M593 0q-10 0 -14 8l-71 167h-360l-69 -167q-2 -5 -4.5 -6.5t-8.5 -1.5h-45l277 663h44q7 0 9.5 -2t4.5 -7l282 -654h-45zM489 218l-98 232q-19 45 -37.5 90t-28.5 73q-10 -28 -27 -72t-36 -89l-96 -234h323zM183 748v40h285v-40h-285z" />
    <glyph glyph-name="Abreve" unicode="&#x102;" horiz-adv-x="658" 
d="M593 0q-10 0 -14 8l-71 167h-360l-69 -167q-2 -5 -4.5 -6.5t-8.5 -1.5h-45l277 663h44q7 0 9.5 -2t4.5 -7l282 -654h-45zM489 218l-98 232q-19 45 -37.5 90t-28.5 73q-10 -28 -27 -72t-36 -89l-96 -234h323zM325 721q-51 0 -90.5 32t-52.5 94l29 4q14 -38 44 -60t70 -22
q41 0 70.5 22t43.5 60l29 -4q-12 -62 -52 -94t-91 -32z" />
    <glyph glyph-name="Acaron" unicode="&#x1cd;" horiz-adv-x="658" 
d="M593 0q-10 0 -14 8l-71 167h-360l-69 -167q-2 -5 -4.5 -6.5t-8.5 -1.5h-45l277 663h44q7 0 9.5 -2t4.5 -7l282 -654h-45zM489 218l-98 232q-19 45 -37.5 90t-28.5 73q-10 -28 -27 -72t-36 -89l-96 -234h323zM351 731q-5 -5 -8 -6.5t-11 -1.5h-12q-8 0 -11.5 1.5t-8.5 6.5
l-123 130l19 18l129 -106h3l129 106l19 -18z" />
    <glyph glyph-name="Aring" unicode="&#xc5;" horiz-adv-x="658" 
d="M593 0q-10 0 -14 8l-71 167h-360l-69 -167q-2 -5 -4.5 -6.5t-8.5 -1.5h-45l273 654q-28 10 -47 34t-19 58q0 22 8.5 40t22 30.5t31 19t36.5 6.5t37 -6.5t31.5 -19t21.5 -30.5t8 -40q0 -35 -20.5 -59t-47.5 -32l282 -655h-45zM489 218l-98 232q-19 45 -37.5 90t-28.5 73
q-10 -28 -27 -72t-36 -89l-96 -234h323zM268 746q0 -26 15 -42t43 -16t43 16t15 42q0 27 -15 42.5t-43 15.5t-43 -15.5t-15 -42.5z" />
    <glyph glyph-name="Aringacute" unicode="&#x1fa;" horiz-adv-x="658" 
d="M593 0q-10 0 -14 8l-71 167h-360l-69 -167q-2 -5 -4.5 -6.5t-8.5 -1.5h-45l273 654q-28 10 -47 34t-19 58q0 22 8.5 40t22 30.5t31 19t36.5 6.5t37 -6.5t31.5 -19t21.5 -30.5t8 -40q0 -35 -20.5 -59t-47.5 -32l282 -655h-45zM489 218l-98 232q-19 45 -37.5 90t-28.5 73
q-10 -28 -27 -72t-36 -89l-96 -234h323zM268 746q0 -26 15 -42t43 -16t43 16t15 42q0 27 -15 42.5t-43 15.5t-43 -15.5t-15 -42.5zM226 846l-16 22l186 137q8 5 13 -2l27 -40z" />
    <glyph glyph-name="Aogonek" unicode="&#x104;" horiz-adv-x="658" 
d="M489 218l-98 232q-19 45 -37.5 90t-28.5 73q-10 -28 -27 -72t-36 -89l-96 -234h323zM508 175h-360l-69 -167q-2 -5 -4.5 -6.5t-8.5 -1.5h-45l277 663h44q7 0 9.5 -2t4.5 -7l282 -654h-13q-26 0 -47 -9.5t-36 -24.5q-13 -14 -20.5 -29.5t-7.5 -32.5q0 -20 13 -33t42 -13
q11 0 29 2.5t32 6.5l9 -25q-14 -9 -36 -15.5t-44 -6.5q-42 0 -68.5 21.5t-26.5 56.5q0 39 31 71t79 50z" />
    <glyph glyph-name="AE" unicode="&#xc6;" horiz-adv-x="913" 
d="M857 663v-43h-343v-252h310v-43h-310v-282h355v-43h-408v176h-278l-107 -165q-5 -8 -8.5 -9.5t-11.5 -1.5h-45l432 663h414zM208 218h253v389z" />
    <glyph glyph-name="AEacute" unicode="&#x1fc;" horiz-adv-x="913" 
d="M857 663v-43h-343v-252h310v-43h-310v-282h355v-43h-408v176h-278l-107 -165q-5 -8 -8.5 -9.5t-11.5 -1.5h-45l432 663h414zM208 218h253v389zM491 725l-16 22l186 137q8 5 13 -2l27 -40z" />
    <glyph glyph-name="Cacute" unicode="&#x106;" horiz-adv-x="660" 
d="M622 100q-57 -50 -128 -80t-145 -30q-67 0 -123.5 25t-97 70.5t-63.5 108t-23 137.5q0 72 24 134.5t66 108.5t99 72.5t123 26.5q87 0 153.5 -44.5t107.5 -122.5l-32 -19l-51 52q-38 40 -80.5 63t-96.5 23q-57 0 -105 -22t-82 -61t-53 -92.5t-19 -117.5q0 -65 17.5 -118.5
t51.5 -92t83 -60t111 -21.5q44 0 88.5 14t86.5 37l67 36zM266 725l-16 22l186 137q8 5 13 -2l27 -40z" />
    <glyph glyph-name="Ccedilla" unicode="&#xc7;" horiz-adv-x="660" 
d="M622 100q-56 -49 -126 -78.5t-143 -31.5q-4 -9 -4 -19q0 -12 18 -20t40 -17t40 -22.5t18 -37.5q0 -34 -38.5 -56.5t-120.5 -26.5l-7 31l66 14q50 11 50 32q0 13 -17.5 21t-38.5 16.5t-38.5 19t-17.5 28.5q0 19 15 39q-61 6 -112 33t-87.5 71.5t-56.5 104t-20 130.5
q0 72 24 134.5t66 108.5t99 72.5t123 26.5q87 0 153.5 -44.5t107.5 -122.5l-32 -19l-51 52q-38 40 -80.5 63t-96.5 23q-57 0 -105 -22t-82 -61t-53 -92.5t-19 -117.5q0 -65 17.5 -118.5t51.5 -92t83 -60t111 -21.5q44 0 88.5 14t86.5 37l67 36z" />
    <glyph glyph-name="Ccircumflex" unicode="&#x108;" horiz-adv-x="660" 
d="M622 100q-57 -50 -128 -80t-145 -30q-67 0 -123.5 25t-97 70.5t-63.5 108t-23 137.5q0 72 24 134.5t66 108.5t99 72.5t123 26.5q87 0 153.5 -44.5t107.5 -122.5l-32 -19l-51 52q-38 40 -80.5 63t-96.5 23q-57 0 -105 -22t-82 -61t-53 -92.5t-19 -117.5q0 -65 17.5 -118.5
t51.5 -92t83 -60t111 -21.5q44 0 88.5 14t86.5 37l67 36zM507 731l-19 -18l-129 106h-3l-129 -106l-19 18l123 130q5 5 8.5 6.5t11.5 1.5h12q8 0 11 -1.5t8 -6.5z" />
    <glyph glyph-name="Ccaron" unicode="&#x10c;" horiz-adv-x="660" 
d="M622 100q-57 -50 -128 -80t-145 -30q-67 0 -123.5 25t-97 70.5t-63.5 108t-23 137.5q0 72 24 134.5t66 108.5t99 72.5t123 26.5q87 0 153.5 -44.5t107.5 -122.5l-32 -19l-51 52q-38 40 -80.5 63t-96.5 23q-57 0 -105 -22t-82 -61t-53 -92.5t-19 -117.5q0 -65 17.5 -118.5
t51.5 -92t83 -60t111 -21.5q44 0 88.5 14t86.5 37l67 36zM383 729q-5 -5 -8 -6.5t-11 -1.5h-12q-8 0 -11.5 1.5t-8.5 6.5l-123 130l19 18l129 -106h3l129 106l19 -18z" />
    <glyph glyph-name="Cdotaccent" unicode="&#x10a;" horiz-adv-x="660" 
d="M622 100q-57 -50 -128 -80t-145 -30q-67 0 -123.5 25t-97 70.5t-63.5 108t-23 137.5q0 72 24 134.5t66 108.5t99 72.5t123 26.5q87 0 153.5 -44.5t107.5 -122.5l-32 -19l-51 52q-38 40 -80.5 63t-96.5 23q-57 0 -105 -22t-82 -61t-53 -92.5t-19 -117.5q0 -65 17.5 -118.5
t51.5 -92t83 -60t111 -21.5q44 0 88.5 14t86.5 37l67 36zM314 818h64q9 0 11.5 -2.5t2.5 -10.5v-65h-78v78z" />
    <glyph glyph-name="Dcaron" unicode="&#x10e;" horiz-adv-x="691" 
d="M258 44q83 0 143.5 13.5t103.5 45.5q45 34 67.5 90.5t22.5 138.5t-22.5 138t-67.5 90q-43 32 -103.5 45.5t-143.5 13.5h-121v-575h121zM84 0v663h187q81 0 147 -15t115 -50q55 -39 85.5 -104t30.5 -162t-30.5 -162.5t-85.5 -104.5q-49 -35 -115 -50t-147 -15h-187z
M365 731q-5 -5 -8 -6.5t-11 -1.5h-12q-8 0 -11.5 1.5t-8.5 6.5l-123 130l19 18l129 -106h3l129 106l19 -18z" />
    <glyph glyph-name="Dcroat" unicode="&#x110;" horiz-adv-x="710" 
d="M103 0v320h-93v41h93v302h187q81 0 147 -15t115 -50q55 -39 85.5 -104t30.5 -162t-30.5 -162.5t-85.5 -104.5q-49 -35 -115 -50t-147 -15h-187zM277 44q83 0 143.5 13.5t103.5 45.5q45 34 67.5 90.5t22.5 138.5t-22.5 138t-67.5 90q-43 32 -103.5 45.5t-143.5 13.5h-121
v-258h169v-41h-169v-276h121z" />
    <glyph glyph-name="Eth" unicode="&#xd0;" horiz-adv-x="710" 
d="M103 0v320h-93v41h93v302h187q81 0 147 -15t115 -50q55 -39 85.5 -104t30.5 -162t-30.5 -162.5t-85.5 -104.5q-49 -35 -115 -50t-147 -15h-187zM277 44q83 0 143.5 13.5t103.5 45.5q45 34 67.5 90.5t22.5 138.5t-22.5 138t-67.5 90q-43 32 -103.5 45.5t-143.5 13.5h-121
v-258h169v-41h-169v-276h121z" />
    <glyph glyph-name="Egrave" unicode="&#xc8;" horiz-adv-x="536" 
d="M480 663v-43h-343v-252h310v-43h-310v-282h355v-43h-408v663h396zM171 842l27 40q5 8 13 2l186 -137l-16 -22z" />
    <glyph glyph-name="Eacute" unicode="&#xc9;" horiz-adv-x="536" 
d="M480 663v-43h-343v-252h310v-43h-310v-282h355v-43h-408v663h396zM198 725l-16 22l186 137q8 5 13 -2l27 -40z" />
    <glyph glyph-name="Ecircumflex" unicode="&#xca;" horiz-adv-x="536" 
d="M480 663v-43h-343v-252h310v-43h-310v-282h355v-43h-408v663h396zM439 731l-19 -18l-129 106h-3l-129 -106l-19 18l123 130q5 5 8.5 6.5t11.5 1.5h12q8 0 11 -1.5t8 -6.5z" />
    <glyph glyph-name="Ecaron" unicode="&#x11a;" horiz-adv-x="536" 
d="M480 663v-43h-343v-252h310v-43h-310v-282h355v-43h-408v663h396zM316 731q-5 -5 -8 -6.5t-11 -1.5h-12q-8 0 -11.5 1.5t-8.5 6.5l-123 130l19 18l129 -106h3l129 106l19 -18z" />
    <glyph glyph-name="Edieresis" unicode="&#xcb;" horiz-adv-x="536" 
d="M480 663v-43h-343v-252h310v-43h-310v-282h355v-43h-408v663h396zM164 826h57q9 0 11.5 -2t2.5 -9v-63h-71v74zM331 826h57q9 0 11.5 -2t2.5 -9v-63h-71v74z" />
    <glyph glyph-name="Emacron" unicode="&#x112;" horiz-adv-x="536" 
d="M480 663v-43h-343v-252h310v-43h-310v-282h355v-43h-408v663h396zM139 748v40h285v-40h-285z" />
    <glyph glyph-name="Ebreve" unicode="&#x114;" horiz-adv-x="536" 
d="M480 663v-43h-343v-252h310v-43h-310v-282h355v-43h-408v663h396zM287 721q-51 0 -90.5 32t-52.5 94l29 4q14 -38 44 -60t70 -22q41 0 70.5 22t43.5 60l29 -4q-12 -62 -52 -94t-91 -32z" />
    <glyph glyph-name="Edotaccent" unicode="&#x116;" horiz-adv-x="536" 
d="M480 663v-43h-343v-252h310v-43h-310v-282h355v-43h-408v663h396zM251 818h64q9 0 11.5 -2.5t2.5 -10.5v-65h-78v78z" />
    <glyph glyph-name="Eogonek" unicode="&#x118;" horiz-adv-x="540" 
d="M480 663v-43h-343v-252h310v-43h-310v-282h355v-43h-12q-23 0 -43.5 -8.5t-34.5 -22.5t-22.5 -31t-8.5 -35q0 -20 13.5 -32.5t41.5 -12.5q8 0 18.5 1.5t22.5 3.5l20 4l9 -25q-14 -9 -36 -15.5t-44 -6.5q-42 0 -68.5 21.5t-26.5 56.5q0 30 20 57.5t53 44.5h-310v663h396z
" />
    <glyph glyph-name="Gcircumflex" unicode="&#x11c;" horiz-adv-x="719" 
d="M596 274h-138v41h179q10 0 10 -10v-305h-35l-12 73l-37 -20q-57 -31 -108 -47t-105 -16q-70 0 -126.5 26t-97 71.5t-62.5 107.5t-22 135q0 77 25.5 140t69 108t101.5 70t123 25q93 0 163 -44.5t112 -116.5l-30 -21l-57 53q-42 40 -87.5 61t-105.5 21q-49 0 -96 -18.5
t-83.5 -55.5t-58.5 -92.5t-22 -128.5q0 -68 18.5 -122t53 -92t83 -58t107.5 -20q56 0 112.5 18.5t116.5 51.5q9 5 9 15v150zM513 731l-19 -18l-129 106h-3l-129 -106l-19 18l123 130q5 5 8.5 6.5t11.5 1.5h12q8 0 11 -1.5t8 -6.5z" />
    <glyph glyph-name="Gbreve" unicode="&#x11e;" horiz-adv-x="719" 
d="M596 274h-138v41h179q10 0 10 -10v-305h-35l-12 73l-37 -20q-57 -31 -108 -47t-105 -16q-70 0 -126.5 26t-97 71.5t-62.5 107.5t-22 135q0 77 25.5 140t69 108t101.5 70t123 25q93 0 163 -44.5t112 -116.5l-30 -21l-57 53q-42 40 -87.5 61t-105.5 21q-49 0 -96 -18.5
t-83.5 -55.5t-58.5 -92.5t-22 -128.5q0 -68 18.5 -122t53 -92t83 -58t107.5 -20q56 0 112.5 18.5t116.5 51.5q9 5 9 15v150zM368 721q-51 0 -90.5 32t-52.5 94l29 4q14 -38 44 -60t70 -22q41 0 70.5 22t43.5 60l29 -4q-12 -62 -52 -94t-91 -32z" />
    <glyph glyph-name="Gdotaccent" unicode="&#x120;" horiz-adv-x="719" 
d="M596 274h-138v41h179q10 0 10 -10v-305h-35l-12 73l-37 -20q-57 -31 -108 -47t-105 -16q-70 0 -126.5 26t-97 71.5t-62.5 107.5t-22 135q0 77 25.5 140t69 108t101.5 70t123 25q93 0 163 -44.5t112 -116.5l-30 -21l-57 53q-42 40 -87.5 61t-105.5 21q-49 0 -96 -18.5
t-83.5 -55.5t-58.5 -92.5t-22 -128.5q0 -68 18.5 -122t53 -92t83 -58t107.5 -20q56 0 112.5 18.5t116.5 51.5q9 5 9 15v150zM323 818h64q9 0 11.5 -2.5t2.5 -10.5v-65h-78v78z" />
    <glyph glyph-name="Gcommaaccent" unicode="&#x122;" horiz-adv-x="719" 
d="M596 274h-138v41h179q10 0 10 -10v-305h-35l-12 73l-37 -20q-57 -31 -108 -47t-105 -16q-70 0 -126.5 26t-97 71.5t-62.5 107.5t-22 135q0 77 25.5 140t69 108t101.5 70t123 25q93 0 163 -44.5t112 -116.5l-30 -21l-57 53q-42 40 -87.5 61t-105.5 21q-49 0 -96 -18.5
t-83.5 -55.5t-58.5 -92.5t-22 -128.5q0 -68 18.5 -122t53 -92t83 -58t107.5 -20q56 0 112.5 18.5t116.5 51.5q9 5 9 15v150zM311 -245l36 187h39q16 0 16 -16q0 -15 -17 -56l-50 -120z" />
    <glyph glyph-name="Hcircumflex" unicode="&#x124;" horiz-adv-x="688" 
d="M551 324h-414v-324h-53v663h53v-294h414v294h53v-663h-53v324zM493 731l-19 -18l-129 106h-3l-129 -106l-19 18l123 130q5 5 8.5 6.5t11.5 1.5h12q8 0 11 -1.5t8 -6.5z" />
    <glyph glyph-name="Hbar" unicode="&#x126;" horiz-adv-x="700" 
d="M557 324h-414v-324h-53v518h-76v41h76v104h53v-104h414v104h53v-104h76v-41h-76v-518h-53v324zM557 369v149h-414v-149h414z" />
    <glyph glyph-name="Igrave" unicode="&#xcc;" horiz-adv-x="231" 
d="M142 0h-53v663h53v-663zM2 842l27 40q5 8 13 2l186 -137l-16 -22z" />
    <glyph glyph-name="Iacute" unicode="&#xcd;" horiz-adv-x="231" 
d="M142 0h-53v663h53v-663zM32 725l-16 22l186 137q8 5 13 -2l27 -40z" />
    <glyph glyph-name="Icircumflex" unicode="&#xce;" horiz-adv-x="231" 
d="M142 0h-53v663h53v-663zM266 731l-19 -18l-129 106h-3l-129 -106l-19 18l123 130q5 5 8.5 6.5t11.5 1.5h12q8 0 11 -1.5t8 -6.5z" />
    <glyph glyph-name="Itilde" unicode="&#x128;" horiz-adv-x="231" 
d="M142 0h-53v663h53v-663zM183 743q-16 0 -33.5 6.5t-35 15t-34.5 15t-33 6.5q-15 0 -30.5 -9.5t-27.5 -33.5l-26 8q13 39 36 59t53 20q16 0 33.5 -6.5t35 -15t34.5 -15t33 -6.5q15 0 30 10t28 34l26 -9q-13 -38 -36 -58.5t-53 -20.5z" />
    <glyph glyph-name="Idieresis" unicode="&#xcf;" horiz-adv-x="231" 
d="M142 0h-53v663h53v-663zM-2 826h57q9 0 11.5 -2t2.5 -9v-63h-71v74zM165 826h57q9 0 11.5 -2t2.5 -9v-63h-71v74z" />
    <glyph glyph-name="Imacron" unicode="&#x12a;" horiz-adv-x="231" 
d="M142 0h-53v663h53v-663zM-26 748v40h285v-40h-285z" />
    <glyph glyph-name="Ibreve" unicode="&#x12c;" horiz-adv-x="231" 
d="M142 0h-53v663h53v-663zM118 721q-51 0 -90.5 32t-52.5 94l29 4q14 -38 44 -60t70 -22q41 0 70.5 22t43.5 60l29 -4q-12 -62 -52 -94t-91 -32z" />
    <glyph glyph-name="Idotaccent" unicode="&#x130;" horiz-adv-x="231" 
d="M142 0h-53v663h53v-663zM79 818h64q9 0 11.5 -2.5t2.5 -10.5v-65h-78v78z" />
    <glyph glyph-name="Iogonek" unicode="&#x12e;" horiz-adv-x="231" 
d="M142 0q-38 -19 -60.5 -43.5t-22.5 -53.5q0 -19 13.5 -32t41.5 -13q11 0 29 2.5t32 6.5l9 -25q-14 -9 -36 -15.5t-44 -6.5q-42 0 -68.5 21.5t-26.5 56.5q0 30 24 57t56 45v663h53v-663z" />
    <glyph glyph-name="IJ" unicode="&#x132;" horiz-adv-x="705" 
d="M142 0h-53v663h53v-663zM258 68l53 -13q42 -11 73 -15.5t56 -4.5q68 0 101 36q18 20 25.5 49t7.5 69v474h53v-481q0 -95 -48 -144q-48 -48 -139 -48q-44 0 -95 13t-99 36z" />
    <glyph glyph-name="Jcircumflex" unicode="&#x134;" horiz-adv-x="479" 
d="M32 68l53 -13q42 -11 73 -15.5t56 -4.5q68 0 101 36q18 20 25.5 49t7.5 69v474h53v-481q0 -95 -48 -144q-48 -48 -139 -48q-44 0 -95 13t-99 36zM523 727l-19 -18l-129 106h-3l-129 -106l-19 18l123 130q5 5 8.5 6.5t11.5 1.5h12q8 0 11 -1.5t8 -6.5z" />
    <glyph glyph-name="Kcommaaccent" unicode="&#x136;" horiz-adv-x="610" 
d="M316 402l282 -402h-46q-13 0 -19 9l-252 361q-38 -35 -78 -69t-66 -54v-247h-53v663h53v-366l405 372l31 -32zM263 -245l36 187h39q16 0 16 -16q0 -15 -17 -56l-50 -120z" />
    <glyph glyph-name="Lacute" unicode="&#x139;" horiz-adv-x="504" 
d="M84 663h53v-620h339v-43h-392v663zM76 725l-16 22l186 137q8 5 13 -2l27 -40z" />
    <glyph glyph-name="Lcaron" unicode="&#x13d;" horiz-adv-x="504" 
d="M84 663h53v-620h339v-43h-392v663zM251 476l36 187h39q16 0 16 -16q0 -15 -17 -56l-50 -120z" />
    <glyph glyph-name="Lcommaaccent" unicode="&#x13b;" horiz-adv-x="504" 
d="M84 663h53v-620h339v-43h-392v663zM233 -245l36 187h39q16 0 16 -16q0 -15 -17 -56l-50 -120z" />
    <glyph glyph-name="Lslash" unicode="&#x141;" horiz-adv-x="537" 
d="M117 334v329h53v-298l176 120l24 -34l-200 -136v-272h339v-43h-392v284l-87 -59l-24 34z" />
    <glyph glyph-name="Ldot" unicode="&#x13f;" horiz-adv-x="504" 
d="M317 388h64q9 0 11.5 -2.5t2.5 -10.5v-65h-78v78zM84 663h53v-620h339v-43h-392v663z" />
    <glyph glyph-name="Nacute" unicode="&#x143;" horiz-adv-x="728" 
d="M529 166q16 -20 35 -44t33 -45q-2 27 -2.5 57t-0.5 50v479h50v-663h-31q-7 0 -9.5 1.5t-7.5 6.5l-396 487q-17 20 -35.5 44t-32.5 45q2 -27 2.5 -57t0.5 -50v-477h-51v663h29q8 0 11 -1.5t8 -7.5zM293 725l-16 22l186 137q8 5 13 -2l27 -40z" />
    <glyph glyph-name="Ncaron" unicode="&#x147;" horiz-adv-x="728" 
d="M529 166q16 -20 35 -44t33 -45q-2 27 -2.5 57t-0.5 50v479h50v-663h-31q-7 0 -9.5 1.5t-7.5 6.5l-396 487q-17 20 -35.5 44t-32.5 45q2 -27 2.5 -57t0.5 -50v-477h-51v663h29q8 0 11 -1.5t8 -7.5zM393 731q-5 -5 -8 -6.5t-11 -1.5h-12q-8 0 -11.5 1.5t-8.5 6.5l-123 130
l19 18l129 -106h3l129 106l19 -18z" />
    <glyph glyph-name="Ntilde" unicode="&#xd1;" horiz-adv-x="728" 
d="M529 166q16 -20 35 -44t33 -45q-2 27 -2.5 57t-0.5 50v479h50v-663h-31q-7 0 -9.5 1.5t-7.5 6.5l-396 487q-17 20 -35.5 44t-32.5 45q2 -27 2.5 -57t0.5 -50v-477h-51v663h29q8 0 11 -1.5t8 -7.5zM432 743q-16 0 -33.5 6.5t-35 15t-34.5 15t-33 6.5q-15 0 -30.5 -9.5
t-27.5 -33.5l-26 8q13 39 36 59t53 20q16 0 33.5 -6.5t35 -15t34.5 -15t33 -6.5q15 0 30 10t28 34l26 -9q-13 -38 -36 -58.5t-53 -20.5z" />
    <glyph glyph-name="Ncommaaccent" unicode="&#x145;" horiz-adv-x="728" 
d="M529 166q16 -20 35 -44t33 -45q-2 27 -2.5 57t-0.5 50v479h50v-663h-31q-7 0 -9.5 1.5t-7.5 6.5l-396 487q-17 20 -35.5 44t-32.5 45q2 -27 2.5 -57t0.5 -50v-477h-51v663h29q8 0 11 -1.5t8 -7.5zM307 -245l36 187h39q16 0 16 -16q0 -15 -17 -56l-50 -120z" />
    <glyph glyph-name="Eng" unicode="&#x14a;" horiz-adv-x="728" 
d="M566 -127q15 16 21.5 43.5t6.5 68.5v25l-394 485q-17 20 -35.5 44t-32.5 45q2 -27 2.5 -57t0.5 -50v-477h-51v663h29q8 0 11 -1.5t8 -7.5l397 -488q16 -20 35 -44t33 -45q-2 27 -2.5 57t-0.5 50v479h50v-682q0 -45 -11 -82t-37 -60q-40 -37 -113 -37q-20 0 -48 4.5
t-46 12.5l7 31q18 -2 43 -3.5t41 -1.5q61 0 86 28z" />
    <glyph glyph-name="Ograve" unicode="&#xd2;" horiz-adv-x="724" 
d="M42 331q0 68 23 130t65 109t101 75t131 28t131 -28t101 -75t65 -109t23 -130t-23 -130t-65 -109t-101 -74.5t-131 -27.5t-131 27.5t-101 74.5t-65 109t-23 130zM628 331q0 65 -19.5 118.5t-54.5 92t-84 60t-108 21.5t-108 -21.5t-84 -60t-54.5 -92t-19.5 -118.5
t19.5 -118.5t54.5 -92t84 -59.5t108 -21t108 21t84 59.5t54.5 92t19.5 118.5zM238 842l27 40q5 8 13 2l186 -137l-16 -22z" />
    <glyph glyph-name="Oacute" unicode="&#xd3;" horiz-adv-x="724" 
d="M42 331q0 68 23 130t65 109t101 75t131 28t131 -28t101 -75t65 -109t23 -130t-23 -130t-65 -109t-101 -74.5t-131 -27.5t-131 27.5t-101 74.5t-65 109t-23 130zM628 331q0 65 -19.5 118.5t-54.5 92t-84 60t-108 21.5t-108 -21.5t-84 -60t-54.5 -92t-19.5 -118.5
t19.5 -118.5t54.5 -92t84 -59.5t108 -21t108 21t84 59.5t54.5 92t19.5 118.5zM274 725l-16 22l186 137q8 5 13 -2l27 -40z" />
    <glyph glyph-name="Ocircumflex" unicode="&#xd4;" horiz-adv-x="724" 
d="M42 331q0 68 23 130t65 109t101 75t131 28t131 -28t101 -75t65 -109t23 -130t-23 -130t-65 -109t-101 -74.5t-131 -27.5t-131 27.5t-101 74.5t-65 109t-23 130zM628 331q0 65 -19.5 118.5t-54.5 92t-84 60t-108 21.5t-108 -21.5t-84 -60t-54.5 -92t-19.5 -118.5
t19.5 -118.5t54.5 -92t84 -59.5t108 -21t108 21t84 59.5t54.5 92t19.5 118.5zM511 731l-19 -18l-129 106h-3l-129 -106l-19 18l123 130q5 5 8.5 6.5t11.5 1.5h12q8 0 11 -1.5t8 -6.5z" />
    <glyph glyph-name="Otilde" unicode="&#xd5;" horiz-adv-x="724" 
d="M42 331q0 68 23 130t65 109t101 75t131 28t131 -28t101 -75t65 -109t23 -130t-23 -130t-65 -109t-101 -74.5t-131 -27.5t-131 27.5t-101 74.5t-65 109t-23 130zM628 331q0 65 -19.5 118.5t-54.5 92t-84 60t-108 21.5t-108 -21.5t-84 -60t-54.5 -92t-19.5 -118.5
t19.5 -118.5t54.5 -92t84 -59.5t108 -21t108 21t84 59.5t54.5 92t19.5 118.5zM428 743q-16 0 -33.5 6.5t-35 15t-34.5 15t-33 6.5q-15 0 -30.5 -9.5t-27.5 -33.5l-26 8q13 39 36 59t53 20q16 0 33.5 -6.5t35 -15t34.5 -15t33 -6.5q15 0 30 10t28 34l26 -9q-13 -38 -36 -58.5
t-53 -20.5z" />
    <glyph glyph-name="Odieresis" unicode="&#xd6;" horiz-adv-x="724" 
d="M42 331q0 68 23 130t65 109t101 75t131 28t131 -28t101 -75t65 -109t23 -130t-23 -130t-65 -109t-101 -74.5t-131 -27.5t-131 27.5t-101 74.5t-65 109t-23 130zM628 331q0 65 -19.5 118.5t-54.5 92t-84 60t-108 21.5t-108 -21.5t-84 -60t-54.5 -92t-19.5 -118.5
t19.5 -118.5t54.5 -92t84 -59.5t108 -21t108 21t84 59.5t54.5 92t19.5 118.5zM242 826h57q9 0 11.5 -2t2.5 -9v-63h-71v74zM409 826h57q9 0 11.5 -2t2.5 -9v-63h-71v74z" />
    <glyph glyph-name="Omacron" unicode="&#x14c;" horiz-adv-x="724" 
d="M42 331q0 68 23 130t65 109t101 75t131 28t131 -28t101 -75t65 -109t23 -130t-23 -130t-65 -109t-101 -74.5t-131 -27.5t-131 27.5t-101 74.5t-65 109t-23 130zM628 331q0 65 -19.5 118.5t-54.5 92t-84 60t-108 21.5t-108 -21.5t-84 -60t-54.5 -92t-19.5 -118.5
t19.5 -118.5t54.5 -92t84 -59.5t108 -21t108 21t84 59.5t54.5 92t19.5 118.5zM219 748v40h285v-40h-285z" />
    <glyph glyph-name="Obreve" unicode="&#x14e;" horiz-adv-x="724" 
d="M42 331q0 68 23 130t65 109t101 75t131 28t131 -28t101 -75t65 -109t23 -130t-23 -130t-65 -109t-101 -74.5t-131 -27.5t-131 27.5t-101 74.5t-65 109t-23 130zM628 331q0 65 -19.5 118.5t-54.5 92t-84 60t-108 21.5t-108 -21.5t-84 -60t-54.5 -92t-19.5 -118.5
t19.5 -118.5t54.5 -92t84 -59.5t108 -21t108 21t84 59.5t54.5 92t19.5 118.5zM362 721q-51 0 -90.5 32t-52.5 94l29 4q14 -38 44 -60t70 -22q41 0 70.5 22t43.5 60l29 -4q-12 -62 -52 -94t-91 -32z" />
    <glyph glyph-name="Ohungarumlaut" unicode="&#x150;" horiz-adv-x="725" 
d="M42 331q0 68 23 130t65 109t101 75t131 28t131 -28t101 -75t65 -109t23 -130t-23 -130t-65 -109t-101 -74.5t-131 -27.5t-131 27.5t-101 74.5t-65 109t-23 130zM628 331q0 65 -19.5 118.5t-54.5 92t-84 60t-108 21.5t-108 -21.5t-84 -60t-54.5 -92t-19.5 -118.5
t19.5 -118.5t54.5 -92t84 -59.5t108 -21t108 21t84 59.5t54.5 92t19.5 118.5zM236 741l-20 17l126 148q7 9 15 1l30 -30zM391 741l-20 17l126 148q7 9 15 1l30 -30z" />
    <glyph glyph-name="Oslash" unicode="&#xd8;" horiz-adv-x="724" 
d="M42 331q0 68 23 130t65 109t101 75t131 28q53 0 98.5 -15t83.5 -42l64 87l38 -25l-68 -91q50 -48 77 -114.5t27 -141.5q0 -68 -23 -130t-65 -109t-101 -74.5t-131 -27.5q-53 0 -98.5 15t-83.5 41l-66 -90l-38 25l69 94q-50 48 -76.5 114.5t-26.5 141.5zM96 331
q0 -67 21.5 -122t57.5 -93l339 459q-32 23 -69.5 35.5t-82.5 12.5q-59 0 -108 -21.5t-84 -60t-54.5 -92t-19.5 -118.5zM628 331q0 67 -21.5 121.5t-58.5 93.5l-338 -460q31 -22 69 -34t83 -12q59 0 108 21t84 59.5t54.5 92t19.5 118.5z" />
    <glyph glyph-name="Oslashacute" unicode="&#x1fe;" horiz-adv-x="724" 
d="M42 331q0 68 23 130t65 109t101 75t131 28q53 0 98.5 -15t83.5 -42l64 87l38 -25l-68 -91q50 -48 77 -114.5t27 -141.5q0 -68 -23 -130t-65 -109t-101 -74.5t-131 -27.5q-53 0 -98.5 15t-83.5 41l-66 -90l-38 25l69 94q-50 48 -76.5 114.5t-26.5 141.5zM96 331
q0 -67 21.5 -122t57.5 -93l339 459q-32 23 -69.5 35.5t-82.5 12.5q-59 0 -108 -21.5t-84 -60t-54.5 -92t-19.5 -118.5zM628 331q0 67 -21.5 121.5t-58.5 93.5l-338 -460q31 -22 69 -34t83 -12q59 0 108 21t84 59.5t54.5 92t19.5 118.5zM288 725l-16 22l186 137q8 5 13 -2
l27 -40z" />
    <glyph glyph-name="OE" unicode="&#x152;" horiz-adv-x="1077" 
d="M625 331q0 65 -19 118.5t-53.5 92t-83 60t-107.5 21.5t-108 -21.5t-84 -60t-54.5 -92t-19.5 -118.5t19.5 -118.5t54.5 -92t84 -59.5t108 -21t107.5 21t83 59.5t53.5 92t19 118.5zM626 153q-39 -75 -108 -119t-156 -44q-72 0 -131 27.5t-101 74.5t-65 109t-23 130t23 130
t65 109t101 75t131 28q87 0 156 -44t108 -119v153h395v-44h-343v-251h310v-43h-310v-282h355v-43h-407v153z" />
    <glyph glyph-name="Thorn" unicode="&#xde;" horiz-adv-x="594" 
d="M137 0h-53v663h53v-119h179q65 0 108 -14t71 -41q26 -26 38.5 -62t12.5 -81q0 -54 -17.5 -103.5t-50.5 -80.5q-23 -22 -46.5 -29.5t-65.5 -7.5h-229v-125zM137 168h234q30 0 48.5 7t32.5 25q22 29 31.5 66t9.5 78q0 77 -35 113q-22 23 -57 32.5t-92 9.5h-172v-331z" />
    <glyph glyph-name="Racute" unicode="&#x154;" horiz-adv-x="620" 
d="M378 303q26 0 47 7.5t35 29.5q17 25 24 57t7 66q0 39 -9 69t-29 49q-22 21 -57 30t-90 9h-169v-317h241zM315 663q65 0 108 -13.5t71 -40.5q26 -26 38 -62.5t12 -81.5q0 -35 -7.5 -67t-22 -58t-36 -45t-49.5 -29l153 -266h-45q-8 0 -10.5 1.5t-5.5 6.5l-138 243
q-4 7 -6.5 8.5t-10.5 1.5h-229v-261h-53v663h231zM234 725l-16 22l186 137q8 5 13 -2l27 -40z" />
    <glyph glyph-name="Rcaron" unicode="&#x158;" horiz-adv-x="620" 
d="M378 303q26 0 47 7.5t35 29.5q17 25 24 57t7 66q0 39 -9 69t-29 49q-22 21 -57 30t-90 9h-169v-317h241zM315 663q65 0 108 -13.5t71 -40.5q26 -26 38 -62.5t12 -81.5q0 -35 -7.5 -67t-22 -58t-36 -45t-49.5 -29l153 -266h-45q-8 0 -10.5 1.5t-5.5 6.5l-138 243
q-4 7 -6.5 8.5t-10.5 1.5h-229v-261h-53v663h231zM345 731q-5 -5 -8 -6.5t-11 -1.5h-12q-8 0 -11.5 1.5t-8.5 6.5l-123 130l19 18l129 -106h3l129 106l19 -18z" />
    <glyph glyph-name="Rcommaaccent" unicode="&#x156;" horiz-adv-x="620" 
d="M378 303q26 0 47 7.5t35 29.5q17 25 24 57t7 66q0 39 -9 69t-29 49q-22 21 -57 30t-90 9h-169v-317h241zM315 663q65 0 108 -13.5t71 -40.5q26 -26 38 -62.5t12 -81.5q0 -35 -7.5 -67t-22 -58t-36 -45t-49.5 -29l153 -266h-45q-8 0 -10.5 1.5t-5.5 6.5l-138 243
q-4 7 -6.5 8.5t-10.5 1.5h-229v-261h-53v663h231zM258 -245l36 187h39q16 0 16 -16q0 -15 -17 -56l-50 -120z" />
    <glyph glyph-name="Sacute" unicode="&#x15a;" horiz-adv-x="554" 
d="M120 60q79 -24 147 -24q89 0 134.5 41t45.5 105q0 27 -8 46.5t-25.5 35.5t-44.5 29.5t-65 27.5l-73 27q-47 17 -79.5 35t-53 38.5t-30 44.5t-9.5 53q0 37 15.5 66t44 48.5t67.5 29.5t86 10q45 0 98.5 -10t99.5 -27l-10 -31l-49 8q-38 6 -70.5 9.5t-67.5 3.5
q-75 0 -120 -24.5t-45 -81.5q0 -48 34.5 -75t105.5 -52l71 -26q40 -15 73.5 -32t56.5 -38.5t36 -50t13 -66.5q0 -44 -17.5 -79.5t-48.5 -60t-73 -37.5t-91 -13q-26 0 -55.5 4.5t-59.5 12t-58 18.5t-50 24l14 29zM197 725l-16 22l186 137q8 5 13 -2l27 -40z" />
    <glyph glyph-name="Scircumflex" unicode="&#x15c;" horiz-adv-x="554" 
d="M120 60q79 -24 147 -24q89 0 134.5 41t45.5 105q0 27 -8 46.5t-25.5 35.5t-44.5 29.5t-65 27.5l-73 27q-47 17 -79.5 35t-53 38.5t-30 44.5t-9.5 53q0 37 15.5 66t44 48.5t67.5 29.5t86 10q45 0 98.5 -10t99.5 -27l-10 -31l-49 8q-38 6 -70.5 9.5t-67.5 3.5
q-75 0 -120 -24.5t-45 -81.5q0 -48 34.5 -75t105.5 -52l71 -26q40 -15 73.5 -32t56.5 -38.5t36 -50t13 -66.5q0 -44 -17.5 -79.5t-48.5 -60t-73 -37.5t-91 -13q-26 0 -55.5 4.5t-59.5 12t-58 18.5t-50 24l14 29zM431 731l-19 -18l-129 106h-3l-129 -106l-19 18l123 130
q5 5 8.5 6.5t11.5 1.5h12q8 0 11 -1.5t8 -6.5z" />
    <glyph glyph-name="Scaron" unicode="&#x160;" horiz-adv-x="554" 
d="M120 60q79 -24 147 -24q89 0 134.5 41t45.5 105q0 27 -8 46.5t-25.5 35.5t-44.5 29.5t-65 27.5l-73 27q-47 17 -79.5 35t-53 38.5t-30 44.5t-9.5 53q0 37 15.5 66t44 48.5t67.5 29.5t86 10q45 0 98.5 -10t99.5 -27l-10 -31l-49 8q-38 6 -70.5 9.5t-67.5 3.5
q-75 0 -120 -24.5t-45 -81.5q0 -48 34.5 -75t105.5 -52l71 -26q40 -15 73.5 -32t56.5 -38.5t36 -50t13 -66.5q0 -44 -17.5 -79.5t-48.5 -60t-73 -37.5t-91 -13q-26 0 -55.5 4.5t-59.5 12t-58 18.5t-50 24l14 29zM303 731q-5 -5 -8 -6.5t-11 -1.5h-12q-8 0 -11.5 1.5
t-8.5 6.5l-123 130l19 18l129 -106h3l129 106l19 -18z" />
    <glyph glyph-name="Scedilla" unicode="&#x15e;" horiz-adv-x="554" 
d="M120 60q79 -24 147 -24q89 0 134.5 41t45.5 105q0 27 -8 46.5t-25.5 35.5t-44.5 29.5t-65 27.5l-73 27q-47 17 -79.5 35t-53 38.5t-30 44.5t-9.5 53q0 37 15.5 66t43.5 48.5t67 29.5t87 10q45 0 98.5 -10t99.5 -27l-10 -31l-49 8q-38 6 -70.5 9.5t-67.5 3.5
q-74 0 -119.5 -25.5t-45.5 -80.5q0 -48 34.5 -75t105.5 -52l71 -26q40 -15 73.5 -32t56.5 -38.5t36 -50t13 -66.5q0 -42 -16 -76t-44.5 -58.5t-67 -38.5t-84.5 -16q-5 -12 -5 -20q0 -12 18 -20t40 -17t40 -22.5t18 -37.5q0 -34 -38.5 -56.5t-120.5 -26.5l-7 31l66 14
q50 11 50 32q0 13 -17.5 21t-38.5 16.5t-38.5 19t-17.5 28.5t14 38q-51 3 -107 18.5t-97 39.5l14 29z" />
    <glyph glyph-name="Scommaaccent" unicode="&#x218;" horiz-adv-x="554" 
d="M120 60q79 -24 147 -24q89 0 134.5 41t45.5 105q0 27 -8 46.5t-25.5 35.5t-44.5 29.5t-65 27.5l-73 27q-47 17 -79.5 35t-53 38.5t-30 44.5t-9.5 53q0 37 15.5 66t44 48.5t67.5 29.5t86 10q45 0 98.5 -10t99.5 -27l-10 -31l-49 8q-38 6 -70.5 9.5t-67.5 3.5
q-75 0 -120 -24.5t-45 -81.5q0 -48 34.5 -75t105.5 -52l71 -26q40 -15 73.5 -32t56.5 -38.5t36 -50t13 -66.5q0 -44 -17.5 -79.5t-48.5 -60t-73 -37.5t-91 -13q-26 0 -55.5 4.5t-59.5 12t-58 18.5t-50 24l14 29zM215 -245l36 187h39q16 0 16 -16q0 -15 -17 -56l-50 -120z
" />
    <glyph glyph-name="Tcaron" unicode="&#x164;" horiz-adv-x="559" 
d="M253 620h-228v43h509v-43h-228v-620h-53v620zM306 731q-5 -5 -8 -6.5t-11 -1.5h-12q-8 0 -11.5 1.5t-8.5 6.5l-123 130l19 18l129 -106h3l129 106l19 -18z" />
    <glyph glyph-name="Tcommaaccent" unicode="&#x162;" horiz-adv-x="559" 
d="M253 620h-228v43h509v-43h-228v-620h-53v620zM220 -245l36 187h39q16 0 16 -16q0 -15 -17 -56l-50 -120z" />
    <glyph glyph-name="uni021A" unicode="&#x21a;" horiz-adv-x="559" 
d="M253 620h-228v43h509v-43h-228v-620h-53v620zM220 -245l36 187h39q16 0 16 -16q0 -15 -17 -56l-50 -120z" />
    <glyph glyph-name="Tbar" unicode="&#x166;" horiz-adv-x="559" 
d="M253 313h-153v41h153v266h-228v43h509v-43h-228v-266h153v-41h-153v-313h-53v313z" />
    <glyph glyph-name="Ugrave" unicode="&#xd9;" horiz-adv-x="679" 
d="M599 244q0 -58 -14 -100.5t-43 -74.5q-34 -38 -85 -58.5t-117 -20.5t-117 20.5t-85 58.5q-29 32 -43.5 75t-14.5 101v418h53v-409q0 -57 11 -94t37 -64t67 -42t92 -15t92 15t67 42t37 64t11 94v409h52v-419zM209 842l27 40q5 8 13 2l186 -137l-16 -22z" />
    <glyph glyph-name="Uacute" unicode="&#xda;" horiz-adv-x="679" 
d="M599 244q0 -58 -14 -100.5t-43 -74.5q-34 -38 -85 -58.5t-117 -20.5t-117 20.5t-85 58.5q-29 32 -43.5 75t-14.5 101v418h53v-409q0 -57 11 -94t37 -64t67 -42t92 -15t92 15t67 42t37 64t11 94v409h52v-419zM266 725l-16 22l186 137q8 5 13 -2l27 -40z" />
    <glyph glyph-name="Ucircumflex" unicode="&#xdb;" horiz-adv-x="679" 
d="M599 244q0 -58 -14 -100.5t-43 -74.5q-34 -38 -85 -58.5t-117 -20.5t-117 20.5t-85 58.5q-29 32 -43.5 75t-14.5 101v418h53v-409q0 -57 11 -94t37 -64t67 -42t92 -15t92 15t67 42t37 64t11 94v409h52v-419zM490 731l-19 -18l-129 106h-3l-129 -106l-19 18l123 130
q5 5 8.5 6.5t11.5 1.5h12q8 0 11 -1.5t8 -6.5z" />
    <glyph glyph-name="Utilde" unicode="&#x168;" horiz-adv-x="679" 
d="M599 244q0 -58 -14 -100.5t-43 -74.5q-34 -38 -85 -58.5t-117 -20.5t-117 20.5t-85 58.5q-29 32 -43.5 75t-14.5 101v418h53v-409q0 -57 11 -94t37 -64t67 -42t92 -15t92 15t67 42t37 64t11 94v409h52v-419zM412 743q-16 0 -33.5 6.5t-35 15t-34.5 15t-33 6.5
q-15 0 -30.5 -9.5t-27.5 -33.5l-26 8q13 39 36 59t53 20q16 0 33.5 -6.5t35 -15t34.5 -15t33 -6.5q15 0 30 10t28 34l26 -9q-13 -38 -36 -58.5t-53 -20.5z" />
    <glyph glyph-name="Udieresis" unicode="&#xdc;" horiz-adv-x="679" 
d="M599 244q0 -58 -14 -100.5t-43 -74.5q-34 -38 -85 -58.5t-117 -20.5t-117 20.5t-85 58.5q-29 32 -43.5 75t-14.5 101v418h53v-409q0 -57 11 -94t37 -64t67 -42t92 -15t92 15t67 42t37 64t11 94v409h52v-419zM220 826h57q9 0 11.5 -2t2.5 -9v-63h-71v74zM387 826h57
q9 0 11.5 -2t2.5 -9v-63h-71v74z" />
    <glyph glyph-name="Umacron" unicode="&#x16a;" horiz-adv-x="679" 
d="M599 244q0 -58 -14 -100.5t-43 -74.5q-34 -38 -85 -58.5t-117 -20.5t-117 20.5t-85 58.5q-29 32 -43.5 75t-14.5 101v418h53v-409q0 -57 11 -94t37 -64t67 -42t92 -15t92 15t67 42t37 64t11 94v409h52v-419zM197 748v40h285v-40h-285z" />
    <glyph glyph-name="Ubreve" unicode="&#x16c;" horiz-adv-x="679" 
d="M599 244q0 -58 -14 -100.5t-43 -74.5q-34 -38 -85 -58.5t-117 -20.5t-117 20.5t-85 58.5q-29 32 -43.5 75t-14.5 101v418h53v-409q0 -57 11 -94t37 -64t67 -42t92 -15t92 15t67 42t37 64t11 94v409h52v-419zM340 721q-51 0 -90.5 32t-52.5 94l29 4q14 -38 44 -60t70 -22
q41 0 70.5 22t43.5 60l29 -4q-12 -62 -52 -94t-91 -32z" />
    <glyph glyph-name="Uring" unicode="&#x16e;" horiz-adv-x="679" 
d="M599 244q0 -58 -14 -100.5t-43 -74.5q-34 -38 -85 -58.5t-117 -20.5t-117 20.5t-85 58.5q-29 32 -43.5 75t-14.5 101v418h53v-409q0 -57 11 -94t37 -64t67 -42t92 -15t92 15t67 42t37 64t11 94v409h52v-419zM436 823q0 -22 -8 -40t-21.5 -30.5t-31.5 -19t-37 -6.5
t-36.5 6.5t-31 19t-22 30.5t-8.5 40t8.5 40t22 30.5t31 19t36.5 6.5t37 -6.5t31.5 -19t21.5 -30.5t8 -40zM280 823q0 -26 15 -42t43 -16t43 16t15 42q0 27 -15 42.5t-43 15.5t-43 -15.5t-15 -42.5z" />
    <glyph glyph-name="Uhungarumlaut" unicode="&#x170;" horiz-adv-x="679" 
d="M599 244q0 -58 -14 -100.5t-43 -74.5q-34 -38 -85 -58.5t-117 -20.5t-117 20.5t-85 58.5q-29 32 -43.5 75t-14.5 101v418h53v-409q0 -57 11 -94t37 -64t67 -42t92 -15t92 15t67 42t37 64t11 94v409h52v-419zM238 741l-20 17l126 148q7 9 15 1l30 -30zM393 741l-20 17
l126 148q7 9 15 1l30 -30z" />
    <glyph glyph-name="Uogonek" unicode="&#x172;" horiz-adv-x="679" 
d="M540 68q-21 -23 -51.5 -41.5t-59 -37t-48.5 -39t-20 -47.5q0 -20 13.5 -32.5t41.5 -12.5q8 0 18.5 1.5t22.5 3.5l20 4l9 -25q-14 -9 -36 -15.5t-44 -6.5q-42 0 -68.5 21.5t-26.5 56.5q0 28 18 52t47 42q-9 -1 -18 -1.5t-18 -0.5q-66 0 -116.5 20t-84.5 58
q-29 32 -44 76.5t-15 103.5v415h53v-409q0 -107 49 -159q53 -56 158 -56q52 0 92 14.5t66 41.5t37.5 65.5t11.5 93.5v409h52v-415q0 -115 -59 -180z" />
    <glyph glyph-name="Wgrave" unicode="&#x1e80;" horiz-adv-x="991" 
d="M702 0q-10 0 -13 8l-147 439q-14 41 -27.5 85t-21.5 77q-8 -34 -20 -78t-24 -86l-131 -445h-49q-10 0 -13 8l-229 655h47q6 0 8 -1.5t4 -6.5l155 -454q14 -40 26 -81t19 -67q3 12 7.5 29t10 36.5t11.5 40t12 40.5l137 464h48q10 0 13 -8l152 -454q6 -18 12.5 -39t13 -41
t11.5 -38t8 -31q3 11 8 28.5t11 37.5t12.5 41.5t12.5 41.5l142 454q2 5 4 6.5t8 1.5h44l-212 -663h-50zM378 842l27 40q5 8 13 2l186 -137l-16 -22z" />
    <glyph glyph-name="Wacute" unicode="&#x1e82;" horiz-adv-x="991" 
d="M702 0q-10 0 -13 8l-147 439q-14 41 -27.5 85t-21.5 77q-8 -34 -20 -78t-24 -86l-131 -445h-49q-10 0 -13 8l-229 655h47q6 0 8 -1.5t4 -6.5l155 -454q14 -40 26 -81t19 -67q3 12 7.5 29t10 36.5t11.5 40t12 40.5l137 464h48q10 0 13 -8l152 -454q6 -18 12.5 -39t13 -41
t11.5 -38t8 -31q3 11 8 28.5t11 37.5t12.5 41.5t12.5 41.5l142 454q2 5 4 6.5t8 1.5h44l-212 -663h-50zM409 725l-16 22l186 137q8 5 13 -2l27 -40z" />
    <glyph glyph-name="Wcircumflex" unicode="&#x174;" horiz-adv-x="991" 
d="M702 0q-10 0 -13 8l-147 439q-14 41 -27.5 85t-21.5 77q-8 -34 -20 -78t-24 -86l-131 -445h-49q-10 0 -13 8l-229 655h47q6 0 8 -1.5t4 -6.5l155 -454q14 -40 26 -81t19 -67q3 12 7.5 29t10 36.5t11.5 40t12 40.5l137 464h48q10 0 13 -8l152 -454q6 -18 12.5 -39t13 -41
t11.5 -38t8 -31q3 11 8 28.5t11 37.5t12.5 41.5t12.5 41.5l142 454q2 5 4 6.5t8 1.5h44l-212 -663h-50zM646 731l-19 -18l-129 106h-3l-129 -106l-19 18l123 130q5 5 8.5 6.5t11.5 1.5h12q8 0 11 -1.5t8 -6.5z" />
    <glyph glyph-name="Wdieresis" unicode="&#x1e84;" horiz-adv-x="991" 
d="M702 0q-10 0 -13 8l-147 439q-14 41 -27.5 85t-21.5 77q-8 -34 -20 -78t-24 -86l-131 -445h-49q-10 0 -13 8l-229 655h47q6 0 8 -1.5t4 -6.5l155 -454q14 -40 26 -81t19 -67q3 12 7.5 29t10 36.5t11.5 40t12 40.5l137 464h48q10 0 13 -8l152 -454q6 -18 12.5 -39t13 -41
t11.5 -38t8 -31q3 11 8 28.5t11 37.5t12.5 41.5t12.5 41.5l142 454q2 5 4 6.5t8 1.5h44l-212 -663h-50zM377 826h57q9 0 11.5 -2t2.5 -9v-63h-71v74zM544 826h57q9 0 11.5 -2t2.5 -9v-63h-71v74z" />
    <glyph glyph-name="Ygrave" unicode="&#x1ef2;" horiz-adv-x="580" 
d="M316 223v-223h-53v223l-256 440h46q10 0 15 -8l222 -387l223 386q3 5 6 7t11 2h44zM142 842l27 40q5 8 13 2l186 -137l-16 -22z" />
    <glyph glyph-name="Yacute" unicode="&#xdd;" horiz-adv-x="580" 
d="M316 223v-223h-53v223l-256 440h46q10 0 15 -8l222 -387l223 386q3 5 6 7t11 2h44zM223 725l-16 22l186 137q8 5 13 -2l27 -40z" />
    <glyph glyph-name="Ycircumflex" unicode="&#x176;" horiz-adv-x="580" 
d="M316 223v-223h-53v223l-256 440h46q10 0 15 -8l222 -387l223 386q3 5 6 7t11 2h44zM439 731l-19 -18l-129 106h-3l-129 -106l-19 18l123 130q5 5 8.5 6.5t11.5 1.5h12q8 0 11 -1.5t8 -6.5z" />
    <glyph glyph-name="Ydieresis" unicode="&#x178;" horiz-adv-x="580" 
d="M316 223v-223h-53v223l-256 440h46q10 0 15 -8l222 -387l223 386q3 5 6 7t11 2h44zM169 826h57q9 0 11.5 -2t2.5 -9v-63h-71v74zM336 826h57q9 0 11.5 -2t2.5 -9v-63h-71v74z" />
    <glyph glyph-name="Zacute" unicode="&#x179;" horiz-adv-x="546" 
d="M500 638q0 -8 -6 -18l-387 -577h401v-43h-464v23q0 6 1 9.5t5 9.5l387 578h-392v43h455v-25zM186 725l-16 22l186 137q8 5 13 -2l27 -40z" />
    <glyph glyph-name="Zcaron" unicode="&#x17d;" horiz-adv-x="546" 
d="M500 638q0 -8 -6 -18l-387 -577h401v-43h-464v23q0 6 1 9.5t5 9.5l387 578h-392v43h455v-25zM299 731q-5 -5 -8 -6.5t-11 -1.5h-12q-8 0 -11.5 1.5t-8.5 6.5l-123 130l19 18l129 -106h3l129 106l19 -18z" />
    <glyph glyph-name="Zdotaccent" unicode="&#x17b;" horiz-adv-x="546" 
d="M500 638q0 -8 -6 -18l-387 -577h401v-43h-464v23q0 6 1 9.5t5 9.5l387 578h-392v43h455v-25zM231 818h64q9 0 11.5 -2.5t2.5 -10.5v-65h-78v78z" />
    <glyph glyph-name="agrave" unicode="&#xe0;" horiz-adv-x="531" 
d="M524 32v-21q-13 -5 -29.5 -9t-31.5 -4q-58 0 -69 50l-25 -13q-36 -19 -73 -31t-75 -12q-39 0 -71 13t-55 34.5t-35.5 50.5t-12.5 62q0 49 29 78q36 37 117 37q19 0 51.5 -1t68.5 -3l79 -3v58q0 37 -7.5 60t-21.5 39q-17 19 -45 27t-59 8q-28 0 -56.5 -5t-66.5 -17
l-49 -15l-13 27q51 26 98.5 40t87.5 14q45 0 81.5 -13t61.5 -40q20 -21 30 -50.5t10 -73.5v-276zM392 218q0 6 -2 7.5t-8 1.5h-191q-53 0 -72 -18q-20 -19 -20 -56q0 -51 34.5 -84.5t97.5 -33.5q19 0 40 4t40.5 10t37.5 14t31 16q8 5 10 8.5t2 10.5v120zM139 654l27 40
q5 8 13 2l186 -137l-16 -22z" />
    <glyph glyph-name="aacute" unicode="&#xe1;" horiz-adv-x="531" 
d="M524 32v-21q-13 -5 -29.5 -9t-31.5 -4q-58 0 -69 50l-25 -13q-36 -19 -73 -31t-75 -12q-39 0 -71 13t-55 34.5t-35.5 50.5t-12.5 62q0 49 29 78q36 37 117 37q19 0 51.5 -1t68.5 -3l79 -3v58q0 37 -7.5 60t-21.5 39q-17 19 -45 27t-59 8q-28 0 -56.5 -5t-66.5 -17
l-49 -15l-13 27q51 26 98.5 40t87.5 14q45 0 81.5 -13t61.5 -40q20 -21 30 -50.5t10 -73.5v-276zM392 218q0 6 -2 7.5t-8 1.5h-191q-53 0 -72 -18q-20 -19 -20 -56q0 -51 34.5 -84.5t97.5 -33.5q19 0 40 4t40.5 10t37.5 14t31 16q8 5 10 8.5t2 10.5v120zM175 537l-16 22
l186 137q8 5 13 -2l27 -40z" />
    <glyph glyph-name="acircumflex" unicode="&#xe2;" horiz-adv-x="531" 
d="M524 32v-21q-13 -5 -29.5 -9t-31.5 -4q-58 0 -69 50l-25 -13q-36 -19 -73 -31t-75 -12q-39 0 -71 13t-55 34.5t-35.5 50.5t-12.5 62q0 49 29 78q36 37 117 37q19 0 51.5 -1t68.5 -3l79 -3v58q0 37 -7.5 60t-21.5 39q-17 19 -45 27t-59 8q-28 0 -56.5 -5t-66.5 -17
l-49 -15l-13 27q51 26 98.5 40t87.5 14q45 0 81.5 -13t61.5 -40q20 -21 30 -50.5t10 -73.5v-276zM392 218q0 6 -2 7.5t-8 1.5h-191q-53 0 -72 -18q-20 -19 -20 -56q0 -51 34.5 -84.5t97.5 -33.5q19 0 40 4t40.5 10t37.5 14t31 16q8 5 10 8.5t2 10.5v120zM408 561l-19 -18
l-129 106h-3l-129 -106l-19 18l123 130q5 5 8.5 6.5t11.5 1.5h12q8 0 11 -1.5t8 -6.5z" />
    <glyph glyph-name="atilde" unicode="&#xe3;" horiz-adv-x="531" 
d="M524 32v-21q-13 -5 -29.5 -9t-31.5 -4q-58 0 -69 50l-25 -13q-36 -19 -73 -31t-75 -12q-39 0 -71 13t-55 34.5t-35.5 50.5t-12.5 62q0 49 29 78q36 37 117 37q19 0 51.5 -1t68.5 -3l79 -3v58q0 37 -7.5 60t-21.5 39q-17 19 -45 27t-59 8q-28 0 -56.5 -5t-66.5 -17
l-49 -15l-13 27q51 26 98.5 40t87.5 14q45 0 81.5 -13t61.5 -40q20 -21 30 -50.5t10 -73.5v-276zM392 218q0 6 -2 7.5t-8 1.5h-191q-53 0 -72 -18q-20 -19 -20 -56q0 -51 34.5 -84.5t97.5 -33.5q19 0 40 4t40.5 10t37.5 14t31 16q8 5 10 8.5t2 10.5v120zM323 573
q-16 0 -33.5 6.5t-35 15t-34.5 15t-33 6.5q-15 0 -30.5 -9.5t-27.5 -33.5l-26 8q13 39 36 59t53 20q16 0 33.5 -6.5t35 -15t34.5 -15t33 -6.5q15 0 30 10t28 34l26 -9q-13 -38 -36 -58.5t-53 -20.5z" />
    <glyph glyph-name="adieresis" unicode="&#xe4;" horiz-adv-x="531" 
d="M524 32v-21q-13 -5 -29.5 -9t-31.5 -4q-58 0 -69 50l-25 -13q-36 -19 -73 -31t-75 -12q-39 0 -71 13t-55 34.5t-35.5 50.5t-12.5 62q0 49 29 78q36 37 117 37q19 0 51.5 -1t68.5 -3l79 -3v58q0 37 -7.5 60t-21.5 39q-17 19 -45 27t-59 8q-28 0 -56.5 -5t-66.5 -17
l-49 -15l-13 27q51 26 98.5 40t87.5 14q45 0 81.5 -13t61.5 -40q20 -21 30 -50.5t10 -73.5v-276zM392 218q0 6 -2 7.5t-8 1.5h-191q-53 0 -72 -18q-20 -19 -20 -56q0 -51 34.5 -84.5t97.5 -33.5q19 0 40 4t40.5 10t37.5 14t31 16q8 5 10 8.5t2 10.5v120zM138 646h57
q9 0 11.5 -2t2.5 -9v-63h-71v74zM305 646h57q9 0 11.5 -2t2.5 -9v-63h-71v74z" />
    <glyph glyph-name="amacron" unicode="&#x101;" horiz-adv-x="531" 
d="M524 32v-21q-13 -5 -29.5 -9t-31.5 -4q-58 0 -69 50l-25 -13q-36 -19 -73 -31t-75 -12q-39 0 -71 13t-55 34.5t-35.5 50.5t-12.5 62q0 49 29 78q36 37 117 37q19 0 51.5 -1t68.5 -3l79 -3v58q0 37 -7.5 60t-21.5 39q-17 19 -45 27t-59 8q-28 0 -56.5 -5t-66.5 -17
l-49 -15l-13 27q51 26 98.5 40t87.5 14q45 0 81.5 -13t61.5 -40q20 -21 30 -50.5t10 -73.5v-276zM392 218q0 6 -2 7.5t-8 1.5h-191q-53 0 -72 -18q-20 -19 -20 -56q0 -51 34.5 -84.5t97.5 -33.5q19 0 40 4t40.5 10t37.5 14t31 16q8 5 10 8.5t2 10.5v120zM114 577v40h285v-40
h-285z" />
    <glyph glyph-name="abreve" unicode="&#x103;" horiz-adv-x="531" 
d="M524 32v-21q-13 -5 -29.5 -9t-31.5 -4q-58 0 -69 50l-25 -13q-36 -19 -73 -31t-75 -12q-39 0 -71 13t-55 34.5t-35.5 50.5t-12.5 62q0 49 29 78q36 37 117 37q19 0 51.5 -1t68.5 -3l79 -3v58q0 37 -7.5 60t-21.5 39q-17 19 -45 27t-59 8q-28 0 -56.5 -5t-66.5 -17
l-49 -15l-13 27q51 26 98.5 40t87.5 14q45 0 81.5 -13t61.5 -40q20 -21 30 -50.5t10 -73.5v-276zM392 218q0 6 -2 7.5t-8 1.5h-191q-53 0 -72 -18q-20 -19 -20 -56q0 -51 34.5 -84.5t97.5 -33.5q19 0 40 4t40.5 10t37.5 14t31 16q8 5 10 8.5t2 10.5v120zM260 551
q-51 0 -90.5 32t-52.5 94l29 4q14 -38 44 -60t70 -22q41 0 70.5 22t43.5 60l29 -4q-12 -62 -52 -94t-91 -32z" />
    <glyph glyph-name="acaron" unicode="&#x1ce;" horiz-adv-x="531" 
d="M524 32v-21q-13 -5 -29.5 -9t-31.5 -4q-58 0 -69 50l-25 -13q-36 -19 -73 -31t-75 -12q-39 0 -71 13t-55 34.5t-35.5 50.5t-12.5 62q0 49 29 78q36 37 117 37q19 0 51.5 -1t68.5 -3l79 -3v58q0 37 -7.5 60t-21.5 39q-17 19 -45 27t-59 8q-28 0 -56.5 -5t-66.5 -17
l-49 -15l-13 27q51 26 98.5 40t87.5 14q45 0 81.5 -13t61.5 -40q20 -21 30 -50.5t10 -73.5v-276zM392 218q0 6 -2 7.5t-8 1.5h-191q-53 0 -72 -18q-20 -19 -20 -56q0 -51 34.5 -84.5t97.5 -33.5q19 0 40 4t40.5 10t37.5 14t31 16q8 5 10 8.5t2 10.5v120zM285 551
q-5 -5 -8 -6.5t-11 -1.5h-12q-8 0 -11.5 1.5t-8.5 6.5l-123 130l19 18l129 -106h3l129 106l19 -18z" />
    <glyph glyph-name="aring" unicode="&#xe5;" horiz-adv-x="531" 
d="M524 32v-21q-13 -5 -29.5 -9t-31.5 -4q-58 0 -69 50l-25 -13q-36 -19 -73 -31t-75 -12q-39 0 -71 13t-55 34.5t-35.5 50.5t-12.5 62q0 49 29 78q36 37 117 37q19 0 51.5 -1t68.5 -3l79 -3v58q0 37 -7.5 60t-21.5 39q-17 19 -45 27t-59 8q-28 0 -56.5 -5t-66.5 -17
l-49 -15l-13 27q51 26 98.5 40t87.5 14q45 0 81.5 -13t61.5 -40q20 -21 30 -50.5t10 -73.5v-276zM392 218q0 6 -2 7.5t-8 1.5h-191q-53 0 -72 -18q-20 -19 -20 -56q0 -51 34.5 -84.5t97.5 -33.5q19 0 40 4t40.5 10t37.5 14t31 16q8 5 10 8.5t2 10.5v120zM358 648
q0 -22 -8 -40t-21.5 -30.5t-31.5 -19t-37 -6.5t-36.5 6.5t-31 19t-22 30.5t-8.5 40t8.5 40t22 30.5t31 19t36.5 6.5t37 -6.5t31.5 -19t21.5 -30.5t8 -40zM202 648q0 -26 15 -42t43 -16t43 16t15 42q0 27 -15 42.5t-43 15.5t-43 -15.5t-15 -42.5z" />
    <glyph glyph-name="aringacute" unicode="&#x1fb;" horiz-adv-x="531" 
d="M524 32v-21q-13 -5 -29.5 -9t-31.5 -4q-58 0 -69 50l-25 -13q-36 -19 -73 -31t-75 -12q-39 0 -71 13t-55 34.5t-35.5 50.5t-12.5 62q0 49 29 78q36 37 117 37q19 0 51.5 -1t68.5 -3l79 -3v58q0 37 -7.5 60t-21.5 39q-17 19 -45 27t-59 8q-28 0 -56.5 -5t-66.5 -17
l-49 -15l-13 27q51 26 98.5 40t87.5 14q45 0 81.5 -13t61.5 -40q20 -21 30 -50.5t10 -73.5v-276zM392 218q0 6 -2 7.5t-8 1.5h-191q-53 0 -72 -18q-20 -19 -20 -56q0 -51 34.5 -84.5t97.5 -33.5q19 0 40 4t40.5 10t37.5 14t31 16q8 5 10 8.5t2 10.5v120zM362 633
q0 -22 -8 -40t-21.5 -30.5t-31.5 -19t-37 -6.5t-36.5 6.5t-31 19t-22 30.5t-8.5 40t8.5 40t22 30.5t31 19t36.5 6.5t37 -6.5t31.5 -19t21.5 -30.5t8 -40zM206 633q0 -26 15 -42t43 -16t43 16t15 42q0 27 -15 42.5t-43 15.5t-43 -15.5t-15 -42.5zM167 725l-16 22l186 137
q8 5 13 -2l27 -40z" />
    <glyph glyph-name="aogonek" unicode="&#x105;" horiz-adv-x="531" 
d="M351 -102q0 32 22.5 58.5t66.5 43.5q-39 9 -46 48l-25 -13q-36 -19 -73 -31t-75 -12q-39 0 -71 13t-55 34.5t-35.5 50.5t-12.5 62q0 49 29 78q36 37 117 37q19 0 51.5 -1t68.5 -3l79 -3v58q0 37 -7.5 60t-21.5 39q-17 19 -45 27t-59 8q-28 0 -56.5 -5t-66.5 -17l-49 -15
l-13 27q51 26 98.5 40t87.5 14q45 0 81.5 -13t61.5 -40q20 -21 30 -50.5t10 -73.5v-276l81 -11v-21l-31 -14q-44 -20 -68.5 -43.5t-24.5 -49.5q0 -21 14.5 -33.5t42.5 -12.5q10 0 26.5 2t33.5 7l9 -25q-13 -9 -35.5 -15.5t-44.5 -6.5q-42 0 -68.5 21.5t-26.5 56.5zM392 218
q0 6 -2 7.5t-8 1.5h-191q-53 0 -72 -18q-20 -19 -20 -56q0 -51 34.5 -84.5t97.5 -33.5q19 0 40 4t40.5 10t37.5 14t31 16q8 5 10 8.5t2 10.5v120z" />
    <glyph glyph-name="ae" unicode="&#xe6;" horiz-adv-x="885" 
d="M627 -8q-58 0 -103.5 21t-76.5 59l-45 -26q-45 -26 -87 -40t-87 -14q-41 0 -74.5 12t-56.5 34q-24 22 -37 51.5t-13 62.5q0 49 29 78q36 37 117 37q19 0 51.5 -1t68.5 -3l79 -3v58q0 37 -7.5 60t-21.5 39q-17 19 -45 27t-59 8q-28 0 -56.5 -5t-66.5 -17l-49 -15l-13 27
q51 26 98.5 40t87.5 14q26 0 52.5 -6t50 -18.5t41 -33t26.5 -49.5q30 50 79 78.5t110 28.5q48 0 88 -18t69 -49.5t45.5 -73.5t16.5 -91q0 -18 -3.5 -23.5t-11.5 -5.5h-380q2 -42 14 -78t35 -62.5t57.5 -42t81.5 -15.5q32 0 66.5 9t66.5 24l51 24l17 -25q-51 -37 -103.5 -57
t-101.5 -20zM427 103q-28 49 -36 115q-1 6 -3 7.5t-9 1.5h-188q-53 0 -72 -18q-20 -19 -20 -56q0 -51 35.5 -84.5t98.5 -33.5q46 0 95.5 18t98.5 50zM789 274q-5 87 -51.5 132.5t-118.5 45.5q-73 0 -120.5 -46.5t-54.5 -131.5h345z" />
    <glyph glyph-name="aeacute" unicode="&#x1fd;" horiz-adv-x="885" 
d="M627 -8q-58 0 -103.5 21t-76.5 59l-45 -26q-45 -26 -87 -40t-87 -14q-41 0 -74.5 12t-56.5 34q-24 22 -37 51.5t-13 62.5q0 49 29 78q36 37 117 37q19 0 51.5 -1t68.5 -3l79 -3v58q0 37 -7.5 60t-21.5 39q-17 19 -45 27t-59 8q-28 0 -56.5 -5t-66.5 -17l-49 -15l-13 27
q51 26 98.5 40t87.5 14q26 0 52.5 -6t50 -18.5t41 -33t26.5 -49.5q30 50 79 78.5t110 28.5q48 0 88 -18t69 -49.5t45.5 -73.5t16.5 -91q0 -18 -3.5 -23.5t-11.5 -5.5h-380q2 -42 14 -78t35 -62.5t57.5 -42t81.5 -15.5q32 0 66.5 9t66.5 24l51 24l17 -25q-51 -37 -103.5 -57
t-101.5 -20zM427 103q-28 49 -36 115q-1 6 -3 7.5t-9 1.5h-188q-53 0 -72 -18q-20 -19 -20 -56q0 -51 35.5 -84.5t98.5 -33.5q46 0 95.5 18t98.5 50zM789 274q-5 87 -51.5 132.5t-118.5 45.5q-73 0 -120.5 -46.5t-54.5 -131.5h345zM388 538l-16 22l186 137q8 5 13 -2l27 -40
z" />
    <glyph glyph-name="cacute" unicode="&#x107;" horiz-adv-x="514" 
d="M482 72q-49 -36 -102.5 -58t-107.5 -22q-52 0 -94 19.5t-72 54t-46 80.5t-16 100q0 52 17.5 97.5t49 79.5t75 53.5t94.5 19.5q58 0 110.5 -33t82.5 -93l-30 -18l-29 28q-38 37 -68.5 54t-69.5 17t-71.5 -14.5t-56.5 -40.5t-37.5 -64t-13.5 -84q0 -101 49 -156t131 -55
q62 0 129 32l58 27zM187 537l-16 22l186 137q8 5 13 -2l27 -40z" />
    <glyph glyph-name="ccedilla" unicode="&#xe7;" horiz-adv-x="514" 
d="M482 72q-49 -36 -103 -58t-109 -22q-5 -12 -5 -21q0 -12 18 -20t40 -17t40 -22.5t18 -37.5q0 -34 -38.5 -56.5t-120.5 -26.5l-7 31l66 14q50 11 50 32q0 13 -17.5 21t-38.5 16.5t-38.5 19t-17.5 28.5q0 20 17 42q-44 6 -79.5 28t-60.5 55t-38.5 76t-13.5 92
q0 52 17.5 97.5t49 79.5t75 53.5t94.5 19.5q58 0 110.5 -33t82.5 -93l-30 -18l-29 28q-38 37 -68.5 54t-69.5 17t-71.5 -14.5t-56.5 -40.5t-37.5 -64t-13.5 -84q0 -101 49 -156t131 -55q62 0 129 32l58 27z" />
    <glyph glyph-name="ccircumflex" unicode="&#x109;" horiz-adv-x="514" 
d="M482 72q-49 -36 -102.5 -58t-107.5 -22q-52 0 -94 19.5t-72 54t-46 80.5t-16 100q0 52 17.5 97.5t49 79.5t75 53.5t94.5 19.5q58 0 110.5 -33t82.5 -93l-30 -18l-29 28q-38 37 -68.5 54t-69.5 17t-71.5 -14.5t-56.5 -40.5t-37.5 -64t-13.5 -84q0 -101 49 -156t131 -55
q62 0 129 32l58 27zM424 561l-19 -18l-129 106h-3l-129 -106l-19 18l123 130q5 5 8.5 6.5t11.5 1.5h12q8 0 11 -1.5t8 -6.5z" />
    <glyph glyph-name="ccaron" unicode="&#x10d;" horiz-adv-x="514" 
d="M482 72q-49 -36 -102.5 -58t-107.5 -22q-52 0 -94 19.5t-72 54t-46 80.5t-16 100q0 52 17.5 97.5t49 79.5t75 53.5t94.5 19.5q58 0 110.5 -33t82.5 -93l-30 -18l-29 28q-38 37 -68.5 54t-69.5 17t-71.5 -14.5t-56.5 -40.5t-37.5 -64t-13.5 -84q0 -101 49 -156t131 -55
q62 0 129 32l58 27zM298 551q-5 -5 -8 -6.5t-11 -1.5h-12q-8 0 -11.5 1.5t-8.5 6.5l-123 130l19 18l129 -106h3l129 106l19 -18z" />
    <glyph glyph-name="cdotaccent" unicode="&#x10b;" horiz-adv-x="514" 
d="M482 72q-49 -36 -102.5 -58t-107.5 -22q-52 0 -94 19.5t-72 54t-46 80.5t-16 100q0 52 17.5 97.5t49 79.5t75 53.5t94.5 19.5q58 0 110.5 -33t82.5 -93l-30 -18l-29 28q-38 37 -68.5 54t-69.5 17t-71.5 -14.5t-56.5 -40.5t-37.5 -64t-13.5 -84q0 -101 49 -156t131 -55
q62 0 129 32l58 27zM241 648h64q9 0 11.5 -2.5t2.5 -10.5v-65h-78v78z" />
    <glyph glyph-name="dcaron" unicode="&#x10f;" horiz-adv-x="618" 
d="M439 709h51v-709h-33l-15 57l-37 -21q-78 -44 -148 -44q-50 0 -89 20t-66.5 54t-42 80t-14.5 98q0 56 17.5 102.5t48 79.5t71 51.5t86.5 18.5q40 0 82 -15t89 -47v275zM439 382q0 11 -9 17q-35 23 -75.5 37.5t-80.5 14.5q-86 0 -131 -55.5t-45 -151.5q0 -102 45.5 -154.5
t117.5 -52.5q42 0 86 14.5t83 37.5q6 4 7.5 7.5t1.5 8.5v277zM537 522l36 187h39q16 0 16 -16q0 -15 -17 -56l-50 -120z" />
    <glyph glyph-name="dcroat" unicode="&#x111;" horiz-adv-x="565" 
d="M439 586h-201v39h201v84h51v-86l72 -12v-25h-72v-586h-33l-15 57l-37 -21q-78 -44 -148 -44q-50 0 -89 20t-66.5 54t-42 80t-14.5 98q0 56 17.5 102.5t48 79.5t71 51.5t86.5 18.5q40 0 82 -15t89 -47v152zM439 382q0 11 -9 17q-35 23 -75.5 37.5t-80.5 14.5
q-86 0 -131 -55.5t-45 -151.5q0 -102 45.5 -154.5t117.5 -52.5q42 0 86 14.5t83 37.5q6 4 7.5 7.5t1.5 8.5v277z" />
    <glyph glyph-name="eth" unicode="&#xf0;" horiz-adv-x="553" 
d="M278 622q-27 21 -60 39.5t-69 38.5l16 26q43 -19 81.5 -39.5t72.5 -46.5l132 58l17 -34l-115 -51q70 -60 110 -141.5t40 -190.5q0 -60 -15 -112.5t-44 -91.5t-72 -62t-99 -23q-50 0 -91 18.5t-71 51t-46.5 77.5t-16.5 98q0 51 17.5 93t47.5 72t70 46t84 16q45 0 90 -13.5
t80 -36.5q-18 55 -50.5 100t-74.5 81l-123 -55l-17 34zM448 359q-2 8 -5 12.5t-11 9.5q-32 17 -72.5 28t-82.5 11q-78 0 -127.5 -44.5t-49.5 -136.5t45.5 -147.5t128.5 -55.5q48 0 82 19t55.5 51.5t31 76t9.5 93.5q0 23 -1 47t-3 36z" />
    <glyph glyph-name="egrave" unicode="&#xe8;" horiz-adv-x="538" 
d="M280 -8q-54 0 -97.5 19.5t-74.5 53.5t-47.5 80t-16.5 99t16.5 99t46.5 80t72 53.5t93 19.5q48 0 88 -18t69 -49.5t45.5 -73.5t16.5 -91q0 -18 -3.5 -23.5t-11.5 -5.5h-380q2 -42 14 -78t35 -62.5t57.5 -42t81.5 -15.5q32 0 66.5 9t66.5 24l51 24l17 -25
q-51 -37 -103.5 -57t-101.5 -20zM442 274q-5 87 -51.5 132.5t-118.5 45.5q-73 0 -120.5 -46.5t-54.5 -131.5h345zM164 654l27 40q5 8 13 2l186 -137l-16 -22z" />
    <glyph glyph-name="eacute" unicode="&#xe9;" horiz-adv-x="538" 
d="M280 -8q-54 0 -97.5 19.5t-74.5 53.5t-47.5 80t-16.5 99t16.5 99t46.5 80t72 53.5t93 19.5q48 0 88 -18t69 -49.5t45.5 -73.5t16.5 -91q0 -18 -3.5 -23.5t-11.5 -5.5h-380q2 -42 14 -78t35 -62.5t57.5 -42t81.5 -15.5q32 0 66.5 9t66.5 24l51 24l17 -25
q-51 -37 -103.5 -57t-101.5 -20zM442 274q-5 87 -51.5 132.5t-118.5 45.5q-73 0 -120.5 -46.5t-54.5 -131.5h345zM183 537l-16 22l186 137q8 5 13 -2l27 -40z" />
    <glyph glyph-name="ecircumflex" unicode="&#xea;" horiz-adv-x="538" 
d="M280 -8q-54 0 -97.5 19.5t-74.5 53.5t-47.5 80t-16.5 99t16.5 99t46.5 80t72 53.5t93 19.5q48 0 88 -18t69 -49.5t45.5 -73.5t16.5 -91q0 -18 -3.5 -23.5t-11.5 -5.5h-380q2 -42 14 -78t35 -62.5t57.5 -42t81.5 -15.5q32 0 66.5 9t66.5 24l51 24l17 -25
q-51 -37 -103.5 -57t-101.5 -20zM442 274q-5 87 -51.5 132.5t-118.5 45.5q-73 0 -120.5 -46.5t-54.5 -131.5h345zM423 561l-19 -18l-129 106h-3l-129 -106l-19 18l123 130q5 5 8.5 6.5t11.5 1.5h12q8 0 11 -1.5t8 -6.5z" />
    <glyph glyph-name="ecaron" unicode="&#x11b;" horiz-adv-x="538" 
d="M280 -8q-54 0 -97.5 19.5t-74.5 53.5t-47.5 80t-16.5 99t16.5 99t46.5 80t72 53.5t93 19.5q48 0 88 -18t69 -49.5t45.5 -73.5t16.5 -91q0 -18 -3.5 -23.5t-11.5 -5.5h-380q2 -42 14 -78t35 -62.5t57.5 -42t81.5 -15.5q32 0 66.5 9t66.5 24l51 24l17 -25
q-51 -37 -103.5 -57t-101.5 -20zM442 274q-5 87 -51.5 132.5t-118.5 45.5q-73 0 -120.5 -46.5t-54.5 -131.5h345zM298 551q-5 -5 -8 -6.5t-11 -1.5h-12q-8 0 -11.5 1.5t-8.5 6.5l-123 130l19 18l129 -106h3l129 106l19 -18z" />
    <glyph glyph-name="edieresis" unicode="&#xeb;" horiz-adv-x="538" 
d="M280 -8q-54 0 -97.5 19.5t-74.5 53.5t-47.5 80t-16.5 99t16.5 99t46.5 80t72 53.5t93 19.5q48 0 88 -18t69 -49.5t45.5 -73.5t16.5 -91q0 -18 -3.5 -23.5t-11.5 -5.5h-380q2 -42 14 -78t35 -62.5t57.5 -42t81.5 -15.5q32 0 66.5 9t66.5 24l51 24l17 -25
q-51 -37 -103.5 -57t-101.5 -20zM442 274q-5 87 -51.5 132.5t-118.5 45.5q-73 0 -120.5 -46.5t-54.5 -131.5h345zM154 646h57q9 0 11.5 -2t2.5 -9v-63h-71v74zM321 646h57q9 0 11.5 -2t2.5 -9v-63h-71v74z" />
    <glyph glyph-name="emacron" unicode="&#x113;" horiz-adv-x="538" 
d="M280 -8q-54 0 -97.5 19.5t-74.5 53.5t-47.5 80t-16.5 99t16.5 99t46.5 80t72 53.5t93 19.5q48 0 88 -18t69 -49.5t45.5 -73.5t16.5 -91q0 -18 -3.5 -23.5t-11.5 -5.5h-380q2 -42 14 -78t35 -62.5t57.5 -42t81.5 -15.5q32 0 66.5 9t66.5 24l51 24l17 -25
q-51 -37 -103.5 -57t-101.5 -20zM442 274q-5 87 -51.5 132.5t-118.5 45.5q-73 0 -120.5 -46.5t-54.5 -131.5h345zM130 577v40h285v-40h-285z" />
    <glyph glyph-name="ebreve" unicode="&#x115;" horiz-adv-x="538" 
d="M280 -8q-54 0 -97.5 19.5t-74.5 53.5t-47.5 80t-16.5 99t16.5 99t46.5 80t72 53.5t93 19.5q48 0 88 -18t69 -49.5t45.5 -73.5t16.5 -91q0 -18 -3.5 -23.5t-11.5 -5.5h-380q2 -42 14 -78t35 -62.5t57.5 -42t81.5 -15.5q32 0 66.5 9t66.5 24l51 24l17 -25
q-51 -37 -103.5 -57t-101.5 -20zM442 274q-5 87 -51.5 132.5t-118.5 45.5q-73 0 -120.5 -46.5t-54.5 -131.5h345zM272 551q-51 0 -90.5 32t-52.5 94l29 4q14 -38 44 -60t70 -22q41 0 70.5 22t43.5 60l29 -4q-12 -62 -52 -94t-91 -32z" />
    <glyph glyph-name="edotaccent" unicode="&#x117;" horiz-adv-x="538" 
d="M280 -8q-54 0 -97.5 19.5t-74.5 53.5t-47.5 80t-16.5 99t16.5 99t46.5 80t72 53.5t93 19.5q48 0 88 -18t69 -49.5t45.5 -73.5t16.5 -91q0 -18 -3.5 -23.5t-11.5 -5.5h-380q2 -42 14 -78t35 -62.5t57.5 -42t81.5 -15.5q32 0 66.5 9t66.5 24l51 24l17 -25
q-51 -37 -103.5 -57t-101.5 -20zM442 274q-5 87 -51.5 132.5t-118.5 45.5q-73 0 -120.5 -46.5t-54.5 -131.5h345zM235 648h64q9 0 11.5 -2.5t2.5 -10.5v-65h-78v78z" />
    <glyph glyph-name="eogonek" unicode="&#x119;" horiz-adv-x="538" 
d="M355 2q-20 -6 -38 -8t-37 -2q-54 0 -97.5 19.5t-74.5 53.5t-47.5 80t-16.5 99t16.5 99t46.5 80t72 53.5t93 19.5q48 0 88 -18t69 -49.5t45.5 -73.5t16.5 -91q0 -18 -3.5 -23.5t-11.5 -5.5h-380q2 -42 14 -78t35 -62.5t57.5 -42t81.5 -15.5q32 0 66.5 9t66.5 24l51 24
l17 -25q-73 -50 -106 -85.5t-33 -73.5q0 -24 15.5 -38t44.5 -14q6 0 15 1t20 3l25 5l9 -24q-13 -9 -35.5 -16t-44.5 -7q-44 0 -70 24t-26 62q0 27 15.5 51.5t40.5 44.5zM442 274q-5 87 -51.5 132.5t-118.5 45.5q-73 0 -120.5 -46.5t-54.5 -131.5h345z" />
    <glyph glyph-name="gcircumflex" unicode="&#x11d;" horiz-adv-x="533" 
d="M343 50q86 0 125 -39q33 -33 33 -85q0 -36 -17.5 -67t-49 -54t-76 -36.5t-98.5 -13.5q-53 0 -97.5 13t-76.5 36t-50 54.5t-18 68.5q0 35 16.5 58t42.5 37q-15 13 -15 32q0 11 5.5 21.5t16.5 25.5l50 65q-33 26 -51.5 63.5t-18.5 81.5q0 38 14 71.5t39.5 59t61.5 40
t80 14.5q40 0 73 -12.5t59 -33.5l30 21q30 21 45.5 28t28.5 7q8 0 17 -2.5t17 -6.5v-27l-106 -41q-5 -2 -5.5 -4t1.5 -5q17 -23 26 -51t9 -58q0 -38 -14 -71.5t-39.5 -59t-61.5 -40t-80 -14.5q-49 0 -90 19q-5 2 -8 -2l-40 -68q-6 -11 -6 -15q0 -10 18 -10h210zM165 8
q-29 0 -46.5 -4.5t-29.5 -15.5q-22 -20 -22 -58q0 -58 52 -95t141 -37q42 0 77.5 9.5t60.5 26.5t39 41t14 54q0 37 -20 55q-15 14 -38.5 19t-54.5 5h-173zM404 311q0 67 -38.5 104t-106.5 37t-106.5 -37t-38.5 -104t38.5 -104t106.5 -37t106.5 37t38.5 104zM416 561l-19 -18
l-129 106h-3l-129 -106l-19 18l123 130q5 5 8.5 6.5t11.5 1.5h12q8 0 11 -1.5t8 -6.5z" />
    <glyph glyph-name="gbreve" unicode="&#x11f;" horiz-adv-x="533" 
d="M343 50q86 0 125 -39q33 -33 33 -85q0 -36 -17.5 -67t-49 -54t-76 -36.5t-98.5 -13.5q-53 0 -97.5 13t-76.5 36t-50 54.5t-18 68.5q0 35 16.5 58t42.5 37q-15 13 -15 32q0 11 5.5 21.5t16.5 25.5l50 65q-33 26 -51.5 63.5t-18.5 81.5q0 38 14 71.5t39.5 59t61.5 40
t80 14.5q40 0 73 -12.5t59 -33.5l30 21q30 21 45.5 28t28.5 7q8 0 17 -2.5t17 -6.5v-27l-106 -41q-5 -2 -5.5 -4t1.5 -5q17 -23 26 -51t9 -58q0 -38 -14 -71.5t-39.5 -59t-61.5 -40t-80 -14.5q-49 0 -90 19q-5 2 -8 -2l-40 -68q-6 -11 -6 -15q0 -10 18 -10h210zM165 8
q-29 0 -46.5 -4.5t-29.5 -15.5q-22 -20 -22 -58q0 -58 52 -95t141 -37q42 0 77.5 9.5t60.5 26.5t39 41t14 54q0 37 -20 55q-15 14 -38.5 19t-54.5 5h-173zM404 311q0 67 -38.5 104t-106.5 37t-106.5 -37t-38.5 -104t38.5 -104t106.5 -37t106.5 37t38.5 104zM267 551
q-51 0 -90.5 32t-52.5 94l29 4q14 -38 44 -60t70 -22q41 0 70.5 22t43.5 60l29 -4q-12 -62 -52 -94t-91 -32z" />
    <glyph glyph-name="gdotaccent" unicode="&#x121;" horiz-adv-x="533" 
d="M343 50q86 0 125 -39q33 -33 33 -85q0 -36 -17.5 -67t-49 -54t-76 -36.5t-98.5 -13.5q-53 0 -97.5 13t-76.5 36t-50 54.5t-18 68.5q0 35 16.5 58t42.5 37q-15 13 -15 32q0 11 5.5 21.5t16.5 25.5l50 65q-33 26 -51.5 63.5t-18.5 81.5q0 38 14 71.5t39.5 59t61.5 40
t80 14.5q40 0 73 -12.5t59 -33.5l30 21q30 21 45.5 28t28.5 7q8 0 17 -2.5t17 -6.5v-27l-106 -41q-5 -2 -5.5 -4t1.5 -5q17 -23 26 -51t9 -58q0 -38 -14 -71.5t-39.5 -59t-61.5 -40t-80 -14.5q-49 0 -90 19q-5 2 -8 -2l-40 -68q-6 -11 -6 -15q0 -10 18 -10h210zM165 8
q-29 0 -46.5 -4.5t-29.5 -15.5q-22 -20 -22 -58q0 -58 52 -95t141 -37q42 0 77.5 9.5t60.5 26.5t39 41t14 54q0 37 -20 55q-15 14 -38.5 19t-54.5 5h-173zM404 311q0 67 -38.5 104t-106.5 37t-106.5 -37t-38.5 -104t38.5 -104t106.5 -37t106.5 37t38.5 104zM227 648h64
q9 0 11.5 -2.5t2.5 -10.5v-65h-78v78z" />
    <glyph glyph-name="gcommaaccent" unicode="&#x123;" horiz-adv-x="533" 
d="M326 728l-36 -187h-39q-16 0 -16 16q0 15 17 56l50 120zM343 50q86 0 125 -39q33 -33 33 -85q0 -36 -17.5 -67t-49 -54t-76 -36.5t-98.5 -13.5q-53 0 -97.5 13t-76.5 36t-50 54.5t-18 68.5q0 35 16.5 58t42.5 37q-15 13 -15 32q0 11 5.5 21.5t16.5 25.5l50 65
q-33 26 -51.5 63.5t-18.5 81.5q0 38 14 71.5t39.5 59t61.5 40t80 14.5q40 0 73 -12.5t59 -33.5l30 21q30 21 45.5 28t28.5 7q8 0 17 -2.5t17 -6.5v-27l-106 -41q-5 -2 -5.5 -4t1.5 -5q17 -23 26 -51t9 -58q0 -38 -14 -71.5t-39.5 -59t-61.5 -40t-80 -14.5q-49 0 -90 19
q-5 2 -8 -2l-40 -68q-6 -11 -6 -15q0 -10 18 -10h210zM165 8q-29 0 -46.5 -4.5t-29.5 -15.5q-22 -20 -22 -58q0 -58 52 -95t141 -37q42 0 77.5 9.5t60.5 26.5t39 41t14 54q0 37 -20 55q-15 14 -38.5 19t-54.5 5h-173zM404 311q0 67 -38.5 104t-106.5 37t-106.5 -37
t-38.5 -104t38.5 -104t106.5 -37t106.5 37t38.5 104z" />
    <glyph glyph-name="hcircumflex" unicode="&#x125;" horiz-adv-x="552" 
d="M128 448l24 11q39 17 75.5 27t70.5 10q45 0 82.5 -14t60.5 -38q20 -22 31 -52.5t11 -74.5v-317h-51v307q0 42 -7 65.5t-22 40.5q-18 19 -47 27.5t-64 8.5q-32 0 -66 -6t-71 -20l-16 -6q-8 -3 -9.5 -5.5t-1.5 -8.5v-403h-51v709h51v-261zM252 715l-19 -18l-129 106h-3
l-129 -106l-19 18l123 130q5 5 8.5 6.5t11.5 1.5h12q8 0 11 -1.5t8 -6.5z" />
    <glyph glyph-name="hbar" unicode="&#x127;" horiz-adv-x="552" 
d="M128 625h201v-39h-201v-138l24 11q39 17 75.5 27t70.5 10q45 0 82.5 -14t60.5 -38q20 -22 31 -52.5t11 -74.5v-317h-51v307q0 42 -7 65.5t-22 40.5q-18 19 -47 27.5t-64 8.5q-32 0 -66 -6t-71 -20l-16 -6q-8 -3 -9.5 -5.5t-1.5 -8.5v-403h-51v586h-72v25l72 12v86h51v-84
z" />
    <glyph glyph-name="dotlessi" unicode="&#x131;" horiz-adv-x="211" 
d="M80 488h51v-488h-51v488z" />
    <glyph glyph-name="igrave" unicode="&#xec;" horiz-adv-x="211" 
d="M-22 654l27 40q5 8 13 2l186 -137l-16 -22zM80 488h51v-488h-51v488z" />
    <glyph glyph-name="iacute" unicode="&#xed;" horiz-adv-x="211" 
d="M24 537l-16 22l186 137q8 5 13 -2l27 -40zM80 488h51v-488h-51v488z" />
    <glyph glyph-name="icircumflex" unicode="&#xee;" horiz-adv-x="211" 
d="M80 488h51v-488h-51v488zM256 561l-19 -18l-129 106h-3l-129 -106l-19 18l123 130q5 5 8.5 6.5t11.5 1.5h12q8 0 11 -1.5t8 -6.5z" />
    <glyph glyph-name="itilde" unicode="&#x129;" horiz-adv-x="211" 
d="M172 573q-16 0 -33.5 6.5t-35 15t-34.5 15t-33 6.5q-15 0 -30.5 -9.5t-27.5 -33.5l-26 8q13 39 36 59t53 20q16 0 33.5 -6.5t35 -15t34.5 -15t33 -6.5q15 0 30 10t28 34l26 -9q-13 -38 -36 -58.5t-53 -20.5zM80 488h51v-488h-51v488z" />
    <glyph glyph-name="idieresis" unicode="&#xef;" horiz-adv-x="212" 
d="M-12 646h57q9 0 11.5 -2t2.5 -9v-63h-71v74zM155 646h57q9 0 11.5 -2t2.5 -9v-63h-71v74zM81 488h51v-488h-51v488z" />
    <glyph glyph-name="imacron" unicode="&#x12b;" horiz-adv-x="211" 
d="M-36 577v40h285v-40h-285zM80 488h51v-488h-51v488z" />
    <glyph glyph-name="ibreve" unicode="&#x12d;" horiz-adv-x="211" 
d="M106 551q-51 0 -90.5 32t-52.5 94l29 4q14 -38 44 -60t70 -22q41 0 70.5 22t43.5 60l29 -4q-12 -62 -52 -94t-91 -32zM80 488h51v-488h-51v488z" />
    <glyph glyph-name="iogonek" unicode="&#x12f;" horiz-adv-x="211" 
d="M76 657h47q12 0 12 -11v-52h-59v63zM80 488h51v-488q-38 -20 -59 -45.5t-21 -51.5q0 -20 13.5 -32.5t41.5 -12.5q10 0 26.5 2t33.5 7l9 -25q-13 -9 -35.5 -15.5t-44.5 -6.5q-42 0 -68 21.5t-26 56.5q0 30 22 56.5t57 45.5v488z" />
    <glyph glyph-name="ij" unicode="&#x133;" horiz-adv-x="417" 
d="M80 488h51v-488h-51v488zM76 657h47q12 0 12 -11v-52h-59v63zM337 -89q0 -40 -8 -66.5t-25 -43.5q-33 -34 -97 -34q-14 0 -32 1.5t-32 3.5v26l41 4q29 3 49 8.5t31 16.5q13 13 17.5 33t4.5 62v566h51v-577zM282 657h47q12 0 12 -11v-52h-59v63z" />
    <glyph glyph-name="jcircumflex" unicode="&#x135;" horiz-adv-x="210" 
d="M130 -93q0 -66 -30.5 -103t-99.5 -37q-14 0 -32 1.5t-32 3.5v26l41 4q44 5 64.5 18.5t26.5 44.5q10 10 11 33.5t1 46.5v543h50v-581zM255 561l-19 -18l-129 106h-3l-129 -106l-19 18l123 130q5 5 8.5 6.5t11.5 1.5h12q8 0 11 -1.5t8 -6.5z" />
    <glyph glyph-name="kcommaaccent" unicode="&#x137;" horiz-adv-x="528" 
d="M297 300l213 -300h-47q-8 0 -10.5 1.5t-6.5 6.5l-184 261q-29 -26 -65.5 -55t-68.5 -52v-162h-51v709h51v-500l329 285l28 -33zM213 -245l36 187h39q16 0 16 -16q0 -15 -17 -56l-50 -120z" />
    <glyph glyph-name="kgreenlandic" unicode="&#x138;" horiz-adv-x="528" 
d="M297 300l213 -300h-47q-8 0 -10.5 1.5t-6.5 6.5l-184 261q-29 -26 -65.5 -55t-68.5 -52v-162h-51v488h51v-279l329 285l28 -33z" />
    <glyph glyph-name="lacute" unicode="&#x13a;" horiz-adv-x="231" 
d="M223 11q-14 -5 -33.5 -9t-34.5 -4q-38 0 -56 18t-18 58v635h51v-664l91 -13v-21zM22 728l-16 22l186 137q8 5 13 -2l27 -40z" />
    <glyph glyph-name="lcaron" unicode="&#x13e;" horiz-adv-x="260" 
d="M223 11q-14 -5 -33.5 -9t-34.5 -4q-38 0 -56 18t-18 58v635h51v-664l91 -13v-21zM179 522l36 187h39q16 0 16 -16q0 -15 -17 -56l-50 -120z" />
    <glyph glyph-name="lcommaaccent" unicode="&#x13c;" horiz-adv-x="231" 
d="M223 11q-14 -5 -33.5 -9t-34.5 -4q-38 0 -56 18t-18 58v635h51v-664l91 -13v-21zM83 -245l36 187h39q16 0 16 -16q0 -15 -17 -56l-50 -120z" />
    <glyph glyph-name="lslash" unicode="&#x142;" horiz-adv-x="327" 
d="M185 343v-298l91 -13v-21q-14 -5 -33.5 -9t-34.5 -4q-38 0 -56 18t-18 58v242l-103 -67l-21 32l124 81v347h51v-320l121 79l21 -32z" />
    <glyph glyph-name="longs" unicode="&#x17f;" horiz-adv-x="248" 
d="M150 0h-51v448h-97v26l93 13q-8 19 -11.5 39.5t-3.5 39.5q0 35 12 63t34 47.5t52 30t65 10.5q33 0 68 -10t65 -26l-11 -27l-23 6q-57 15 -95 15q-55 0 -85.5 -26t-30.5 -86q0 -28 9.5 -62t9.5 -76v-425z" />
    <glyph glyph-name="ldot" unicode="&#x140;" horiz-adv-x="339" 
d="M223 11q-14 -5 -33.5 -9t-34.5 -4q-38 0 -56 18t-18 58v635h51v-664l91 -13v-21zM235 427h64q9 0 11.5 -2.5t2.5 -10.5v-65h-78v78z" />
    <glyph glyph-name="nacute" unicode="&#x144;" horiz-adv-x="552" 
d="M112 488l13 -41l27 12q39 17 75.5 27t70.5 10q45 0 82.5 -14t60.5 -38q20 -22 31 -52.5t11 -74.5v-317h-51v307q0 42 -7 65.5t-22 40.5q-18 19 -47 27.5t-64 8.5q-32 0 -66 -6t-71 -20l-16 -6q-8 -3 -9.5 -5.5t-1.5 -8.5v-403h-51v488h35zM214 537l-16 22l186 137
q8 5 13 -2l27 -40z" />
    <glyph glyph-name="ncaron" unicode="&#x148;" horiz-adv-x="552" 
d="M112 488l13 -41l27 12q39 17 75.5 27t70.5 10q45 0 82.5 -14t60.5 -38q20 -22 31 -52.5t11 -74.5v-317h-51v307q0 42 -7 65.5t-22 40.5q-18 19 -47 27.5t-64 8.5q-32 0 -66 -6t-71 -20l-16 -6q-8 -3 -9.5 -5.5t-1.5 -8.5v-403h-51v488h35zM319 552q-5 -5 -8 -6.5
t-11 -1.5h-12q-8 0 -11.5 1.5t-8.5 6.5l-123 130l19 18l129 -106h3l129 106l19 -18z" />
    <glyph glyph-name="ntilde" unicode="&#xf1;" horiz-adv-x="552" 
d="M112 488l13 -41l27 12q39 17 75.5 27t70.5 10q45 0 82.5 -14t60.5 -38q20 -22 31 -52.5t11 -74.5v-317h-51v307q0 42 -7 65.5t-22 40.5q-18 19 -47 27.5t-64 8.5q-32 0 -66 -6t-71 -20l-16 -6q-8 -3 -9.5 -5.5t-1.5 -8.5v-403h-51v488h35zM348 573q-16 0 -33.5 6.5
t-35 15t-34.5 15t-33 6.5q-15 0 -30.5 -9.5t-27.5 -33.5l-26 8q13 39 36 59t53 20q16 0 33.5 -6.5t35 -15t34.5 -15t33 -6.5q15 0 30 10t28 34l26 -9q-13 -38 -36 -58.5t-53 -20.5z" />
    <glyph glyph-name="ncommaaccent" unicode="&#x146;" horiz-adv-x="552" 
d="M112 488l13 -41l27 12q39 17 75.5 27t70.5 10q45 0 82.5 -14t60.5 -38q20 -22 31 -52.5t11 -74.5v-317h-51v307q0 42 -7 65.5t-22 40.5q-18 19 -47 27.5t-64 8.5q-32 0 -66 -6t-71 -20l-16 -6q-8 -3 -9.5 -5.5t-1.5 -8.5v-403h-51v488h35zM217 -245l36 187h39
q16 0 16 -16q0 -15 -17 -56l-50 -120z" />
    <glyph glyph-name="napostrophe" unicode="&#x149;" horiz-adv-x="633" 
d="M193 488l13 -41l27 12q39 17 75.5 27t70.5 10q45 0 82.5 -14t60.5 -38q20 -22 31 -52.5t11 -74.5v-317h-51v307q0 42 -7 65.5t-22 40.5q-18 19 -47 27.5t-64 8.5q-32 0 -66 -6t-71 -20l-16 -6q-8 -3 -9.5 -5.5t-1.5 -8.5v-403h-51v488h35zM133 663q13 0 13 -11v-30
q0 -20 -4.5 -37.5t-14 -36t-25.5 -41t-40 -52.5l-20 11l56 111q3 7 -1 11l-11 9q-7 6 -8.5 9t-1.5 10v47h57z" />
    <glyph glyph-name="eng" unicode="&#x14b;" horiz-adv-x="552" 
d="M432 307q0 42 -7 65.5t-22 40.5q-18 19 -47 27.5t-64 8.5q-32 0 -66 -6t-71 -20l-16 -6q-8 -3 -9.5 -5.5t-1.5 -8.5v-403h-51v488h35l13 -41l27 12q39 17 75.5 27t70.5 10q45 0 82.5 -14t60.5 -38q20 -22 31 -52.5t11 -74.5v-349q0 -40 -8 -66.5t-25 -43.5
q-33 -34 -97 -34q-14 0 -32 1.5t-32 3.5v26l41 4q29 3 49 8.5t31 16.5q13 13 17.5 33t4.5 62v328z" />
    <glyph glyph-name="ograve" unicode="&#xf2;" horiz-adv-x="552" 
d="M508 244q0 -52 -17 -97.5t-47.5 -80t-73 -54.5t-94.5 -20t-94.5 20t-73 54.5t-47.5 80t-17 97.5t17 97.5t47.5 80t73 54.5t94.5 20t94.5 -20t73 -54.5t47.5 -80t17 -97.5zM455 244q0 94 -47 150t-132 56t-132 -56t-47 -150t47 -150t132 -56t132 56t47 150zM162 654l27 40
q5 8 13 2l186 -137l-16 -22z" />
    <glyph glyph-name="oacute" unicode="&#xf3;" horiz-adv-x="552" 
d="M508 244q0 -52 -17 -97.5t-47.5 -80t-73 -54.5t-94.5 -20t-94.5 20t-73 54.5t-47.5 80t-17 97.5t17 97.5t47.5 80t73 54.5t94.5 20t94.5 -20t73 -54.5t47.5 -80t17 -97.5zM455 244q0 94 -47 150t-132 56t-132 -56t-47 -150t47 -150t132 -56t132 56t47 150zM185 537
l-16 22l186 137q8 5 13 -2l27 -40z" />
    <glyph glyph-name="ocircumflex" unicode="&#xf4;" horiz-adv-x="552" 
d="M508 244q0 -52 -17 -97.5t-47.5 -80t-73 -54.5t-94.5 -20t-94.5 20t-73 54.5t-47.5 80t-17 97.5t17 97.5t47.5 80t73 54.5t94.5 20t94.5 -20t73 -54.5t47.5 -80t17 -97.5zM455 244q0 94 -47 150t-132 56t-132 -56t-47 -150t47 -150t132 -56t132 56t47 150zM425 561
l-19 -18l-129 106h-3l-129 -106l-19 18l123 130q5 5 8.5 6.5t11.5 1.5h12q8 0 11 -1.5t8 -6.5z" />
    <glyph glyph-name="otilde" unicode="&#xf5;" horiz-adv-x="552" 
d="M508 244q0 -52 -17 -97.5t-47.5 -80t-73 -54.5t-94.5 -20t-94.5 20t-73 54.5t-47.5 80t-17 97.5t17 97.5t47.5 80t73 54.5t94.5 20t94.5 -20t73 -54.5t47.5 -80t17 -97.5zM455 244q0 94 -47 150t-132 56t-132 -56t-47 -150t47 -150t132 -56t132 56t47 150zM341 573
q-16 0 -33.5 6.5t-35 15t-34.5 15t-33 6.5q-15 0 -30.5 -9.5t-27.5 -33.5l-26 8q13 39 36 59t53 20q16 0 33.5 -6.5t35 -15t34.5 -15t33 -6.5q15 0 30 10t28 34l26 -9q-13 -38 -36 -58.5t-53 -20.5z" />
    <glyph glyph-name="odieresis" unicode="&#xf6;" horiz-adv-x="552" 
d="M508 244q0 -52 -17 -97.5t-47.5 -80t-73 -54.5t-94.5 -20t-94.5 20t-73 54.5t-47.5 80t-17 97.5t17 97.5t47.5 80t73 54.5t94.5 20t94.5 -20t73 -54.5t47.5 -80t17 -97.5zM455 244q0 94 -47 150t-132 56t-132 -56t-47 -150t47 -150t132 -56t132 56t47 150zM156 646h57
q9 0 11.5 -2t2.5 -9v-63h-71v74zM323 646h57q9 0 11.5 -2t2.5 -9v-63h-71v74z" />
    <glyph glyph-name="omacron" unicode="&#x14d;" horiz-adv-x="552" 
d="M508 244q0 -52 -17 -97.5t-47.5 -80t-73 -54.5t-94.5 -20t-94.5 20t-73 54.5t-47.5 80t-17 97.5t17 97.5t47.5 80t73 54.5t94.5 20t94.5 -20t73 -54.5t47.5 -80t17 -97.5zM455 244q0 94 -47 150t-132 56t-132 -56t-47 -150t47 -150t132 -56t132 56t47 150zM133 577v40
h285v-40h-285z" />
    <glyph glyph-name="obreve" unicode="&#x14f;" horiz-adv-x="552" 
d="M508 244q0 -52 -17 -97.5t-47.5 -80t-73 -54.5t-94.5 -20t-94.5 20t-73 54.5t-47.5 80t-17 97.5t17 97.5t47.5 80t73 54.5t94.5 20t94.5 -20t73 -54.5t47.5 -80t17 -97.5zM455 244q0 94 -47 150t-132 56t-132 -56t-47 -150t47 -150t132 -56t132 56t47 150zM275 551
q-51 0 -90.5 32t-52.5 94l29 4q14 -38 44 -60t70 -22q41 0 70.5 22t43.5 60l29 -4q-12 -62 -52 -94t-91 -32z" />
    <glyph glyph-name="ohungarumlaut" unicode="&#x151;" horiz-adv-x="552" 
d="M508 244q0 -52 -17 -97.5t-47.5 -80t-73 -54.5t-94.5 -20t-94.5 20t-73 54.5t-47.5 80t-17 97.5t17 97.5t47.5 80t73 54.5t94.5 20t94.5 -20t73 -54.5t47.5 -80t17 -97.5zM455 244q0 94 -47 150t-132 56t-132 -56t-47 -150t47 -150t132 -56t132 56t47 150zM158 572
l-20 17l126 148q7 9 15 1l30 -30zM313 572l-20 17l126 148q7 9 15 1l30 -30z" />
    <glyph glyph-name="oslash" unicode="&#xf8;" horiz-adv-x="552" 
d="M114 60q-34 35 -52 82.5t-18 101.5q0 52 17 97.5t47.5 80t73 54.5t94.5 20q38 0 72 -11.5t61 -31.5l68 90l33 -22l-71 -94q32 -35 50.5 -82t18.5 -101q0 -52 -17 -97.5t-47.5 -80t-73 -54.5t-94.5 -20q-38 0 -71.5 11t-61.5 31l-64 -85l-32 22zM97 244q0 -93 45 -147
l240 320q-44 33 -106 33q-85 0 -132 -56t-47 -150zM455 244q0 45 -11.5 82t-32.5 63l-241 -319q43 -32 106 -32q85 0 132 56t47 150z" />
    <glyph glyph-name="oslashacute" unicode="&#x1ff;" horiz-adv-x="552" 
d="M114 60q-34 35 -52 82.5t-18 101.5q0 52 17 97.5t47.5 80t73 54.5t94.5 20q38 0 72 -11.5t61 -31.5l68 90l33 -22l-71 -94q32 -35 50.5 -82t18.5 -101q0 -52 -17 -97.5t-47.5 -80t-73 -54.5t-94.5 -20q-38 0 -71.5 11t-61.5 31l-64 -85l-32 22zM97 244q0 -93 45 -147
l240 320q-44 33 -106 33q-85 0 -132 -56t-47 -150zM455 244q0 45 -11.5 82t-32.5 63l-241 -319q43 -32 106 -32q85 0 132 56t47 150zM195 537l-16 22l186 137q8 5 13 -2l27 -40z" />
    <glyph glyph-name="oe" unicode="&#x153;" horiz-adv-x="950" 
d="M692 -8q-75 0 -129 35.5t-82 95.5q-28 -59 -81 -95t-124 -36q-52 0 -94.5 20t-73 54.5t-47.5 80t-17 97.5t17 97.5t47.5 80t73 54.5t94.5 20q71 0 124 -36t81 -95q28 59 80.5 95t122.5 36q48 0 88 -18t69 -49.5t45.5 -73.5t16.5 -91q0 -18 -3.5 -23.5t-11.5 -5.5h-381
q2 -42 14 -78t35.5 -62.5t58 -42t81.5 -15.5q32 0 66.5 9t66.5 24l51 24l17 -25q-51 -37 -103.5 -57t-101.5 -20zM455 244q0 94 -47 150t-132 56t-132 -56t-47 -150t47 -150t132 -56t132 56t47 150zM854 274q-5 87 -51.5 132.5t-118.5 45.5q-73 0 -121 -46.5t-55 -131.5h346
z" />
    <glyph glyph-name="thorn" unicode="&#xfe;" horiz-adv-x="565" 
d="M128 431l25 15q47 28 85 39t73 11q49 0 88 -19.5t66 -54t41 -80.5t14 -98t-14.5 -98t-42 -80t-66.5 -54t-88 -20q-36 0 -73.5 12t-76.5 35l-31 18v-286h-51v938h51v-278zM128 109q0 -12 8 -17q36 -23 81.5 -39t86.5 -16q75 0 119 52t44 155t-43.5 155t-117.5 52
q-76 0 -170 -54q-8 -4 -8 -16v-272z" />
    <glyph glyph-name="racute" unicode="&#x155;" horiz-adv-x="348" 
d="M126 408q44 26 73.5 43t50 26.5t33.5 13.5t25 4q8 0 17 -2t17 -5v-30q-18 -5 -42.5 -14t-51.5 -20t-55.5 -23.5t-54.5 -24.5q-10 -5 -10 -14v-362h-51v488h38zM134 537l-16 22l186 137q8 5 13 -2l27 -40z" />
    <glyph glyph-name="rcaron" unicode="&#x159;" horiz-adv-x="348" 
d="M126 408q44 26 73.5 43t50 26.5t33.5 13.5t25 4q8 0 17 -2t17 -5v-30q-18 -5 -42.5 -14t-51.5 -20t-55.5 -23.5t-54.5 -24.5q-10 -5 -10 -14v-362h-51v488h38zM251 551q-5 -5 -8 -6.5t-11 -1.5h-12q-8 0 -11.5 1.5t-8.5 6.5l-123 130l19 18l129 -106h3l129 106l19 -18z
" />
    <glyph glyph-name="rcommaaccent" unicode="&#x157;" horiz-adv-x="348" 
d="M126 408q44 26 73.5 43t50 26.5t33.5 13.5t25 4q8 0 17 -2t17 -5v-30q-18 -5 -42.5 -14t-51.5 -20t-55.5 -23.5t-54.5 -24.5q-10 -5 -10 -14v-362h-51v488h38zM42 -245l36 187h39q16 0 16 -16q0 -15 -17 -56l-50 -120z" />
    <glyph glyph-name="sacute" unicode="&#x15b;" horiz-adv-x="456" 
d="M329 444q-29 5 -54 7.5t-45 2.5q-25 0 -49 -4t-42.5 -13.5t-29.5 -24.5t-11 -37q0 -34 25.5 -51.5t79.5 -33.5l72 -21q70 -20 102 -50t32 -82q0 -33 -13 -60t-36.5 -46t-56 -29t-71.5 -10q-25 0 -51 4.5t-51.5 11.5t-48.5 16t-42 19l13 27l39 -11q44 -12 76 -18.5
t67 -6.5q62 0 95.5 28.5t33.5 73.5q0 36 -23.5 55t-82.5 36l-78 23q-60 17 -93.5 46t-33.5 78q0 29 13.5 51.5t37.5 38.5t56.5 24t69.5 8q38 0 79.5 -8.5t81.5 -24.5l-9 -28zM150 537l-16 22l186 137q8 5 13 -2l27 -40z" />
    <glyph glyph-name="scircumflex" unicode="&#x15d;" horiz-adv-x="456" 
d="M329 444q-29 5 -54 7.5t-45 2.5q-25 0 -49 -4t-42.5 -13.5t-29.5 -24.5t-11 -37q0 -34 25.5 -51.5t79.5 -33.5l72 -21q70 -20 102 -50t32 -82q0 -33 -13 -60t-36.5 -46t-56 -29t-71.5 -10q-25 0 -51 4.5t-51.5 11.5t-48.5 16t-42 19l13 27l39 -11q44 -12 76 -18.5
t67 -6.5q62 0 95.5 28.5t33.5 73.5q0 36 -23.5 55t-82.5 36l-78 23q-60 17 -93.5 46t-33.5 78q0 29 13.5 51.5t37.5 38.5t56.5 24t69.5 8q38 0 79.5 -8.5t81.5 -24.5l-9 -28zM380 561l-19 -18l-129 106h-3l-129 -106l-19 18l123 130q5 5 8.5 6.5t11.5 1.5h12q8 0 11 -1.5
t8 -6.5z" />
    <glyph glyph-name="scaron" unicode="&#x161;" horiz-adv-x="456" 
d="M329 444q-29 5 -54 7.5t-45 2.5q-25 0 -49 -4t-42.5 -13.5t-29.5 -24.5t-11 -37q0 -34 25.5 -51.5t79.5 -33.5l72 -21q70 -20 102 -50t32 -82q0 -33 -13 -60t-36.5 -46t-56 -29t-71.5 -10q-25 0 -51 4.5t-51.5 11.5t-48.5 16t-42 19l13 27l39 -11q44 -12 76 -18.5
t67 -6.5q62 0 95.5 28.5t33.5 73.5q0 36 -23.5 55t-82.5 36l-78 23q-60 17 -93.5 46t-33.5 78q0 29 13.5 51.5t37.5 38.5t56.5 24t69.5 8q38 0 79.5 -8.5t81.5 -24.5l-9 -28zM254 551q-5 -5 -8 -6.5t-11 -1.5h-12q-8 0 -11.5 1.5t-8.5 6.5l-123 130l19 18l129 -106h3
l129 106l19 -18z" />
    <glyph glyph-name="scedilla" unicode="&#x15f;" horiz-adv-x="456" 
d="M329 444q-29 5 -54 7.5t-45 2.5q-25 0 -49 -4t-42.5 -13.5t-29.5 -24.5t-11 -37q0 -34 25.5 -51.5t79.5 -33.5l72 -21q70 -20 102 -50t32 -82q0 -33 -13 -59.5t-35.5 -45.5t-54.5 -29t-69 -11q-5 -12 -5 -21q0 -12 18 -20t40 -17t40 -22.5t18 -37.5q0 -34 -38.5 -56.5
t-120.5 -26.5l-7 31l66 14q50 11 50 32q0 13 -17.5 21t-38.5 16.5t-38.5 19t-17.5 28.5q0 19 16 41q-45 5 -88 18.5t-75 30.5l13 27l39 -11q44 -12 76 -18.5t67 -6.5q62 0 95.5 28.5t33.5 73.5q0 36 -23.5 55t-82.5 36l-78 23q-60 17 -93.5 46t-33.5 78q0 29 13.5 51.5
t37.5 38.5t56.5 24t69.5 8q38 0 79.5 -8.5t81.5 -24.5l-9 -28z" />
    <glyph glyph-name="scommaaccent" unicode="&#x219;" horiz-adv-x="456" 
d="M329 444q-29 5 -54 7.5t-45 2.5q-25 0 -49 -4t-42.5 -13.5t-29.5 -24.5t-11 -37q0 -34 25.5 -51.5t79.5 -33.5l72 -21q70 -20 102 -50t32 -82q0 -33 -13 -60t-36.5 -46t-56 -29t-71.5 -10q-25 0 -51 4.5t-51.5 11.5t-48.5 16t-42 19l13 27l39 -11q44 -12 76 -18.5
t67 -6.5q62 0 95.5 28.5t33.5 73.5q0 36 -23.5 55t-82.5 36l-78 23q-60 17 -93.5 46t-33.5 78q0 29 13.5 51.5t37.5 38.5t56.5 24t69.5 8q38 0 79.5 -8.5t81.5 -24.5l-9 -28zM174 -245l36 187h39q16 0 16 -16q0 -15 -17 -56l-50 -120z" />
    <glyph glyph-name="germandbls" unicode="&#xdf;" horiz-adv-x="626" 
d="M281 52q35 -8 66 -13t58 -5q65 0 97 28t32 70q0 19 -6 32.5t-19 24t-33 19t-47 17.5l-52 18q-35 12 -60 23.5t-41 24t-23.5 27.5t-7.5 34q0 31 23.5 55.5t68.5 52.5l46 28q21 13 35 24t23 21.5t13 22.5t4 26q0 22 -10.5 39t-27.5 28t-40.5 17t-48.5 6q-93 0 -139 -52
q-20 -23 -31 -56t-11 -84v-480h-51v448h-97v26l97 14q0 52 16 94t46 72t73.5 46t98.5 16q33 0 64 -9t55 -26.5t38.5 -42.5t14.5 -57q0 -44 -25 -71t-67 -52l-72 -43q-26 -16 -38 -29t-12 -29q0 -25 26.5 -39.5t80.5 -33.5l49 -17q32 -11 57 -23t42.5 -27.5t26.5 -35t9 -46.5
q0 -33 -13 -59t-36.5 -45t-56 -29t-71.5 -10q-46 0 -94.5 12.5t-90.5 32.5l12 27z" />
    <glyph glyph-name="tcaron" unicode="&#x165;" horiz-adv-x="385" 
d="M367 35q-31 -19 -70 -31t-71 -12q-65 0 -98 35q-17 17 -25 42t-8 62v317h-97v26l97 14v141h51v-141h181v-40h-181v-314q0 -52 22 -77q21 -23 65 -23q17 0 38.5 4.5t50.5 12.5l33 9zM208 551l36 187h39q16 0 16 -16q0 -15 -17 -56l-50 -120z" />
    <glyph glyph-name="tcommaaccent" unicode="&#x163;" horiz-adv-x="385" 
d="M367 35q-31 -19 -70 -31t-71 -12q-65 0 -98 35q-17 17 -25 42t-8 62v317h-97v26l97 14v141h51v-141h181v-40h-181v-314q0 -52 22 -77q21 -23 65 -23q17 0 38.5 4.5t50.5 12.5l33 9zM168 -245l36 187h39q16 0 16 -16q0 -15 -17 -56l-50 -120z" />
    <glyph glyph-name="uni021B" unicode="&#x21b;" horiz-adv-x="385" 
d="M367 35q-31 -19 -70 -31t-71 -12q-65 0 -98 35q-17 17 -25 42t-8 62v317h-97v26l97 14v141h51v-141h181v-40h-181v-314q0 -52 22 -77q21 -23 65 -23q17 0 38.5 4.5t50.5 12.5l33 9zM168 -245l36 187h39q16 0 16 -16q0 -15 -17 -56l-50 -120z" />
    <glyph glyph-name="tbar" unicode="&#x167;" horiz-adv-x="385" 
d="M367 35q-31 -19 -70 -31t-71 -12q-65 0 -98 35q-17 17 -25 42t-8 62v106h-81v24l81 11v176h-97v26l97 14v141h51v-141h181v-40h-181v-174h162v-37h-162v-103q0 -52 22 -77q21 -23 65 -23q17 0 38.5 4.5t50.5 12.5l33 9z" />
    <glyph glyph-name="ugrave" unicode="&#xf9;" horiz-adv-x="550" 
d="M438 0l-13 41l-27 -12q-39 -17 -75 -27t-70 -10q-45 0 -82 14t-60 38q-20 22 -31 52.5t-11 74.5v317h51v-307q0 -42 7 -65.5t22 -40.5q18 -19 46.5 -28t63.5 -9q62 0 136 27l16 6q8 3 9.5 5.5t1.5 8.5v403h51v-488h-35zM146 654l27 40q5 8 13 2l186 -137l-16 -22z" />
    <glyph glyph-name="uacute" unicode="&#xfa;" horiz-adv-x="550" 
d="M438 0l-13 41l-27 -12q-39 -17 -75 -27t-70 -10q-45 0 -82 14t-60 38q-20 22 -31 52.5t-11 74.5v317h51v-307q0 -42 7 -65.5t22 -40.5q18 -19 46.5 -28t63.5 -9q62 0 136 27l16 6q8 3 9.5 5.5t1.5 8.5v403h51v-488h-35zM197 537l-16 22l186 137q8 5 13 -2l27 -40z" />
    <glyph glyph-name="ucircumflex" unicode="&#xfb;" horiz-adv-x="550" 
d="M438 0l-13 41l-27 -12q-39 -17 -75 -27t-70 -10q-45 0 -82 14t-60 38q-20 22 -31 52.5t-11 74.5v317h51v-307q0 -42 7 -65.5t22 -40.5q18 -19 46.5 -28t63.5 -9q62 0 136 27l16 6q8 3 9.5 5.5t1.5 8.5v403h51v-488h-35zM424 561l-19 -18l-129 106h-3l-129 -106l-19 18
l123 130q5 5 8.5 6.5t11.5 1.5h12q8 0 11 -1.5t8 -6.5z" />
    <glyph glyph-name="utilde" unicode="&#x169;" horiz-adv-x="550" 
d="M438 0l-13 41l-27 -12q-39 -17 -75 -27t-70 -10q-45 0 -82 14t-60 38q-20 22 -31 52.5t-11 74.5v317h51v-307q0 -42 7 -65.5t22 -40.5q18 -19 46.5 -28t63.5 -9q62 0 136 27l16 6q8 3 9.5 5.5t1.5 8.5v403h51v-488h-35zM340 573q-16 0 -33.5 6.5t-35 15t-34.5 15t-33 6.5
q-15 0 -30.5 -9.5t-27.5 -33.5l-26 8q13 39 36 59t53 20q16 0 33.5 -6.5t35 -15t34.5 -15t33 -6.5q15 0 30 10t28 34l26 -9q-13 -38 -36 -58.5t-53 -20.5z" />
    <glyph glyph-name="udieresis" unicode="&#xfc;" horiz-adv-x="550" 
d="M438 0l-13 41l-27 -12q-39 -17 -75 -27t-70 -10q-45 0 -82 14t-60 38q-20 22 -31 52.5t-11 74.5v317h51v-307q0 -42 7 -65.5t22 -40.5q18 -19 46.5 -28t63.5 -9q62 0 136 27l16 6q8 3 9.5 5.5t1.5 8.5v403h51v-488h-35zM155 646h57q9 0 11.5 -2t2.5 -9v-63h-71v74z
M322 646h57q9 0 11.5 -2t2.5 -9v-63h-71v74z" />
    <glyph glyph-name="umacron" unicode="&#x16b;" horiz-adv-x="550" 
d="M438 0l-13 41l-27 -12q-39 -17 -75 -27t-70 -10q-45 0 -82 14t-60 38q-20 22 -31 52.5t-11 74.5v317h51v-307q0 -42 7 -65.5t22 -40.5q18 -19 46.5 -28t63.5 -9q62 0 136 27l16 6q8 3 9.5 5.5t1.5 8.5v403h51v-488h-35zM132 577v40h285v-40h-285z" />
    <glyph glyph-name="ubreve" unicode="&#x16d;" horiz-adv-x="550" 
d="M438 0l-13 41l-27 -12q-39 -17 -75 -27t-70 -10q-45 0 -82 14t-60 38q-20 22 -31 52.5t-11 74.5v317h51v-307q0 -42 7 -65.5t22 -40.5q18 -19 46.5 -28t63.5 -9q62 0 136 27l16 6q8 3 9.5 5.5t1.5 8.5v403h51v-488h-35zM274 551q-51 0 -90.5 32t-52.5 94l29 4
q14 -38 44 -60t70 -22q41 0 70.5 22t43.5 60l29 -4q-12 -62 -52 -94t-91 -32z" />
    <glyph glyph-name="uring" unicode="&#x16f;" horiz-adv-x="550" 
d="M438 0l-13 41l-27 -12q-39 -17 -75 -27t-70 -10q-45 0 -82 14t-60 38q-20 22 -31 52.5t-11 74.5v317h51v-307q0 -42 7 -65.5t22 -40.5q18 -19 46.5 -28t63.5 -9q62 0 136 27l16 6q8 3 9.5 5.5t1.5 8.5v403h51v-488h-35zM372 648q0 -22 -8 -40t-21.5 -30.5t-31.5 -19
t-37 -6.5t-36.5 6.5t-31 19t-22 30.5t-8.5 40t8.5 40t22 30.5t31 19t36.5 6.5t37 -6.5t31.5 -19t21.5 -30.5t8 -40zM216 648q0 -26 15 -42t43 -16t43 16t15 42q0 27 -15 42.5t-43 15.5t-43 -15.5t-15 -42.5z" />
    <glyph glyph-name="uhungarumlaut" unicode="&#x171;" horiz-adv-x="550" 
d="M438 0l-13 41l-27 -12q-39 -17 -75 -27t-70 -10q-45 0 -82 14t-60 38q-20 22 -31 52.5t-11 74.5v317h51v-307q0 -42 7 -65.5t22 -40.5q18 -19 46.5 -28t63.5 -9q62 0 136 27l16 6q8 3 9.5 5.5t1.5 8.5v403h51v-488h-35zM162 572l-20 17l126 148q7 9 15 1l30 -30zM317 572
l-20 17l126 148q7 9 15 1l30 -30z" />
    <glyph glyph-name="uogonek" unicode="&#x173;" horiz-adv-x="550" 
d="M473 0q-44 -17 -69 -45t-25 -52q0 -19 13.5 -32t41.5 -13q13 0 31 3l22 4l9 -27q-14 -8 -33.5 -13t-39.5 -5q-42 0 -68.5 21.5t-26.5 56.5t25.5 60t67.5 45l14 7l-10 31l-27 -12q-39 -17 -75 -27t-70 -10q-45 0 -82 14t-60 38q-20 22 -31 52.5t-11 74.5v317h51v-307
q0 -42 7 -65.5t22 -40.5q18 -19 46.5 -28t63.5 -9q62 0 136 27l16 6q8 3 9.5 5.5t1.5 8.5v403h51v-488z" />
    <glyph glyph-name="wgrave" unicode="&#x1e81;" horiz-adv-x="809" 
d="M404 442q-7 -23 -19.5 -63.5t-28.5 -89.5l-95 -289h-39q-8 0 -10.5 1.5t-4.5 6.5l-196 480h42q5 0 8 -1.5t5 -6.5l117 -294q6 -15 13 -33t14 -37t13 -37t11 -31q3 12 8 28.5t11 35t12 38t12 36.5l100 302h43q6 0 8.5 -1.5t4.5 -6.5l115 -294q15 -38 29 -75t22 -63
l20 62.5t26 75.5l103 295q2 4 3.5 5.5t8.5 1.5h38l-173 -488h-41q-6 0 -9 1.5t-5 6.5l-109 278q-18 47 -33.5 90t-23.5 66zM285 654l27 40q5 8 13 2l186 -137l-16 -22z" />
    <glyph glyph-name="wacute" unicode="&#x1e83;" horiz-adv-x="809" 
d="M404 442q-7 -23 -19.5 -63.5t-28.5 -89.5l-95 -289h-39q-8 0 -10.5 1.5t-4.5 6.5l-196 480h42q5 0 8 -1.5t5 -6.5l117 -294q6 -15 13 -33t14 -37t13 -37t11 -31q3 12 8 28.5t11 35t12 38t12 36.5l100 302h43q6 0 8.5 -1.5t4.5 -6.5l115 -294q15 -38 29 -75t22 -63
l20 62.5t26 75.5l103 295q2 4 3.5 5.5t8.5 1.5h38l-173 -488h-41q-6 0 -9 1.5t-5 6.5l-109 278q-18 47 -33.5 90t-23.5 66zM316 537l-16 22l186 137q8 5 13 -2l27 -40z" />
    <glyph glyph-name="wcircumflex" unicode="&#x175;" horiz-adv-x="809" 
d="M404 442q-7 -23 -19.5 -63.5t-28.5 -89.5l-95 -289h-39q-8 0 -10.5 1.5t-4.5 6.5l-196 480h42q5 0 8 -1.5t5 -6.5l117 -294q6 -15 13 -33t14 -37t13 -37t11 -31q3 12 8 28.5t11 35t12 38t12 36.5l100 302h43q6 0 8.5 -1.5t4.5 -6.5l115 -294q15 -38 29 -75t22 -63
l20 62.5t26 75.5l103 295q2 4 3.5 5.5t8.5 1.5h38l-173 -488h-41q-6 0 -9 1.5t-5 6.5l-109 278q-18 47 -33.5 90t-23.5 66zM552 561l-19 -18l-129 106h-3l-129 -106l-19 18l123 130q5 5 8.5 6.5t11.5 1.5h12q8 0 11 -1.5t8 -6.5z" />
    <glyph glyph-name="wdieresis" unicode="&#x1e85;" horiz-adv-x="809" 
d="M404 442q-7 -23 -19.5 -63.5t-28.5 -89.5l-95 -289h-39q-8 0 -10.5 1.5t-4.5 6.5l-196 480h42q5 0 8 -1.5t5 -6.5l117 -294q6 -15 13 -33t14 -37t13 -37t11 -31q3 12 8 28.5t11 35t12 38t12 36.5l100 302h43q6 0 8.5 -1.5t4.5 -6.5l115 -294q15 -38 29 -75t22 -63
l20 62.5t26 75.5l103 295q2 4 3.5 5.5t8.5 1.5h38l-173 -488h-41q-6 0 -9 1.5t-5 6.5l-109 278q-18 47 -33.5 90t-23.5 66zM283 646h57q9 0 11.5 -2t2.5 -9v-63h-71v74zM450 646h57q9 0 11.5 -2t2.5 -9v-63h-71v74z" />
    <glyph glyph-name="ygrave" unicode="&#x1ef3;" horiz-adv-x="511" 
d="M182 -231l-45 13l98 215l-228 491h44q8 0 12 -7l197 -432l190 432q3 7 12 7h42zM121 654l27 40q5 8 13 2l186 -137l-16 -22z" />
    <glyph glyph-name="yacute" unicode="&#xfd;" horiz-adv-x="511" 
d="M182 -231l-45 13l98 215l-228 491h44q8 0 12 -7l197 -432l190 432q3 7 12 7h42zM187 537l-16 22l186 137q8 5 13 -2l27 -40z" />
    <glyph glyph-name="ycircumflex" unicode="&#x177;" horiz-adv-x="511" 
d="M182 -231l-45 13l98 215l-228 491h44q8 0 12 -7l197 -432l190 432q3 7 12 7h42zM406 561l-19 -18l-129 106h-3l-129 -106l-19 18l123 130q5 5 8.5 6.5t11.5 1.5h12q8 0 11 -1.5t8 -6.5z" />
    <glyph glyph-name="ydieresis" unicode="&#xff;" horiz-adv-x="511" 
d="M182 -231l-45 13l98 215l-228 491h44q8 0 12 -7l197 -432l190 432q3 7 12 7h42zM137 646h57q9 0 11.5 -2t2.5 -9v-63h-71v74zM304 646h57q9 0 11.5 -2t2.5 -9v-63h-71v74z" />
    <glyph glyph-name="zacute" unicode="&#x17a;" horiz-adv-x="480" 
d="M53 19q0 6 1 9.5t5 8.5l305 411h-306v40h371v-19q0 -6 -1 -9.5t-5 -8.5l-306 -411h312v-40h-376v19zM158 537l-16 22l186 137q8 5 13 -2l27 -40z" />
    <glyph glyph-name="zcaron" unicode="&#x17e;" horiz-adv-x="480" 
d="M53 19q0 6 1 9.5t5 8.5l305 411h-306v40h371v-19q0 -6 -1 -9.5t-5 -8.5l-306 -411h312v-40h-376v19zM272 551q-5 -5 -8 -6.5t-11 -1.5h-12q-8 0 -11.5 1.5t-8.5 6.5l-123 130l19 18l129 -106h3l129 106l19 -18z" />
    <glyph glyph-name="zdotaccent" unicode="&#x17c;" horiz-adv-x="480" 
d="M53 19q0 6 1 9.5t5 8.5l305 411h-306v40h371v-19q0 -6 -1 -9.5t-5 -8.5l-306 -411h312v-40h-376v19zM206 648h64q9 0 11.5 -2.5t2.5 -10.5v-65h-78v78z" />
    <glyph glyph-name="afii10017" unicode="&#x410;" horiz-adv-x="658" 
d="M593 0q-10 0 -14 8l-71 167h-360l-69 -167q-2 -5 -4.5 -6.5t-8.5 -1.5h-45l277 663h44q7 0 9.5 -2t4.5 -7l282 -654h-45zM489 218l-98 232q-19 45 -37.5 90t-28.5 73q-10 -28 -27 -72t-36 -89l-96 -234h323z" />
    <glyph glyph-name="afii10018" unicode="&#x411;" horiz-adv-x="595" 
d="M321 369q53 0 95.5 -10.5t72.5 -35.5q28 -23 44 -57.5t16 -82.5t-16 -81.5t-44 -56.5q-30 -25 -74 -35t-94 -10h-237v663h391v-43h-338v-251h184zM137 325v-281h179q100 0 142 39q38 35 38 101q0 32 -9 58.5t-29 44.5q-41 38 -142 38h-179z" />
    <glyph glyph-name="afii10019" unicode="&#x412;" horiz-adv-x="601" 
d="M84 663h220q51 0 93 -9.5t69 -37.5q17 -17 26 -41.5t9 -57.5q0 -45 -19 -89.5t-53 -76.5q52 -17 87 -55.5t35 -106.5q0 -45 -13.5 -78t-38.5 -56q-29 -28 -73 -41.5t-101 -13.5h-241v663zM137 44h181q48 0 83.5 9.5t59.5 32.5q17 17 27 42.5t10 61.5q0 32 -8.5 54.5
t-24.5 38.5q-21 21 -55.5 30.5t-88.5 9.5h-184v-279zM137 365h225q18 0 28 3.5t20 15.5q18 23 29.5 55t11.5 68q0 32 -8 52.5t-23 33.5q-19 16 -48.5 21t-71.5 5h-163v-254z" />
    <glyph glyph-name="afii10020" unicode="&#x413;" horiz-adv-x="505" 
d="M137 0h-53v663h391v-43h-338v-620z" />
    <glyph glyph-name="afii10021" unicode="&#x414;" horiz-adv-x="675" 
d="M581 663v-620h80v-163q0 -10 -11 -10h-30l-8 130h-549l-8 -130h-30q-11 0 -11 10v163h65q16 0 19 12l146 591q3 11 7 14t14 3h316zM289 620l-142 -577h381v577h-239z" />
    <glyph glyph-name="afii10022" unicode="&#x415;" horiz-adv-x="536" 
d="M480 663v-43h-343v-252h310v-43h-310v-282h355v-43h-408v663h396z" />
    <glyph glyph-name="afii10024" unicode="&#x416;" horiz-adv-x="967" 
d="M258 415q10 -14 19 -23t20 -14.5t24.5 -8t33.5 -2.5h102v296h53v-296h102q19 0 33 2.5t25 8t20 14.5t19 23l175 253l37 -24l-177 -253q-18 -26 -34 -38l213 -353h-46q-8 0 -11.5 2t-6.5 7l-189 322q-11 -3 -23 -4t-26 -1h-111v-326h-53v326h-111q-14 0 -26 1t-23 4
l-189 -322q-3 -5 -6.5 -7t-11.5 -2h-46l212 353q-16 13 -33 38l-177 253l37 24z" />
    <glyph glyph-name="afii10025" unicode="&#x417;" horiz-adv-x="564" 
d="M99 75q42 -17 88.5 -27t89.5 -10q40 0 73.5 11t58 32t38 51t13.5 67q0 32 -9 55t-24 38q-32 32 -108 32h-142q-10 0 -10 9v33h176q23 0 34 4t20 18q35 56 35 113q0 60 -40 92t-109 32q-33 0 -71.5 -7t-75.5 -20l-66 -23l-14 32q55 30 115.5 48t113.5 18q46 0 83 -13
t62.5 -35.5t39 -52t13.5 -62.5q0 -42 -16.5 -83.5t-48.5 -78.5q48 -21 72 -60t24 -93q0 -41 -17 -78.5t-47.5 -65.5t-74 -44.5t-96.5 -16.5q-62 0 -130 20.5t-124 56.5l16 31z" />
    <glyph glyph-name="afii10026" unicode="&#x418;" horiz-adv-x="728" 
d="M598 654q5 6 8 7.5t11 1.5h27v-663h-51v477q0 20 0.5 50t2.5 57q-14 -21 -32.5 -45t-35.5 -44l-398 -487q-5 -5 -7.5 -6.5t-9.5 -1.5h-29v663h50v-479q0 -20 -0.5 -50t-2.5 -57q14 21 33 45t35 44z" />
    <glyph glyph-name="afii10027" unicode="&#x419;" horiz-adv-x="728" 
d="M598 654q5 6 8 7.5t11 1.5h27v-663h-51v477q0 20 0.5 50t2.5 57q-14 -21 -32.5 -45t-35.5 -44l-398 -487q-5 -5 -7.5 -6.5t-9.5 -1.5h-29v663h50v-479q0 -20 -0.5 -50t-2.5 -57q14 21 33 45t35 44zM368 721q-51 0 -90.5 32t-52.5 94l29 4q14 -38 44 -60t70 -22
q41 0 70.5 22t43.5 60l29 -4q-12 -62 -52 -94t-91 -32z" />
    <glyph glyph-name="afii10028" unicode="&#x41a;" horiz-adv-x="614" 
d="M538 668l34 -27l-204 -250q-11 -13 -20 -22.5t-18 -16.5l246 -352h-47q-13 0 -19 9l-222 321q-19 -4 -47 -4h-104v-326h-53v663h53v-296h94q20 0 33.5 2t25 7t21.5 14.5t22 24.5z" />
    <glyph glyph-name="afii10029" unicode="&#x41b;" horiz-adv-x="683" 
d="M157 65q-8 -34 -25 -50.5t-49 -16.5q-17 0 -36.5 3.5t-32.5 8.5v21l70 11q10 2 14.5 5.5t6.5 14.5l137 584q2 11 6 14t15 3h336v-663h-53v620h-259z" />
    <glyph glyph-name="afii10030" unicode="&#x41c;" horiz-adv-x="823" 
d="M434 225h-31q-10 0 -17 8l-186 253q-17 23 -36 49.5t-30 44.5q1 -25 1 -57v-56v-467h-51v663h35q7 0 9.5 -1t7.5 -7l278 -380l278 380q4 5 7 6.5t9 1.5h31v-663h-50v463v56t1 57q-11 -16 -30.5 -43.5t-36.5 -50.5z" />
    <glyph glyph-name="afii10031" unicode="&#x41d;" horiz-adv-x="688" 
d="M551 324h-414v-324h-53v663h53v-294h414v294h53v-663h-53v324z" />
    <glyph glyph-name="afii10032" unicode="&#x41e;" horiz-adv-x="724" 
d="M42 331q0 68 23 130t65 109t101 75t131 28t131 -28t101 -75t65 -109t23 -130t-23 -130t-65 -109t-101 -74.5t-131 -27.5t-131 27.5t-101 74.5t-65 109t-23 130zM628 331q0 65 -19.5 118.5t-54.5 92t-84 60t-108 21.5t-108 -21.5t-84 -60t-54.5 -92t-19.5 -118.5
t19.5 -118.5t54.5 -92t84 -59.5t108 -21t108 21t84 59.5t54.5 92t19.5 118.5z" />
    <glyph glyph-name="afii10033" unicode="&#x41f;" horiz-adv-x="680" 
d="M543 620h-406v-620h-53v663h512v-663h-53v620z" />
    <glyph glyph-name="afii10034" unicode="&#x420;" horiz-adv-x="593" 
d="M137 0h-53v663h233q65 0 108 -14t71 -41q26 -26 38 -62t12 -81q0 -54 -17.5 -103.5t-50.5 -80.5q-23 -22 -46.5 -29.5t-65.5 -7.5h-229v-244zM137 286h234q30 0 48.5 7t32.5 25q22 29 31.5 66.5t9.5 78.5q0 38 -8.5 66.5t-26.5 47.5q-22 23 -57 33t-92 10h-172v-334z" />
    <glyph glyph-name="afii10035" unicode="&#x421;" horiz-adv-x="660" 
d="M622 100q-57 -50 -128 -80t-145 -30q-67 0 -123.5 25t-97 70.5t-63.5 108t-23 137.5q0 72 24 134.5t66 108.5t99 72.5t123 26.5q87 0 153.5 -44.5t107.5 -122.5l-32 -19l-51 52q-38 40 -80.5 63t-96.5 23q-57 0 -105 -22t-82 -61t-53 -92.5t-19 -117.5q0 -65 17.5 -118.5
t51.5 -92t83 -60t111 -21.5q44 0 88.5 14t86.5 37l67 36z" />
    <glyph glyph-name="afii10036" unicode="&#x422;" horiz-adv-x="559" 
d="M253 620h-228v43h509v-43h-228v-620h-53v620z" />
    <glyph glyph-name="afii10037" unicode="&#x423;" horiz-adv-x="574" 
d="M282 211l-250 452h46q10 0 15 -8l215 -393l204 392q3 5 6 7t11 2h41l-298 -567q-32 -61 -63 -83.5t-75 -22.5q-21 0 -39 3.5t-30 8.5v21l63 9q20 3 34.5 7.5t25.5 13.5t21.5 23.5t22.5 38.5z" />
    <glyph glyph-name="afii10038" unicode="&#x424;" horiz-adv-x="748" 
d="M708 341q0 -58 -23 -106.5t-64 -84t-98 -57t-125 -24.5v-79h-47v79q-68 3 -125.5 24t-98.5 56.5t-64 84t-23 107.5q0 58 23 106.5t64 84t98.5 56.5t125.5 24v61h47v-61q68 -3 125 -24t98 -56.5t64 -84t23 -106.5zM92 341q0 -51 18 -92t51.5 -70t81.5 -45.5t108 -19.5v453
q-60 -3 -108 -19.5t-81.5 -45.5t-51.5 -69.5t-18 -91.5zM656 341q0 103 -69 162t-189 64v-453q60 3 107.5 19.5t81 45.5t51.5 70t18 92z" />
    <glyph glyph-name="afii10039" unicode="&#x425;" horiz-adv-x="628" 
d="M561 0q-6 0 -9 1.5t-6 5.5l-235 307l-228 -306q-4 -5 -6.5 -6.5t-8.5 -1.5h-51l264 351l-240 312h50q6 0 8.5 -1.5t6.5 -6.5l207 -269l201 269q4 5 6.5 6.5t10.5 1.5h47l-235 -313l268 -350h-50z" />
    <glyph glyph-name="afii10040" unicode="&#x426;" horiz-adv-x="690" 
d="M84 663h53v-620h406v620h53v-620h80v-163q0 -10 -11 -10h-30l-8 130h-543v663z" />
    <glyph glyph-name="afii10041" unicode="&#x427;" horiz-adv-x="585" 
d="M448 269l-40 -12q-38 -11 -77 -18.5t-71 -7.5q-46 0 -85 13.5t-66 40.5q-24 24 -37.5 59t-13.5 83v236h53v-224q0 -42 9.5 -72.5t30.5 -50.5q39 -36 116 -36q25 0 63 4.5t70 11.5l37 8q8 2 9.5 5t1.5 9v345h53v-663h-53v269z" />
    <glyph glyph-name="afii10042" unicode="&#x428;" horiz-adv-x="979" 
d="M842 663h53v-663h-811v663h53v-620h326v620h53v-620h326v620z" />
    <glyph glyph-name="afii10043" unicode="&#x429;" horiz-adv-x="989" 
d="M84 0v663h53v-620h326v620h53v-620h326v620h53v-620h80v-163q0 -10 -11 -10h-30l-8 130h-842z" />
    <glyph glyph-name="afii10044" unicode="&#x42a;" horiz-adv-x="652" 
d="M394 369q53 0 95.5 -10.5t72.5 -35.5q28 -23 44 -57.5t16 -82.5t-16 -81.5t-44 -56.5q-30 -25 -74 -35t-94 -10h-237v620h-157v43h210v-294h184zM210 325v-281h179q100 0 142 39q38 35 38 101q0 32 -9 58.5t-29 44.5q-41 38 -142 38h-179z" />
    <glyph glyph-name="afii10045" unicode="&#x42b;" horiz-adv-x="813" 
d="M676 0v663h53v-663h-53zM321 369q53 0 95.5 -10.5t72.5 -35.5q28 -23 44 -57.5t16 -82.5t-16 -81.5t-44 -56.5q-30 -25 -74 -35t-94 -10h-237v663h53v-294h184zM137 325v-281h179q100 0 142 39q38 35 38 101q0 32 -9 58.5t-29 44.5q-41 38 -142 38h-179z" />
    <glyph glyph-name="afii10046" unicode="&#x42c;" horiz-adv-x="579" 
d="M321 369q53 0 95.5 -10.5t72.5 -35.5q28 -23 44 -57.5t16 -82.5t-16 -81.5t-44 -56.5q-30 -25 -74 -35t-94 -10h-237v663h53v-294h184zM137 325v-281h179q100 0 142 39q38 35 38 101q0 32 -9 58.5t-29 44.5q-41 38 -142 38h-179z" />
    <glyph glyph-name="afii10047" unicode="&#x42d;" horiz-adv-x="654" 
d="M612 331q0 -75 -23 -137.5t-63.5 -108t-97 -70.5t-123.5 -25q-74 0 -145 30t-128 80l21 27l67 -36q42 -23 86.5 -37t88.5 -14q61 0 109.5 20.5t82.5 58t52 90t19 115.5h-351v41h350q-5 57 -24 104.5t-50.5 81.5t-74.5 53t-95 19q-50 0 -95.5 -15.5t-93.5 -49.5l-49 -34
l-23 26q123 123 258 123q65 0 120 -25t95.5 -70t63.5 -108t23 -139z" />
    <glyph glyph-name="afii10048" unicode="&#x42e;" horiz-adv-x="922" 
d="M880 331q0 -69 -19 -131t-56 -109t-92 -74.5t-127 -27.5q-71 0 -125 26t-91 71t-57 105t-21 127h-155v-318h-53v663h53v-302h156q4 64 24.5 121t57.5 99.5t90 67t121 24.5q72 0 127 -27.5t92 -74.5t56 -109t19 -131zM826 331q0 66 -15.5 119.5t-45.5 92t-75 59.5t-104 21
t-104 -21t-75 -59.5t-45.5 -92t-15.5 -119.5t15.5 -119.5t45.5 -92t75 -59.5t104 -21t104 21t75 59.5t45.5 92t15.5 119.5z" />
    <glyph glyph-name="afii10049" unicode="&#x42f;" horiz-adv-x="620" 
d="M483 303v317h-169q-55 0 -90 -9t-57 -30q-20 -19 -29 -49t-9 -69q0 -34 7 -66t24 -57q14 -22 35 -29.5t47 -7.5h241zM536 663v-663h-53v261h-229q-8 0 -10.5 -1.5t-6.5 -8.5l-138 -243q-3 -5 -5.5 -6.5t-10.5 -1.5h-45l153 266q-28 10 -49.5 29t-36 45t-22 58t-7.5 67
q0 45 12 81.5t38 62.5q28 27 71 40.5t108 13.5h231z" />
    <glyph glyph-name="afii10052" unicode="&#x403;" horiz-adv-x="505" 
d="M137 0h-53v663h391v-43h-338v-620zM211 712l-16 22l186 137q8 5 13 -2l27 -40z" />
    <glyph glyph-name="afii10050" unicode="&#x490;" horiz-adv-x="505" 
d="M137 620v-620h-53v663h342l8 130h30q11 0 11 -10v-163h-338z" />
    <glyph glyph-name="afii10051" unicode="&#x402;" horiz-adv-x="643" 
d="M193 377l40 12q42 13 74 19.5t61 6.5q48 0 87.5 -15.5t68 -45.5t44 -72.5t15.5 -96.5q0 -48 -11.5 -90t-38 -78.5t-68.5 -67.5t-102 -56l-18 31l45 27q72 43 106 100.5t34 132.5q0 83 -42 132.5t-127 49.5q-27 0 -59 -5t-61 -11l-37 -8q-8 -2 -9.5 -5t-1.5 -9v-328h-53
v620h-136v43h479v-43h-290v-243z" />
    <glyph glyph-name="afii10053" unicode="&#x404;" horiz-adv-x="654" 
d="M42 331q0 76 23 139t63.5 108t95.5 70t120 25q135 0 258 -123l-23 -26l-49 34q-48 34 -93.5 49.5t-95.5 15.5q-52 0 -95 -19t-74.5 -53t-51 -81.5t-23.5 -104.5h350v-41h-351q1 -63 19 -115.5t51.5 -90t82 -58t110.5 -20.5q44 0 88.5 14t86.5 37l67 36l21 -27
q-57 -50 -128 -80t-145 -30q-67 0 -123.5 25t-97 70.5t-63.5 108t-23 137.5z" />
    <glyph glyph-name="afii10054" unicode="&#x405;" horiz-adv-x="554" 
d="M120 60q79 -24 147 -24q89 0 134.5 41t45.5 105q0 27 -8 46.5t-25.5 35.5t-44.5 29.5t-65 27.5l-73 27q-47 17 -79.5 35t-53 38.5t-30 44.5t-9.5 53q0 37 15.5 66t44 48.5t67.5 29.5t86 10q45 0 98.5 -10t99.5 -27l-10 -31l-49 8q-38 6 -70.5 9.5t-67.5 3.5
q-75 0 -120 -24.5t-45 -81.5q0 -48 34.5 -75t105.5 -52l71 -26q40 -15 73.5 -32t56.5 -38.5t36 -50t13 -66.5q0 -44 -17.5 -79.5t-48.5 -60t-73 -37.5t-91 -13q-26 0 -55.5 4.5t-59.5 12t-58 18.5t-50 24l14 29z" />
    <glyph glyph-name="uni0400" unicode="&#x400;" horiz-adv-x="536" 
d="M480 663v-43h-343v-252h310v-43h-310v-282h355v-43h-408v663h396zM155 829l27 40q5 8 13 2l186 -137l-16 -22z" />
    <glyph glyph-name="afii10023" unicode="&#x401;" horiz-adv-x="536" 
d="M480 663v-43h-343v-252h310v-43h-310v-282h355v-43h-408v663h396zM159 821h57q9 0 11.5 -2t2.5 -9v-63h-71v74zM326 821h57q9 0 11.5 -2t2.5 -9v-63h-71v74z" />
    <glyph glyph-name="afii10055" unicode="&#x406;" horiz-adv-x="231" 
d="M142 0h-53v663h53v-663z" />
    <glyph glyph-name="afii10056" unicode="&#x407;" horiz-adv-x="231" 
d="M142 0h-53v663h53v-663zM-3 821h57q9 0 11.5 -2t2.5 -9v-63h-71v74zM164 821h57q9 0 11.5 -2t2.5 -9v-63h-71v74z" />
    <glyph glyph-name="afii10057" unicode="&#x408;" horiz-adv-x="479" 
d="M32 68l53 -13q42 -11 73 -15.5t56 -4.5q68 0 101 36q18 20 25.5 49t7.5 69v474h53v-481q0 -95 -48 -144q-48 -48 -139 -48q-44 0 -95 13t-99 36z" />
    <glyph glyph-name="uni040D" unicode="&#x40d;" horiz-adv-x="728" 
d="M598 654q5 6 8 7.5t11 1.5h27v-663h-51v477q0 20 0.5 50t2.5 57q-14 -21 -32.5 -45t-35.5 -44l-398 -487q-5 -5 -7.5 -6.5t-9.5 -1.5h-29v663h50v-479q0 -20 -0.5 -50t-2.5 -57q14 21 33 45t35 44zM247 842l27 40q5 8 13 2l186 -137l-16 -22z" />
    <glyph glyph-name="afii10061" unicode="&#x40c;" horiz-adv-x="614" 
d="M538 668l34 -27l-204 -250q-11 -13 -20 -22.5t-18 -16.5l246 -352h-47q-13 0 -19 9l-222 321q-19 -4 -47 -4h-104v-326h-53v663h53v-296h94q20 0 33.5 2t25 7t21.5 14.5t22 24.5zM268 725l-16 22l186 137q8 5 13 -2l27 -40z" />
    <glyph glyph-name="afii10058" unicode="&#x409;" horiz-adv-x="1041" 
d="M783 369q53 0 95.5 -10.5t72.5 -35.5q28 -23 44 -57.5t16 -82.5t-16 -81.5t-44 -56.5q-30 -25 -74 -35t-94 -10h-237v620h-259l-130 -555q-8 -34 -25 -50.5t-49 -16.5q-17 0 -36.5 3.5t-32.5 8.5v21l70 11q10 2 14.5 5.5t6.5 14.5l137 584q2 11 6 14t15 3h336v-294h184z
M599 325v-281h179q100 0 142 39q38 35 38 101q0 32 -9 58.5t-29 44.5q-41 38 -142 38h-179z" />
    <glyph glyph-name="afii10059" unicode="&#x40a;" horiz-adv-x="1046" 
d="M551 324h-414v-324h-53v663h53v-294h414v294h53v-294h184q53 0 95.5 -10.5t72.5 -35.5q28 -23 44 -57.5t16 -82.5t-16 -81.5t-44 -56.5q-30 -25 -74 -35t-94 -10h-237v324zM604 325v-281h179q100 0 142 39q38 35 38 101q0 32 -9 58.5t-29 44.5q-41 38 -142 38h-179z" />
    <glyph glyph-name="afii10060" unicode="&#x40b;" horiz-adv-x="651" 
d="M199 377l40 12q38 11 77 18.5t71 7.5q46 0 85 -13.5t66 -40.5q24 -24 37.5 -59t13.5 -83v-219h-53v207q0 42 -9.5 72.5t-30.5 50.5q-39 36 -116 36q-25 0 -63 -4.5t-70 -11.5l-37 -8q-8 -2 -9.5 -5t-1.5 -9v-328h-53v620h-136v43h479v-43h-290v-243z" />
    <glyph glyph-name="afii10062" unicode="&#x40e;" horiz-adv-x="580" 
d="M278 211l-250 452h46q10 0 15 -8l215 -393l204 392q3 5 6 7t11 2h41l-298 -567q-32 -61 -63 -83.5t-75 -22.5q-21 0 -39 3.5t-30 8.5v21l63 9q20 3 34.5 7.5t25.5 13.5t21.5 23.5t22.5 38.5zM304 726q-51 0 -90.5 32t-52.5 94l29 4q14 -38 44 -60t70 -22q41 0 70.5 22
t43.5 60l29 -4q-12 -62 -52 -94t-91 -32z" />
    <glyph glyph-name="afii10145" unicode="&#x40f;" horiz-adv-x="680" 
d="M543 663h53v-663h-230v-120q0 -10 -11 -10h-30l-10 130h-231v663h53v-620h406v620z" />
    <glyph glyph-name="uni0492" unicode="&#x492;" horiz-adv-x="553" 
d="M18 339h124v324h391v-43h-338v-281h186v-43h-186v-296h-53v296h-124v43z" />
    <glyph glyph-name="uni049A" unicode="&#x49a;" horiz-adv-x="634" 
d="M535 0q-12 0 -17.5 2.5t-10.5 10.5l-219 317q-19 -4 -47 -4h-104v-326h-53v663h53v-296h94q20 0 33.5 2t25 7t21.5 14.5t22 24.5l205 253l34 -27l-204 -250q-11 -13 -20 -22.5t-18 -16.5l214 -306q3 -3 7 -3h61v-163q0 -10 -11 -10h-30l-8 130h-28z" />
    <glyph glyph-name="uni04A2" unicode="&#x4a2;" horiz-adv-x="704" 
d="M551 324h-414v-324h-53v663h53v-294h414v294h53v-620h73v-163q0 -10 -11 -10h-30l-8 130h-77v324z" />
    <glyph glyph-name="uni04AE" unicode="&#x4ae;" horiz-adv-x="580" 
d="M316 223v-223h-53v223l-256 440h46q10 0 15 -8l222 -387l223 386q3 5 6 7t11 2h44z" />
    <glyph glyph-name="uni04B0" unicode="&#x4b0;" horiz-adv-x="580" 
d="M316 223v-25h134v-43h-134v-155h-53v155h-134v43h134v25l-256 440h46q10 0 15 -8l222 -387l223 386q3 5 6 7t11 2h44z" />
    <glyph glyph-name="uni04BA" unicode="&#x4ba;" 
d="M137 394l40 12q38 11 77 18.5t71 7.5q46 0 85 -13.5t66 -40.5q24 -24 37.5 -59t13.5 -83v-236h-53v224q0 42 -9.5 72.5t-30.5 50.5q-39 36 -116 36q-25 0 -63 -4.5t-70 -11.5l-37 -8q-8 -2 -9.5 -5t-1.5 -9v-345h-53v663h53v-269z" />
    <glyph glyph-name="uni04D8" unicode="&#x4d8;" horiz-adv-x="694" 
d="M333 624q-39 0 -87 -12.5t-97 -36.5l-66 -32l-19 28q60 45 132 73.5t147 28.5q67 0 123.5 -25t98 -70.5t64.5 -108.5t23 -139q0 -68 -22.5 -129.5t-63.5 -108t-97.5 -74.5t-123.5 -28q-65 0 -120 25t-95 68.5t-63 102t-23 125.5q0 20 6 27.5t20 7.5h527q-3 62 -22 113
t-53 88t-82 57t-107 20zM344 39q55 0 100.5 20.5t78 56.5t51.5 85t22 105h-500q3 -61 22.5 -110t51.5 -84t76.5 -54t97.5 -19z" />
    <glyph glyph-name="uni04E8" unicode="&#x4e8;" horiz-adv-x="733" 
d="M42 331q0 68 23.5 130t66 109t102.5 75t132 28t132 -28t103 -75t66.5 -109t23.5 -130t-23.5 -130t-66.5 -109t-103 -74.5t-132 -27.5t-132 27.5t-102.5 74.5t-66 109t-23.5 130zM366 40q57 0 105 19.5t84 55.5t57 86t24 111h-540q3 -61 24 -111t57 -86t84 -55.5
t105 -19.5zM366 623q-57 0 -105 -19.5t-83.5 -55t-57 -85.5t-24.5 -110h540q-3 60 -24.5 110t-57 85.5t-83.5 55t-105 19.5z" />
    <glyph glyph-name="afii10065" unicode="&#x430;" horiz-adv-x="531" 
d="M524 32v-21q-13 -5 -29.5 -9t-31.5 -4q-58 0 -69 50l-25 -13q-36 -19 -73 -31t-75 -12q-39 0 -71 13t-55 34.5t-35.5 50.5t-12.5 62q0 49 29 78q36 37 117 37q19 0 51.5 -1t68.5 -3l79 -3v58q0 37 -7.5 60t-21.5 39q-17 19 -45 27t-59 8q-28 0 -56.5 -5t-66.5 -17
l-49 -15l-13 27q51 26 98.5 40t87.5 14q45 0 81.5 -13t61.5 -40q20 -21 30 -50.5t10 -73.5v-276zM392 218q0 6 -2 7.5t-8 1.5h-191q-53 0 -72 -18q-20 -19 -20 -56q0 -51 34.5 -84.5t97.5 -33.5q19 0 40 4t40.5 10t37.5 14t31 16q8 5 10 8.5t2 10.5v120z" />
    <glyph glyph-name="afii10066" unicode="&#x431;" horiz-adv-x="576" 
d="M138 421q42 20 84 35.5t91 15.5t89 -17.5t69 -48.5t45 -73t16 -90t-16 -93t-46 -80.5t-73.5 -56.5t-98.5 -21h-4q-50 0 -93.5 20t-76 62.5t-51.5 109t-19 158.5q0 87 16.5 150.5t48.5 110.5q35 51 93 83.5t138 32.5q31 0 65.5 -5t61.5 -15v-25l-119 -3
q-83 -2 -129.5 -29.5t-73.5 -69.5q-14 -23 -22.5 -45.5t-13 -44t-6 -40.5t-2.5 -34zM308 426q-43 0 -84.5 -13.5t-79.5 -31.5l-25 -12q-7 -3 -9 -7t-2 -13v-12q0 -68 11 -123t34 -94t58.5 -60.5t85.5 -21.5q45 0 79 17t57 45.5t34.5 66t11.5 78.5q0 86 -46.5 133.5
t-124.5 47.5z" />
    <glyph glyph-name="afii10066.locl" horiz-adv-x="552" 
d="M101 214q0 -82 46 -129t131 -47t131 47t46 129q0 83 -46 128.5t-131 45.5t-131 -45t-46 -129zM221 419q-32 6 -58.5 17t-46 28.5t-30.5 41.5t-11 57q0 38 15 67.5t41 49t61.5 29.5t76.5 10q49 0 94 -13t80 -35l-7 -24l-34 9q-35 9 -68.5 14t-62.5 5q-28 0 -54.5 -5.5
t-46.5 -18.5t-32.5 -34t-12.5 -52q0 -47 30.5 -74.5t96.5 -42.5l78 -18q55 -13 86 -34t48 -44q20 -26 32 -58.5t12 -74.5q0 -52 -17.5 -94t-48.5 -71.5t-73 -45.5t-90 -16h-2q-49 0 -91 16t-72.5 45.5t-48 71t-17.5 93.5q0 55 16.5 88t31.5 50q17 20 47.5 37.5t77.5 22.5v3z
" />
    <glyph glyph-name="afii10067" unicode="&#x432;" horiz-adv-x="543" 
d="M314 488q72 0 110 -32t38 -91q0 -35 -13.5 -61.5t-36.5 -43.5q42 -15 63.5 -44.5t21.5 -79.5q0 -72 -43 -104t-119 -32h-258v488h237zM445 138q0 54 -31 75t-88 21h-198v-194h198q119 0 119 98zM411 360q0 42 -25.5 65t-83.5 23h-174v-174h227q15 0 21.5 2.5t13.5 11.5
t14 27.5t7 44.5z" />
    <glyph glyph-name="afii10068" unicode="&#x433;" horiz-adv-x="425" 
d="M77 488h322v-40h-271v-448h-51v488z" />
    <glyph glyph-name="afii10068.alt" horiz-adv-x="463" 
d="M133.992 444q28.998 5 53.9961 7.5q24.999 2.5 44.9971 2.5q24.999 0 48.9971 -4q23.999 -4 42.498 -13.5t29.498 -24.5t10.999 -37q0 -34 -25.498 -51.5q-25.499 -17.5 -79.4951 -33.5l-71.9961 -21q-69.9951 -20 -101.993 -50t-31.998 -82q0 -33 12.999 -60t36.498 -46
q23.498 -19 55.9961 -29t71.4961 -10q24.998 0 50.9961 4.5q25.999 4.5 51.4971 11.5q25.499 7 48.4971 16q22.999 9 41.998 19l-13 27l-38.9971 -11q-43.9971 -12 -75.9951 -18.5t-66.9961 -6.5q-61.9961 0 -95.4941 28.5t-33.498 73.5q0 36 23.498 55
q23.499 19 82.4951 36l77.9951 23q59.9961 17 93.4941 46t33.498 78q0 29 -13.499 51.5t-37.4971 38.5q-23.999 16 -56.4971 24t-69.4961 8q-37.9971 0 -79.4951 -8.5q-41.4971 -8.5 -81.4951 -24.5l9 -28z" />
    <glyph glyph-name="afii10069" unicode="&#x434;" horiz-adv-x="603" 
d="M577 -99q0 -10 -11 -10h-30l-8 109h-459l-8 -109h-30q-11 0 -11 10v145h63q10 0 13.5 3t5.5 11l95 420q2 8 11 8h297v-442h72v-145zM148 46h306v396h-215z" />
    <glyph glyph-name="afii10069.alt" horiz-adv-x="533" 
d="M343 50q86 0 125 -39q33 -33 33 -85q0 -36 -17.5 -67t-49 -54t-76 -36.5t-98.5 -13.5q-53 0 -97.5 13t-76.5 36t-50 54.5t-18 68.5q0 35 16.5 58t42.5 37q-15 13 -15 32q0 11 5.5 21.5t16.5 25.5l50 65q-33 26 -51.5 63.5t-18.5 81.5q0 38 14 71.5t39.5 59t61.5 40
t80 14.5q40 0 73 -12.5t59 -33.5l30 21q30 21 45.5 28t28.5 7q8 0 17 -2.5t17 -6.5v-27l-106 -41q-5 -2 -5.5 -4t1.5 -5q17 -23 26 -51t9 -58q0 -38 -14 -71.5t-39.5 -59t-61.5 -40t-80 -14.5q-49 0 -90 19q-5 2 -8 -2l-40 -68q-6 -11 -6 -15q0 -10 18 -10h210zM165 8
q-29 0 -46.5 -4.5t-29.5 -15.5q-22 -20 -22 -58q0 -58 52 -95t141 -37q42 0 77.5 9.5t60.5 26.5t39 41t14 54q0 37 -20 55q-15 14 -38.5 19t-54.5 5h-173zM404 311q0 67 -38.5 104t-106.5 37t-106.5 -37t-38.5 -104t38.5 -104t106.5 -37t106.5 37t38.5 104z" />
    <glyph glyph-name="afii10070" unicode="&#x435;" horiz-adv-x="538" 
d="M280 -8q-54 0 -97.5 19.5t-74.5 53.5t-47.5 80t-16.5 99t16.5 99t46.5 80t72 53.5t93 19.5q48 0 88 -18t69 -49.5t45.5 -73.5t16.5 -91q0 -18 -3.5 -23.5t-11.5 -5.5h-380q2 -42 14 -78t35 -62.5t57.5 -42t81.5 -15.5q32 0 66.5 9t66.5 24l51 24l17 -25
q-51 -37 -103.5 -57t-101.5 -20zM442 274q-5 87 -51.5 132.5t-118.5 45.5q-73 0 -120.5 -46.5t-54.5 -131.5h345z" />
    <glyph glyph-name="afii10072" unicode="&#x436;" horiz-adv-x="841" 
d="M311 238q-27 0 -50 5l-155 -235q-4 -5 -6.5 -6.5t-10.5 -1.5h-47l177 262q-14 9 -23 18.5t-20 23.5l-126 165l35 27l129 -167q12 -15 22 -25t21.5 -15.5t25.5 -8t33 -2.5h79v210h51v-210h79q37 0 58 10.5t44 40.5l129 167l35 -27l-126 -165q-11 -14 -20 -23.5t-23 -18.5
l177 -262h-47q-8 0 -10.5 1.5t-6.5 6.5l-155 235q-23 -5 -50 -5h-84v-238h-51v238h-84z" />
    <glyph glyph-name="afii10073" unicode="&#x437;" horiz-adv-x="491" 
d="M447 153q0 -32 -13 -61.5t-38.5 -51.5t-65 -35t-91.5 -13q-66 0 -117.5 20.5t-99.5 56.5l17 25l51 -24q32 -15 71 -23.5t77 -8.5q77 0 117 33t40 83q0 82 -105 82h-146v39h177q16 0 26.5 3t18.5 13q15 19 15 51q0 53 -37 80.5t-109 27.5q-38 0 -69 -7t-63 -19l-40 -15
l-13 30q45 28 93.5 42.5t98.5 14.5q46 0 81 -12t59 -32t36.5 -47t12.5 -57q0 -24 -10 -48.5t-36 -45.5q62 -30 62 -101z" />
    <glyph glyph-name="afii10074" unicode="&#x438;" horiz-adv-x="584" 
d="M452 482q5 6 15 6h40v-488h-51v335q0 25 0.5 45.5t1.5 41.5q-7 -10 -13 -18t-12 -16.5t-12.5 -17t-15.5 -19.5l-274 -345q-5 -6 -15 -6h-39v488h51v-334q0 -25 -0.5 -45.5t-1.5 -41.5q13 19 24.5 34t28.5 37z" />
    <glyph glyph-name="afii10075" unicode="&#x439;" horiz-adv-x="584" 
d="M452 482q5 6 15 6h40v-488h-51v335q0 25 0.5 45.5t1.5 41.5q-7 -10 -13 -18t-12 -16.5t-12.5 -17t-15.5 -19.5l-274 -345q-5 -6 -15 -6h-39v488h51v-334q0 -25 -0.5 -45.5t-1.5 -41.5q13 19 24.5 34t28.5 37zM292 551q-51 0 -90.5 32t-52.5 94l29 4q14 -38 44 -60t70 -22
q41 0 70.5 22t43.5 60l29 -4q-12 -62 -52 -94t-91 -32z" />
    <glyph glyph-name="afii10076" unicode="&#x43a;" horiz-adv-x="532" 
d="M230 278q37 0 58 10.5t44 40.5l129 167l35 -27l-126 -165q-11 -14 -20 -23.5t-23 -18.5l177 -262h-47q-8 0 -10.5 1.5t-6.5 6.5l-155 235q-23 -5 -50 -5h-107v-238h-51v488h51v-210h102z" />
    <glyph glyph-name="afii10077" unicode="&#x43b;" horiz-adv-x="561" 
d="M176 479q3 9 11 9h297v-488h-51v442h-215l-90 -395q-7 -29 -23 -39.5t-40 -10.5q-17 0 -30.5 4t-24.5 10v21l54 7q8 1 10.5 3.5t4.5 9.5z" />
    <glyph glyph-name="afii10078" unicode="&#x43c;" horiz-adv-x="640" 
d="M514 336q0 19 0.5 38t1.5 36q-8 -14 -19 -32t-19 -29l-137 -187h-29q-8 0 -12 2.5t-9 8.5l-129 176q-10 14 -20 30.5t-18 30.5q1 -17 1.5 -36t0.5 -38v-336h-49v488h31q8 0 11.5 -2.5t8.5 -8.5l192 -265l192 265q5 6 8.5 8.5t11.5 2.5h31v-488h-49v336z" />
    <glyph glyph-name="afii10079" unicode="&#x43d;" horiz-adv-x="574" 
d="M446 0v235h-318v-235h-51v488h51v-213h318v213h51v-488h-51z" />
    <glyph glyph-name="afii10080" unicode="&#x43e;" horiz-adv-x="552" 
d="M508 244q0 -52 -17 -97.5t-47.5 -80t-73 -54.5t-94.5 -20t-94.5 20t-73 54.5t-47.5 80t-17 97.5t17 97.5t47.5 80t73 54.5t94.5 20t94.5 -20t73 -54.5t47.5 -80t17 -97.5zM455 244q0 94 -47 150t-132 56t-132 -56t-47 -150t47 -150t132 -56t132 56t47 150z" />
    <glyph glyph-name="afii10081" unicode="&#x43f;" horiz-adv-x="564" 
d="M487 488v-488h-51v442h-308v-442h-51v488h410z" />
    <glyph glyph-name="afii10081.alt" horiz-adv-x="552" 
d="M112 488l13 -41l27 12q39 17 75.5 27t70.5 10q45 0 82.5 -14t60.5 -38q20 -22 31 -52.5t11 -74.5v-317h-51v307q0 42 -7 65.5t-22 40.5q-18 19 -47 27.5t-64 8.5q-32 0 -66 -6t-71 -20l-16 -6q-8 -3 -9.5 -5.5t-1.5 -8.5v-403h-51v488h35z" />
    <glyph glyph-name="afii10082" unicode="&#x440;" horiz-adv-x="565" 
d="M128 57v-286h-51v717h37l11 -58l28 16q48 26 85.5 38t72.5 12q49 0 88 -19.5t66 -54t41 -80.5t14 -98t-14.5 -98t-42 -80t-66.5 -54t-88 -20q-36 0 -73.5 12t-76.5 35zM128 109q0 -12 8 -17q36 -23 81.5 -39t86.5 -16q75 0 119 52t44 155t-43.5 155t-117.5 52
q-76 0 -170 -54q-8 -4 -8 -16v-272z" />
    <glyph glyph-name="afii10083" unicode="&#x441;" horiz-adv-x="514" 
d="M482 72q-49 -36 -102.5 -58t-107.5 -22q-52 0 -94 19.5t-72 54t-46 80.5t-16 100q0 52 17.5 97.5t49 79.5t75 53.5t94.5 19.5q58 0 110.5 -33t82.5 -93l-30 -18l-29 28q-38 37 -68.5 54t-69.5 17t-71.5 -14.5t-56.5 -40.5t-37.5 -64t-13.5 -84q0 -101 49 -156t131 -55
q62 0 129 32l58 27z" />
    <glyph glyph-name="afii10084" unicode="&#x442;" horiz-adv-x="485" 
d="M217 0v448h-191v40h433v-40h-191v-448h-51z" />
    <glyph glyph-name="afii10084.alt" horiz-adv-x="879" 
d="M759 304q0 38 -7.5 64.5t-22.5 43.5q-17 20 -43.5 28.5t-62.5 8.5q-29 0 -62 -6t-68 -20l-23 -9q-10 -4 -11 -7.5t1 -8.5q13 -32 13 -81v-317h-51v304q0 38 -7.5 64.5t-22.5 43.5q-17 20 -43.5 28.5t-62.5 8.5q-29 0 -62.5 -7t-67.5 -19l-17 -6q-11 -4 -11 -14v-403h-51
v488h35l13 -41l27 12q38 17 72.5 27t65.5 10q45 0 82.5 -14t64.5 -45l50 23q78 36 140 36q45 0 81.5 -14t59.5 -38q20 -22 31 -52.5t11 -74.5v-317h-51v304z" />
    <glyph glyph-name="afii10085" unicode="&#x443;" horiz-adv-x="511" 
d="M182 -231l-45 13l98 215l-228 491h44q8 0 12 -7l197 -432l190 432q3 7 12 7h42z" />
    <glyph glyph-name="afii10086" unicode="&#x444;" horiz-adv-x="875" 
d="M392 43q-29 -19 -71 -35t-84 -16q-44 0 -78.5 20t-58.5 54.5t-37 81t-13 99.5q0 50 12 95.5t36.5 79.5t61 54t85.5 20q41 0 76 -13.5t71 -35.5l20 -12v274h51v-274l20 12q36 22 71 35.5t76 13.5q49 0 85.5 -20t61 -54t36.5 -79.5t12 -95.5q0 -53 -13 -99.5t-37 -81
t-59 -54.5t-78 -20q-42 0 -84 16t-71 35l-20 13v-285h-51v285zM249 37q34 0 69.5 12t70.5 31l13 7q8 5 9 11.5t1 8.5v274q0 2 -1 8.5t-9 11.5l-13 7q-28 15 -64.5 29t-75.5 14q-69 0 -107.5 -52t-38.5 -154q0 -100 38 -154t108 -54zM626 37q70 0 108 54t38 154
q0 102 -38.5 154t-107.5 52q-39 0 -75.5 -14t-64.5 -29l-13 -7q-8 -5 -9 -11.5t-1 -8.5v-274q0 -2 1 -8.5t9 -11.5l13 -7q35 -19 70.5 -31t69.5 -12z" />
    <glyph glyph-name="afii10087" unicode="&#x445;" horiz-adv-x="507" 
d="M464 488l-183 -232l214 -256h-48q-6 0 -8.5 1t-6.5 5l-183 220l-170 -220q-3 -4 -5.5 -5t-9.5 -1h-47l203 257l-191 231h48q10 0 16 -7l160 -194l150 194q4 5 6.5 6t9.5 1h45z" />
    <glyph glyph-name="afii10088" unicode="&#x446;" horiz-adv-x="588" 
d="M77 0v488h51v-442h311v442h51v-442h72v-145q0 -10 -11 -10h-30l-8 109h-436z" />
    <glyph glyph-name="afii10089" unicode="&#x447;" horiz-adv-x="515" 
d="M438 488v-488h-51v212l-20 -8q-37 -15 -71 -23.5t-75 -8.5q-95 0 -138 45t-43 121v150h51v-148q0 -68 31.5 -95.5t105.5 -27.5q38 0 69 6t58 17l18 7q8 3 11 7t3 13v221h51z" />
    <glyph glyph-name="afii10090" unicode="&#x448;" horiz-adv-x="865" 
d="M77 0v488h51v-442h279v442h51v-442h279v442h51v-488h-711z" />
    <glyph glyph-name="afii10091" unicode="&#x449;" horiz-adv-x="886" 
d="M77 488h51v-442h279v442h51v-442h279v442h51v-442h72v-145q0 -10 -11 -10h-30l-8 109h-734v488z" />
    <glyph glyph-name="afii10092" unicode="&#x44a;" horiz-adv-x="558" 
d="M10 488h171v-202h178q75 0 117 -33t42 -108t-42 -110t-117 -35h-229v448h-120v40zM469 148q0 54 -29 76t-95 22h-164v-206h164q66 0 95 27t29 81z" />
    <glyph glyph-name="afii10093" unicode="&#x44b;" horiz-adv-x="723" 
d="M128 488v-202h178q75 0 117 -33t42 -108t-42 -110t-117 -35h-229v488h51zM416 148q0 54 -29 76t-95 22h-164v-206h164q66 0 95 27t29 81zM595 0v488h51v-488h-51z" />
    <glyph glyph-name="afii10094" unicode="&#x44c;" horiz-adv-x="506" 
d="M306 286q74 0 117 -32t43 -106q0 -75 -42.5 -111.5t-117.5 -36.5h-229v488h51v-202h178zM415 148q0 54 -28.5 76t-94.5 22h-164v-206h164q66 0 94.5 27t28.5 81z" />
    <glyph glyph-name="afii10095" unicode="&#x44d;" horiz-adv-x="520" 
d="M238 496q58 0 102.5 -20.5t74.5 -55t45.5 -80t15.5 -96.5q0 -53 -16.5 -99t-47.5 -80t-75.5 -53.5t-100.5 -19.5q-58 0 -110 20.5t-92 56.5l17 25l61 -28q62 -29 125 -29q46 0 80 14.5t57 40t35 61t14 77.5h-244v40h243q-8 85 -56 133t-134 48q-31 0 -58.5 -6.5
t-54.5 -18.5l-63 -28l-17 25q43 38 95 55.5t104 17.5z" />
    <glyph glyph-name="afii10096" unicode="&#x44e;" horiz-adv-x="756" 
d="M712 244q0 -52 -16.5 -97.5t-45.5 -80t-70.5 -54.5t-90.5 -20q-50 0 -90.5 20t-69.5 54t-45 79.5t-16 96.5h-140v-242h-51v488h51v-206h141q7 45 25 84t46.5 68t66 45.5t82.5 16.5q49 0 90.5 -20t70.5 -54.5t45.5 -80t16.5 -97.5zM659 244q0 94 -45 150t-126 56
t-125 -55.5t-44 -149.5t44.5 -150.5t125.5 -56.5t125.5 56t44.5 150z" />
    <glyph glyph-name="afii10097" unicode="&#x44f;" horiz-adv-x="543" 
d="M466 488v-488h-51v189h-194q-9 0 -12 -7l-102 -176q-2 -4 -4 -5t-8 -1h-43l113 196q-37 11 -62.5 42t-25.5 96q0 43 13.5 72.5t37 47.5t55 26t67.5 8h216zM415 229v219h-160q-63 0 -94.5 -25t-31.5 -88q0 -29 6 -48.5t17 -33.5t24 -19t29 -5h210z" />
    <glyph glyph-name="afii10100" unicode="&#x453;" horiz-adv-x="425" 
d="M77 488h322v-40h-271v-448h-51v488zM163 537l-16 22l186 137q8 5 13 -2l27 -40z" />
    <glyph glyph-name="afii10098" unicode="&#x491;" horiz-adv-x="425" 
d="M77 488h275l9 121h27q11 0 11 -10v-151h-271v-448h-51v488z" />
    <glyph glyph-name="afii10099" unicode="&#x452;" horiz-adv-x="552" 
d="M128 625h201v-39h-201v-138l24 11q35 16 73 26.5t77 10.5q42 0 77.5 -13.5t61.5 -39.5q20 -21 31 -51t11 -75v-386q0 -40 -8 -66.5t-25 -43.5q-33 -34 -98 -34q-14 0 -31.5 1.5t-31.5 3.5v26l41 4q30 3 49 8.5t31 16.5q13 13 17.5 33t4.5 62v365q0 36 -6 62.5t-23 43.5
q-18 19 -47 27.5t-65 8.5q-31 0 -65 -6t-71 -20l-16 -6q-8 -3 -9.5 -5.5t-1.5 -8.5v-403h-51v586h-72v25l72 12v86h51v-84z" />
    <glyph glyph-name="afii10101" unicode="&#x454;" horiz-adv-x="520" 
d="M282 496q52 0 104 -17.5t95 -55.5l-17 -25l-63 28q-27 12 -54.5 18.5t-58.5 6.5q-86 0 -134 -48t-56 -133h243v-40h-244q2 -42 14 -77.5t35 -61t57 -40t80 -14.5q63 0 125 29l61 28l17 -25q-40 -36 -92 -56.5t-110 -20.5q-56 0 -100.5 19.5t-75.5 53.5t-47.5 80t-16.5 99
q0 51 15.5 96.5t45.5 80t74.5 55t102.5 20.5z" />
    <glyph glyph-name="afii10102" unicode="&#x455;" horiz-adv-x="456" 
d="M329 444q-29 5 -54 7.5t-45 2.5q-25 0 -49 -4t-42.5 -13.5t-29.5 -24.5t-11 -37q0 -34 25.5 -51.5t79.5 -33.5l72 -21q70 -20 102 -50t32 -82q0 -33 -13 -60t-36.5 -46t-56 -29t-71.5 -10q-25 0 -51 4.5t-51.5 11.5t-48.5 16t-42 19l13 27l39 -11q44 -12 76 -18.5
t67 -6.5q62 0 95.5 28.5t33.5 73.5q0 36 -23.5 55t-82.5 36l-78 23q-60 17 -93.5 46t-33.5 78q0 29 13.5 51.5t37.5 38.5t56.5 24t69.5 8q38 0 79.5 -8.5t81.5 -24.5l-9 -28z" />
    <glyph glyph-name="uni0450" unicode="&#x450;" horiz-adv-x="538" 
d="M280 -8q-54 0 -97.5 19.5t-74.5 53.5t-47.5 80t-16.5 99t16.5 99t46.5 80t72 53.5t93 19.5q48 0 88 -18t69 -49.5t45.5 -73.5t16.5 -91q0 -18 -3.5 -23.5t-11.5 -5.5h-380q2 -42 14 -78t35 -62.5t57.5 -42t81.5 -15.5q32 0 66.5 9t66.5 24l51 24l17 -25
q-51 -37 -103.5 -57t-101.5 -20zM442 274q-5 87 -51.5 132.5t-118.5 45.5q-73 0 -120.5 -46.5t-54.5 -131.5h345zM156 654l27 40q5 8 13 2l186 -137l-16 -22z" />
    <glyph glyph-name="afii10071" unicode="&#x451;" horiz-adv-x="538" 
d="M280 -8q-54 0 -97.5 19.5t-74.5 53.5t-47.5 80t-16.5 99t16.5 99t46.5 80t72 53.5t93 19.5q48 0 88 -18t69 -49.5t45.5 -73.5t16.5 -91q0 -18 -3.5 -23.5t-11.5 -5.5h-380q2 -42 14 -78t35 -62.5t57.5 -42t81.5 -15.5q32 0 66.5 9t66.5 24l51 24l17 -25
q-51 -37 -103.5 -57t-101.5 -20zM442 274q-5 87 -51.5 132.5t-118.5 45.5q-73 0 -120.5 -46.5t-54.5 -131.5h345zM150 646h57q9 0 11.5 -2t2.5 -9v-63h-71v74zM317 646h57q9 0 11.5 -2t2.5 -9v-63h-71v74z" />
    <glyph glyph-name="afii10103" unicode="&#x456;" horiz-adv-x="211" 
d="M80 488h51v-488h-51v488zM76 657h47q12 0 12 -11v-52h-59v63z" />
    <glyph glyph-name="afii10104" unicode="&#x457;" horiz-adv-x="211" 
d="M-13 646h57q9 0 11.5 -2t2.5 -9v-63h-71v74zM154 646h57q9 0 11.5 -2t2.5 -9v-63h-71v74zM80 488h51v-488h-51v488z" />
    <glyph glyph-name="afii10105" unicode="&#x458;" horiz-adv-x="211" 
d="M131 -89q0 -40 -8 -66.5t-25 -43.5q-33 -34 -97 -34q-14 0 -32 1.5t-32 3.5v26l41 4q29 3 49 8.5t31 16.5q13 13 17.5 33t4.5 62v566h51v-577zM76 657h47q12 0 12 -11v-52h-59v63z" />
    <glyph glyph-name="uni045D" unicode="&#x45d;" horiz-adv-x="584" 
d="M452 482q5 6 15 6h40v-488h-51v335q0 25 0.5 45.5t1.5 41.5q-7 -10 -13 -18t-12 -16.5t-12.5 -17t-15.5 -19.5l-274 -345q-5 -6 -15 -6h-39v488h51v-334q0 -25 -0.5 -45.5t-1.5 -41.5q13 19 24.5 34t28.5 37zM179 654l27 40q5 8 13 2l186 -137l-16 -22z" />
    <glyph glyph-name="afii10109" unicode="&#x45c;" horiz-adv-x="536" 
d="M230 278q37 0 58 10.5t44 40.5l129 167l35 -27l-126 -165q-11 -14 -20 -23.5t-23 -18.5l177 -262h-47q-8 0 -10.5 1.5t-6.5 6.5l-155 235q-23 -5 -50 -5h-107v-238h-51v488h51v-210h102zM175 537l-16 22l186 137q8 5 13 -2l27 -40z" />
    <glyph glyph-name="afii10106" unicode="&#x459;" horiz-adv-x="862" 
d="M662 286q74 0 117 -32t43 -106q0 -75 -42.5 -111.5t-117.5 -36.5h-229v442h-215l-90 -395q-7 -29 -23 -39.5t-40 -10.5q-17 0 -30.5 4t-24.5 10v21l54 7q8 1 10.5 3.5t4.5 9.5l97 427q3 9 11 9h297v-202h178zM771 148q0 54 -28.5 76t-94.5 22h-164v-206h164q66 0 94.5 27
t28.5 81z" />
    <glyph glyph-name="afii10107" unicode="&#x45a;" horiz-adv-x="848" 
d="M648 279q74 0 117 -30t43 -104q0 -75 -42.5 -110t-117.5 -35h-209v239h-311v-239h-51v488h51v-209h311v209h51v-209h158zM757 145q0 53 -28.5 73.5t-94.5 20.5h-144v-199h144q66 0 94.5 25.5t28.5 79.5z" />
    <glyph glyph-name="afii10108" unicode="&#x45b;" horiz-adv-x="552" 
d="M128 625h201v-39h-201v-138l24 11q39 17 75.5 27t70.5 10q45 0 82.5 -14t60.5 -38q20 -22 31 -52.5t11 -74.5v-317h-51v307q0 42 -7 65.5t-22 40.5q-18 19 -47 27.5t-64 8.5q-32 0 -66 -6t-71 -20l-16 -6q-8 -3 -9.5 -5.5t-1.5 -8.5v-403h-51v586h-72v25l72 12v86h51v-84
z" />
    <glyph glyph-name="afii10110" unicode="&#x45e;" horiz-adv-x="511" 
d="M182 -231l-45 13l98 215l-228 491h44q8 0 12 -7l197 -432l190 432q3 7 12 7h42zM255 551q-51 0 -90.5 32t-52.5 94l29 4q14 -38 44 -60t70 -22q41 0 70.5 22t43.5 60l29 -4q-12 -62 -52 -94t-91 -32z" />
    <glyph glyph-name="afii10193" unicode="&#x45f;" horiz-adv-x="575" 
d="M264 0h-187v488h51v-442h319v442h51v-488h-182v-134q0 -10 -11 -10h-30z" />
    <glyph glyph-name="afii00208" unicode="&#x2015;" horiz-adv-x="1135" 
d="M70 224v41h995v-41h-995z" />
    <glyph glyph-name="uni0493" unicode="&#x493;" horiz-adv-x="451" 
d="M22 258h81v230h322v-40h-271v-190h139v-40h-139v-218h-51v218h-81v40z" />
    <glyph glyph-name="uni049B" unicode="&#x49b;" horiz-adv-x="537" 
d="M457 0q-8 0 -10.5 1.5t-6.5 6.5l-155 235q-23 -5 -50 -5h-107v-238h-51v488h51v-210h92q40 0 65.5 11.5t51.5 45.5l124 161l35 -27l-119 -156q-15 -20 -25.5 -30t-24.5 -21l146 -216h50v-145q0 -10 -11 -10h-30l-8 109h-17z" />
    <glyph glyph-name="uni04A3" unicode="&#x4a3;" horiz-adv-x="576" 
d="M446 0v235h-318v-235h-51v488h51v-213h318v213h51v-442h43v-145q0 -10 -11 -10h-30l-8 109h-45z" />
    <glyph glyph-name="uni04AF" unicode="&#x4af;" horiz-adv-x="531" 
d="M244 -229v229l-227 488h44q8 0 12 -7l154 -331q11 -25 21.5 -50t21.5 -54q8 23 19.5 52.5t22.5 52.5l148 330q3 7 12 7h42l-219 -488v-229h-51z" />
    <glyph glyph-name="uni04B1" unicode="&#x4b1;" horiz-adv-x="531" 
d="M119 -49h125v69l-227 468h44q8 0 12 -7l154 -320q14 -28 23 -49.5t20 -50.5q5 15 10 27t9.5 24t10 24t12.5 26l148 319q3 7 12 7h42l-219 -468v-69h129v-40h-129v-140h-51v140h-125v40z" />
    <glyph glyph-name="uni04BB" unicode="&#x4bb;" horiz-adv-x="552" 
d="M128 448l24 11q39 17 75.5 27t70.5 10q45 0 82.5 -14t60.5 -38q20 -22 31 -52.5t11 -74.5v-317h-51v307q0 42 -7 65.5t-22 40.5q-18 19 -47 27.5t-64 8.5q-32 0 -66 -6t-71 -20l-16 -6q-8 -3 -9.5 -5.5t-1.5 -8.5v-403h-51v709h51v-261z" />
    <glyph glyph-name="afii10846" unicode="&#x4d9;" horiz-adv-x="538" 
d="M257.984 495.97q53.9961 0 97.4941 -19.499q43.4971 -19.499 74.4951 -53.4961q30.998 -33.998 47.4971 -79.9951q16.499 -45.998 16.499 -98.9941q0 -52.9971 -16.499 -98.9941t-46.4971 -79.9951t-71.9951 -53.4971q-41.998 -19.499 -92.9951 -19.499
q-47.9971 0 -87.9941 17.999q-39.998 17.999 -68.9961 49.4971t-45.4971 73.4961q-16.499 41.9971 -16.499 90.9941q0 17.999 3.5 23.499q3.5 5.49902 11.499 5.49902h379.977q-2 41.998 -13.999 77.9951q-11.999 35.998 -34.998 62.4961q-22.998 26.499 -57.4961 41.998
t-81.4951 15.499q-31.998 0 -66.4961 -9q-34.498 -8.99902 -66.4961 -23.998l-50.9961 -23.999l-16.999 24.999q50.9971 36.998 103.493 56.9961q52.4971 19.999 101.494 19.999zM95.9941 213.987q5 -86.9951 51.4971 -132.492t118.492 -45.4971q72.9961 0 120.493 46.4971
t54.4961 131.492h-344.979z" />
    <glyph glyph-name="uni04E9" unicode="&#x4e9;" horiz-adv-x="552" 
d="M508 244q0 -52 -17 -97.5t-47.5 -80t-73 -54.5t-94.5 -20t-94.5 20t-73 54.5t-47.5 80t-17 97.5t17 97.5t47.5 80t73 54.5t94.5 20t94.5 -20t73 -54.5t47.5 -80t17 -97.5zM276 38q80 0 126.5 50.5t51.5 137.5h-357q5 -87 51.5 -137.5t127.5 -50.5zM276 450
q-80 0 -126.5 -49.5t-52.5 -134.5h357q-5 85 -52 134.5t-126 49.5z" />
    <glyph glyph-name="Alpha" unicode="&#x391;" horiz-adv-x="658" 
d="M593 0q-10 0 -14 8l-71 167h-360l-69 -167q-2 -5 -4.5 -6.5t-8.5 -1.5h-45l277 663h44q7 0 9.5 -2t4.5 -7l282 -654h-45zM489 218l-98 232q-19 45 -37.5 90t-28.5 73q-10 -28 -27 -72t-36 -89l-96 -234h323z" />
    <glyph glyph-name="Beta" unicode="&#x392;" horiz-adv-x="601" 
d="M84 663h220q51 0 93 -9.5t69 -37.5q17 -17 26 -41.5t9 -57.5q0 -45 -19 -89.5t-53 -76.5q52 -17 87 -55.5t35 -106.5q0 -45 -13.5 -78t-38.5 -56q-29 -28 -73 -41.5t-101 -13.5h-241v663zM137 44h181q48 0 83.5 9.5t59.5 32.5q17 17 27 42.5t10 61.5q0 32 -8.5 54.5
t-24.5 38.5q-21 21 -55.5 30.5t-88.5 9.5h-184v-279zM137 365h225q18 0 28 3.5t20 15.5q18 23 29.5 55t11.5 68q0 32 -8 52.5t-23 33.5q-19 16 -48.5 21t-71.5 5h-163v-254z" />
    <glyph glyph-name="Gamma" unicode="&#x393;" horiz-adv-x="505" 
d="M475 663v-43h-338v-620h-53v663h391z" />
    <glyph glyph-name="Delta" unicode="&#x394;" horiz-adv-x="663" 
d="M615 62q5 -11 5.5 -15t0.5 -16v-31h-576v32q0 11 0.5 15t5.5 15l251 601h44q7 0 9.5 -2t4.5 -7zM100 45h467l-238 563z" />
    <glyph glyph-name="Epsilon" unicode="&#x395;" horiz-adv-x="536" 
d="M480 663v-43h-343v-252h310v-43h-310v-282h355v-43h-408v663h396z" />
    <glyph glyph-name="Zeta" unicode="&#x396;" horiz-adv-x="546" 
d="M500 638q0 -8 -6 -18l-387 -577h401v-43h-464v23q0 6 1 9.5t5 9.5l387 578h-392v43h455v-25z" />
    <glyph glyph-name="Eta" unicode="&#x397;" horiz-adv-x="688" 
d="M551 324h-414v-324h-53v663h53v-294h414v294h53v-663h-53v324z" />
    <glyph glyph-name="Theta" unicode="&#x398;" horiz-adv-x="724" 
d="M42 331q0 68 23 130t65 109t101 75t131 28t131 -28t101 -75t65 -109t23 -130t-23 -130t-65 -109t-101 -74.5t-131 -27.5t-131 27.5t-101 74.5t-65 109t-23 130zM628 331q0 65 -19.5 118.5t-54.5 92t-84 60t-108 21.5t-108 -21.5t-84 -60t-54.5 -92t-19.5 -118.5
t19.5 -118.5t54.5 -92t84 -59.5t108 -21t108 21t84 59.5t54.5 92t19.5 118.5zM254 353h214v-43h-214v43z" />
    <glyph glyph-name="Iota" unicode="&#x399;" horiz-adv-x="231" 
d="M142 0h-53v663h53v-663z" />
    <glyph glyph-name="Kappa" unicode="&#x39a;" horiz-adv-x="610" 
d="M316 402l282 -402h-46q-13 0 -19 9l-252 361q-38 -35 -78 -69t-66 -54v-247h-53v663h53v-366l405 372l31 -32z" />
    <glyph glyph-name="Lambda" unicode="&#x39b;" horiz-adv-x="644" 
d="M576 0q-6 0 -9 1.5t-5 6.5l-184 446q-18 44 -35 87.5t-27 71.5q-10 -28 -26.5 -71.5t-33.5 -85.5l-174 -448q-2 -5 -4.5 -6.5t-9.5 -1.5h-47l268 663h44q7 0 9.5 -2t4.5 -7l277 -654h-48z" />
    <glyph glyph-name="Mu" unicode="&#x39c;" horiz-adv-x="823" 
d="M434 225h-31q-10 0 -17 8l-186 253q-17 23 -36 49.5t-30 44.5q1 -25 1 -57v-56v-467h-51v663h35q7 0 9.5 -1t7.5 -7l278 -380l278 380q4 5 7 6.5t9 1.5h31v-663h-50v463v56t1 57q-11 -16 -30.5 -43.5t-36.5 -50.5z" />
    <glyph glyph-name="Nu" unicode="&#x39d;" horiz-adv-x="728" 
d="M529 166q16 -20 35 -44t33 -45q-2 27 -2.5 57t-0.5 50v479h50v-663h-31q-7 0 -9.5 1.5t-7.5 6.5l-396 487q-17 20 -35.5 44t-32.5 45q2 -27 2.5 -57t0.5 -50v-477h-51v663h29q8 0 11 -1.5t8 -7.5z" />
    <glyph glyph-name="Xi" unicode="&#x39e;" horiz-adv-x="516" 
d="M56 663h404v-43h-404v43zM89 368h338v-43h-338v43zM44 43h428v-43h-428v43z" />
    <glyph glyph-name="Omicron" unicode="&#x39f;" horiz-adv-x="724" 
d="M42 331q0 68 23 130t65 109t101 75t131 28t131 -28t101 -75t65 -109t23 -130t-23 -130t-65 -109t-101 -74.5t-131 -27.5t-131 27.5t-101 74.5t-65 109t-23 130zM628 331q0 65 -19.5 118.5t-54.5 92t-84 60t-108 21.5t-108 -21.5t-84 -60t-54.5 -92t-19.5 -118.5
t19.5 -118.5t54.5 -92t84 -59.5t108 -21t108 21t84 59.5t54.5 92t19.5 118.5z" />
    <glyph glyph-name="Pi" unicode="&#x3a0;" horiz-adv-x="680" 
d="M543 620h-406v-620h-53v663h512v-663h-53v620z" />
    <glyph glyph-name="Rho" unicode="&#x3a1;" horiz-adv-x="593" 
d="M137 0h-53v663h233q65 0 108 -14t71 -41q26 -26 38 -62t12 -81q0 -54 -17.5 -103.5t-50.5 -80.5q-23 -22 -46.5 -29.5t-65.5 -7.5h-229v-244zM137 286h234q30 0 48.5 7t32.5 25q22 29 31.5 66.5t9.5 78.5q0 38 -8.5 66.5t-26.5 47.5q-22 23 -57 33t-92 10h-172v-334z" />
    <glyph glyph-name="Sigma" unicode="&#x3a3;" horiz-adv-x="559" 
d="M44 663h455v-43h-387l266 -261q12 -12 14 -15t2 -10v-18l-271 -273h392v-43h-464v21q0 7 1 10.5t9 11.5l285 287l-294 289q-6 5 -7 9t-1 10v25z" />
    <glyph glyph-name="Tau" unicode="&#x3a4;" horiz-adv-x="559" 
d="M253 620h-228v43h509v-43h-228v-620h-53v620z" />
    <glyph glyph-name="Upsilon" unicode="&#x3a5;" horiz-adv-x="580" 
d="M316 223v-223h-53v223l-256 440h46q10 0 15 -8l222 -387l223 386q3 5 6 7t11 2h44z" />
    <glyph glyph-name="Phi" unicode="&#x3a6;" horiz-adv-x="724" 
d="M387 -39h-48v75q-67 3 -122 25t-94 60t-60 91.5t-21 118.5t21 118t60 91.5t94 60.5t122 25v73h48v-73q67 -3 121.5 -25t93 -60.5t59.5 -91.5t21 -118t-21 -118.5t-59.5 -91.5t-93 -60t-121.5 -25v-75zM96 331q0 -62 17.5 -107t50 -75t77 -46t98.5 -19v493
q-54 -2 -98.5 -17.5t-76.5 -46t-50 -76t-18 -106.5zM628 331q0 61 -18 106.5t-50 76t-76 46t-97 17.5v-493q54 3 98 19t76 46.5t49.5 75.5t17.5 106z" />
    <glyph glyph-name="Chi" unicode="&#x3a7;" horiz-adv-x="628" 
d="M561 0q-6 0 -9 1.5t-6 5.5l-235 307l-228 -306q-4 -5 -6.5 -6.5t-8.5 -1.5h-51l264 351l-240 312h50q6 0 8.5 -1.5t6.5 -6.5l207 -269l201 269q4 5 6.5 6.5t10.5 1.5h47l-235 -313l268 -350h-50z" />
    <glyph glyph-name="Psi" unicode="&#x3a8;" horiz-adv-x="685" 
d="M368 663v-430q51 0 95.5 12.5t76.5 45.5q26 27 37 64t11 94v214h53v-223q0 -58 -14.5 -101t-43.5 -75q-36 -41 -89.5 -59.5t-125.5 -18.5v-186h-51v186q-72 0 -125.5 18.5t-89.5 59.5q-29 32 -43.5 75t-14.5 101v223h53v-214q0 -57 11 -94t37 -64q32 -33 76.5 -45.5
t95.5 -12.5v430h51z" />
    <glyph glyph-name="Omega" unicode="&#x3a9;" horiz-adv-x="704" 
d="M352 623q-51 0 -98 -18t-83 -51.5t-57.5 -82.5t-21.5 -111q0 -35 9.5 -65.5t25.5 -58.5t37.5 -55.5t45.5 -55.5l66 -77q5 -6 6 -9.5t1 -12.5v-26h-230v43h180q-56 53 -92.5 95t-58.5 79.5t-31 74t-9 78.5q0 70 26.5 126t70 95.5t99 60.5t114.5 21t114.5 -21t99 -60.5
t70 -95.5t26.5 -126q0 -42 -9 -78t-30.5 -73.5t-58.5 -79.5t-93 -96h180v-43h-230v26q0 9 1 12.5t6 9.5l66 77q24 28 45.5 55t37.5 55.5t25.5 59t9.5 65.5q0 62 -21.5 111t-57.5 82.5t-83 51.5t-98 18z" />
    <glyph glyph-name="Alphatonos" unicode="&#x386;" horiz-adv-x="658" 
d="M593 0q-10 0 -14 8l-71 167h-360l-69 -167q-2 -5 -4.5 -6.5t-8.5 -1.5h-45l277 663h44q7 0 9.5 -2t4.5 -7l282 -654h-45zM489 218l-98 232q-19 45 -37.5 90t-28.5 73q-10 -28 -27 -72t-36 -89l-96 -234h323zM105 444l-29 9l48 215q2 7 3.5 8t9.5 -1l46 -15z" />
    <glyph glyph-name="Epsilontonos" unicode="&#x388;" horiz-adv-x="623" 
d="M567 663v-43h-343v-252h310v-43h-310v-282h355v-43h-408v663h396zM29 444l-29 9l48 215q2 7 3.5 8t9.5 -1l46 -15z" />
    <glyph glyph-name="Etatonos" unicode="&#x389;" horiz-adv-x="775" 
d="M638 324h-414v-324h-53v663h53v-294h414v294h53v-663h-53v324zM29 444l-29 9l48 215q2 7 3.5 8t9.5 -1l46 -15z" />
    <glyph glyph-name="Iotatonos" unicode="&#x38a;" horiz-adv-x="313" 
d="M224 0h-53v663h53v-663zM29 444l-29 9l48 215q2 7 3.5 8t9.5 -1l46 -15z" />
    <glyph glyph-name="Iotadieresis" unicode="&#x3aa;" horiz-adv-x="231" 
d="M142 0h-53v663h53v-663zM-2 826h57q9 0 11.5 -2t2.5 -9v-63h-71v74zM165 826h57q9 0 11.5 -2t2.5 -9v-63h-71v74z" />
    <glyph glyph-name="Omicrontonos" unicode="&#x38c;" horiz-adv-x="783" 
d="M101 331q0 68 23 130t65 109t101 75t131 28t131 -28t101 -75t65 -109t23 -130t-23 -130t-65 -109t-101 -74.5t-131 -27.5t-131 27.5t-101 74.5t-65 109t-23 130zM687 331q0 65 -19.5 118.5t-54.5 92t-84 60t-108 21.5t-108 -21.5t-84 -60t-54.5 -92t-19.5 -118.5
t19.5 -118.5t54.5 -92t84 -59.5t108 -21t108 21t84 59.5t54.5 92t19.5 118.5zM29 444l-29 9l48 215q2 7 3.5 8t9.5 -1l46 -15z" />
    <glyph glyph-name="Upsilontonos" unicode="&#x38e;" horiz-adv-x="687" 
d="M423 223v-223h-53v223l-256 440h46q10 0 15 -8l222 -387l223 386q3 5 6 7t11 2h44zM29 444l-29 9l48 215q2 7 3.5 8t9.5 -1l46 -15z" />
    <glyph glyph-name="Upsilondieresis" unicode="&#x3ab;" horiz-adv-x="580" 
d="M169 826h57q9 0 11.5 -2t2.5 -9v-63h-71v74zM336 826h57q9 0 11.5 -2t2.5 -9v-63h-71v74zM316 223v-223h-53v223l-256 440h46q10 0 15 -8l222 -387l223 386q3 5 6 7t11 2h44z" />
    <glyph glyph-name="Omegatonos" unicode="&#x38f;" horiz-adv-x="760" 
d="M408 623q-51 0 -98 -18t-83 -51.5t-57.5 -82.5t-21.5 -111q0 -35 9.5 -65.5t25.5 -58.5t37.5 -55.5t45.5 -55.5l66 -77q5 -6 6 -9.5t1 -12.5v-26h-230v43h180q-56 53 -92.5 95t-58.5 79.5t-31 74t-9 78.5q0 70 26.5 126t70 95.5t99 60.5t114.5 21t114.5 -21t99 -60.5
t70 -95.5t26.5 -126q0 -42 -9 -78t-30.5 -73.5t-58.5 -79.5t-93 -96h180v-43h-230v26q0 9 1 12.5t6 9.5l66 77q24 28 45.5 55t37.5 55.5t25.5 59t9.5 65.5q0 62 -21.5 111t-57.5 82.5t-83 51.5t-98 18zM29 444l-29 9l48 215q2 7 3.5 8t9.5 -1l46 -15z" />
    <glyph glyph-name="tonos.cap" horiz-adv-x="416" 
d="M190 444l-29 9l48 215q2 7 3.5 8t9.5 -1l46 -15z" />
    <glyph glyph-name="alpha" unicode="&#x3b1;" horiz-adv-x="626" 
d="M501 474q2 9 6 11.5t14 2.5h28l-70 -245l61 -200l68 -11v-21q-13 -5 -27 -9t-29 -4q-17 0 -27.5 2.5t-19.5 16t-18.5 41.5t-23.5 79l-7 25q-22 -81 -73 -125.5t-139 -44.5q-48 0 -85 22t-62.5 58t-39 81t-13.5 90q0 59 16 106t44 79.5t65.5 50t81.5 17.5q158 0 207 -185z
M421 297q-14 44 -31.5 73.5t-37.5 47t-42.5 25t-47.5 7.5q-44 0 -75 -17t-51 -45t-29.5 -65.5t-9.5 -77.5q0 -33 7.5 -69.5t25.5 -67t48 -50.5t75 -20q25 0 49.5 5.5t46.5 21t40.5 43t31.5 71.5q9 30 12 44.5t3 19.5q0 6 -4 19.5t-11 34.5z" />
    <glyph glyph-name="beta" unicode="&#x3b2;" horiz-adv-x="584" 
d="M309 -8q-36 0 -73.5 12t-76.5 35l-31 18v-286h-51v713q0 110 55 172.5t166 62.5h3q94 0 151 -47t57 -138q0 -31 -4.5 -54.5t-12.5 -42.5t-20.5 -34.5t-27.5 -29.5q11 -4 27.5 -14t31.5 -27t26 -43.5t11 -63.5q0 -52 -17.5 -95t-48.5 -73.5t-73.5 -47.5t-91.5 -17zM304 37
q36 0 69 10.5t58.5 33t40.5 58t15 86.5q0 37 -11.5 61.5t-32.5 39t-51.5 20.5t-68.5 6h-52v39h105q16 0 25.5 4.5t18.5 15.5q13 17 26.5 48t13.5 70q0 44 -14.5 72t-38 44.5t-51.5 22.5t-55 6h-3q-46 0 -78 -13.5t-52.5 -38.5t-30 -60.5t-9.5 -79.5v-373q0 -12 8 -17
q36 -23 81.5 -39t86.5 -16z" />
    <glyph glyph-name="uni03D0" unicode="&#x3d0;" horiz-adv-x="531" 
d="M279 400q40 16 67.5 31.5t44 32.5t23.5 37.5t7 47.5q0 124 -129 124q-51 0 -88 -26t-60.5 -72t-34.5 -110t-11 -139zM99 280q5 -113 49.5 -177.5t132.5 -64.5q33 0 63.5 11t54 33.5t37.5 57.5t14 84q0 39 -9.5 67.5t-23.5 47.5t-31 28.5t-32 9.5q-13 0 -26 -4t-29 -11z
M282 -8q-59 0 -103.5 23.5t-74.5 68t-45 108t-15 143.5v13q0 84 17 152.5t49.5 117t78.5 75t103 26.5q46 0 80 -14t56.5 -37.5t33.5 -53.5t11 -61q0 -54 -21 -87.5t-59 -56.5q16 -6 35.5 -18t36 -32.5t27.5 -50.5t11 -73q0 -63 -18.5 -109t-49.5 -75.5t-70.5 -44
t-82.5 -14.5z" />
    <glyph glyph-name="gamma" unicode="&#x3b3;" horiz-adv-x="511" 
d="M234 1l-227 487h44q8 0 12 -7l136 -298q17 -35 33 -73t28 -70q12 32 27.5 69t32.5 75l131 297q3 7 12 7h41l-219 -487v-230h-51v230z" />
    <glyph glyph-name="delta" unicode="&#x3b4;" horiz-adv-x="552" 
d="M508 224q0 -56 -19 -99.5t-51.5 -73t-74 -44.5t-86.5 -15h-3q-42 0 -83 14.5t-73.5 43.5t-53 72.5t-20.5 101.5q0 43 9.5 75t26 56t37 42t43.5 32l33 21q-32 21 -51.5 51t-19.5 72q0 65 46 104.5t123 39.5q42 0 79 -12t70 -35l-12 -27l-42 15q-22 8 -46 12.5t-44 4.5
q-14 0 -35.5 -3.5t-41 -14.5t-33.5 -31t-14 -53q0 -39 25 -63t62 -42.5t81 -36.5t81 -43.5t62 -64.5t25 -99zM455 224q0 37 -11 63.5t-34.5 48t-61.5 41t-92 42.5q-11 4 -17 6.5t-11 1.5t-11.5 -5t-18.5 -13q-48 -36 -74.5 -78t-26.5 -107q0 -41 12.5 -75.5t35 -59t55 -38
t73.5 -13.5h5q36 0 68.5 11t56.5 34t38 58t14 83z" />
    <glyph glyph-name="epsilon" unicode="&#x3b5;" horiz-adv-x="439" 
d="M240 450q-23 0 -47 -5t-44 -17.5t-33 -34.5t-13 -55v-2q0 -17 5.5 -34.5t10.5 -25.5q6 -10 13 -10h144v-39h-101q-38 0 -58 -18t-20 -62v-2q0 -54 30 -81t105 -27q32 0 66.5 9t66.5 24l51 24l16 -26q-51 -37 -103 -56.5t-101 -19.5t-84 12.5t-57 33t-32.5 46.5t-10.5 54
q0 62 48 106l-18 27q-13 20 -18.5 36.5t-5.5 42.5q0 31 13.5 58t37.5 46.5t58 30.5t76 11q21 0 45 -4t48 -11t46.5 -17t39.5 -22l-11 -26l-65 19q-15 5 -42 10t-53 5h-3z" />
    <glyph glyph-name="zeta" unicode="&#x3b6;" horiz-adv-x="442" 
d="M44 246q0 74 26.5 136.5t69 114.5t96.5 94.5t110 77.5h-270v40h341v-19q0 -12 -2.5 -16.5t-18.5 -15.5q-78 -56 -134.5 -104t-93 -96t-54 -98.5t-17.5 -111.5t25 -95.5t62.5 -53.5t81.5 -27t81.5 -15t62.5 -19t25 -39q0 -20 -11 -55t-36 -89l-37 -80l-37 14l33 84
q18 46 26.5 72t8.5 40q0 17 -25 24.5t-62.5 13.5t-81.5 15.5t-81.5 33t-62.5 64.5t-25 110z" />
    <glyph glyph-name="eta" unicode="&#x3b7;" horiz-adv-x="552" 
d="M112 488l13 -41l27 12q39 17 75.5 27t70.5 10q45 0 82.5 -14t60.5 -38q20 -22 31 -52.5t11 -74.5v-546h-51v536q0 42 -7 65.5t-22 40.5q-18 19 -47 27.5t-64 8.5q-32 0 -66 -6t-71 -20l-16 -6q-8 -3 -9.5 -5.5t-1.5 -8.5v-403h-51v488h35z" />
    <glyph glyph-name="theta" unicode="&#x3b8;" horiz-adv-x="552" 
d="M276 -8q-116 0 -174 85.5t-58 264.5q0 89 14.5 159t43.5 118.5t72.5 74t101.5 25.5t101.5 -25.5t72.5 -74t43.5 -118.5t14.5 -159q0 -179 -58 -264.5t-174 -85.5zM276 38q45 0 78.5 16t56 51.5t33.5 92.5t11 139h-358q0 -82 11 -139t33.5 -92.5t56 -51.5t78.5 -16z
M276 673q-88 0 -131 -73t-48 -223h358q-9 296 -179 296z" />
    <glyph glyph-name="theta1" unicode="&#x3d1;" horiz-adv-x="576" 
d="M188 522q0 -31 14 -57.5t47.5 -47t89.5 -33t140 -14.5q-1 100 -15 160t-36 92t-50 41.5t-56 9.5q-17 0 -40 -4.5t-44 -20t-35.5 -45.5t-14.5 -81zM329 -8q-35 0 -59.5 10.5t-43.5 29.5t-34.5 45.5t-33.5 59.5l-83 154l-59 8v21q10 5 22.5 9t29.5 4t27.5 -3.5t18.5 -13
t16 -26t21 -42.5l46 -88q16 -32 30 -55t28 -38t30.5 -22t39.5 -7q26 0 53 11.5t49 44t36.5 89t15.5 146.5q-85 3 -149 13t-107.5 33t-65.5 60.5t-22 94.5q0 37 11.5 71.5t34.5 60.5t58 41.5t83 15.5q52 0 91.5 -19t65.5 -64t39.5 -119t13.5 -184q0 -95 -15 -160t-42 -105
t-64.5 -58t-81.5 -18z" />
    <glyph glyph-name="iota" unicode="&#x3b9;" horiz-adv-x="231" 
d="M223 11q-14 -5 -33.5 -9t-34.5 -4q-38 0 -56 18t-18 58v414h51v-443l91 -13v-21z" />
    <glyph glyph-name="kappa" unicode="&#x3ba;" horiz-adv-x="528" 
d="M344 423q22 23 36 37.5t25.5 22.5t22 10.5t24.5 2.5q11 0 25.5 -3t26.5 -10v-21l-73 -9l-150 -159l229 -294h-47q-8 0 -10 1t-7 7l-197 252l-57.5 -57.5t-63.5 -54.5v-148h-51v488h51v-293z" />
    <glyph glyph-name="lambda" unicode="&#x3bb;" horiz-adv-x="584" 
d="M369 209q-15 34 -32 71t-32 70t-26 58t-15 34q-6 -14 -19 -45t-28.5 -67t-30.5 -70.5t-24 -53.5l-86 -192q-4 -9 -7.5 -11.5t-12.5 -2.5h-39l222 491l-59 131q-6 12 -10.5 22t-10.5 17.5t-15 11.5t-23 4q-23 0 -48 -5l-24 -5l-12 27q16 11 40 18t50 7q22 0 36.5 -5
t25.5 -17t21.5 -32t23.5 -49l261 -573l81 -11v-21q-12 -7 -32.5 -10t-31.5 -3q-18 0 -30 5t-22.5 17t-20.5 32.5t-24 52.5z" />
    <glyph glyph-name="mu" unicode="&#x3bc;" horiz-adv-x="580" 
d="M406 29q-39 -17 -75 -27t-70 -10q-42 0 -76 11.5t-57 31.5v-264h-51v717h51v-307q0 -42 7 -65.5t22 -40.5q18 -19 46.5 -27.5t63.5 -8.5q65 0 136 26l16 6q8 3 9.5 5.5t1.5 8.5v403h51v-445l81 -11v-21q-13 -5 -29.5 -9t-31.5 -4q-55 0 -66 44z" />
    <glyph glyph-name="nu" unicode="&#x3bd;" horiz-adv-x="532" 
d="M445 496q14 -17 28.5 -56.5t14.5 -96.5q0 -42 -10 -86t-33.5 -87.5t-63.5 -86.5t-100 -83h-37q-10 0 -13 7l-224 481h44q8 0 12 -7l136 -298q19 -42 35.5 -79t28.5 -66q31 18 61.5 47t55 68t40 86.5t15.5 103.5q0 31 -5 55t-11.5 41.5t-13 29t-9.5 16.5l49 11v0z" />
    <glyph glyph-name="xi" unicode="&#x3be;" horiz-adv-x="424" 
d="M101 439q0 33 19 62.5t48 55.5t64.5 48.5t68.5 42.5l35 21h-214v40h289v-19q0 -12 -2.5 -17t-18.5 -15q-63 -38 -107.5 -68.5t-73 -57.5t-42 -53.5t-13.5 -56.5v-2q0 -8 2 -19.5t5 -19.5t5.5 -9t9.5 -1h139v-39h-115q-23 0 -42 -6.5t-32.5 -21.5t-21 -40t-7.5 -61v-2
q0 -48 23.5 -74.5t59.5 -40.5t77 -20t77 -12t59.5 -18t23.5 -37q0 -20 -11 -55t-36 -89l-37 -80l-37 14l33 84q18 46 26.5 72t8.5 40q0 16 -23.5 22.5t-59.5 11.5t-77 12t-77 24.5t-59.5 48.5t-23.5 85q0 37 8 65t20 48t26.5 32.5t28.5 19.5l-10 19q-9 17 -12.5 31t-3.5 35z
" />
    <glyph glyph-name="xi.salt" horiz-adv-x="405" 
d="M95 226q0 -54 23.5 -85t59.5 -47.5t77 -23.5t77 -14t59.5 -19t23.5 -38q0 -20 -11 -55t-36 -89l-37 -80l-37 14l33 84q18 46 26.5 72t8.5 40q0 17 -23.5 24t-59.5 13t-77 14.5t-77 28t-59.5 55t-23.5 94.5q0 37 8.5 64.5t21.5 47t27 31t26 17.5l-17 28q-19 31 -29.5 60.5
t-10.5 70.5q0 48 15.5 83.5t41.5 58t59.5 33.5t68.5 11q44 0 86 -15t74 -37l-12 -28l-60 20q-42 14 -82 14h-3q-23 0 -46.5 -6t-43.5 -23t-32.5 -46.5t-12.5 -76.5v-2q0 -50 33 -114q5 -11 7.5 -12.5t9.5 -1.5h142v-39h-119q-19 0 -37 -6t-31.5 -20.5t-22 -38t-8.5 -59.5v-2
z" />
    <glyph glyph-name="omicron" unicode="&#x3bf;" horiz-adv-x="552" 
d="M508 244q0 -52 -17 -97.5t-47.5 -80t-73 -54.5t-94.5 -20t-94.5 20t-73 54.5t-47.5 80t-17 97.5t17 97.5t47.5 80t73 54.5t94.5 20t94.5 -20t73 -54.5t47.5 -80t17 -97.5zM455 244q0 94 -47 150t-132 56t-132 -56t-47 -150t47 -150t132 -56t132 56t47 150z" />
    <glyph glyph-name="pi" unicode="&#x3c0;" horiz-adv-x="579" 
d="M421 448h-268v-448h-51v448h-86v40h542v-40h-86v-403l91 -13v-21q-14 -5 -33.5 -9t-34.5 -4q-38 0 -56 18t-18 58v374z" />
    <glyph glyph-name="rho" unicode="&#x3c1;" horiz-adv-x="564" 
d="M128 57v-286h-51v489q0 41 9.5 83t34 76t67.5 55.5t109 21.5q49 0 90.5 -17t70.5 -49t45.5 -79t16.5 -107q0 -52 -14.5 -98t-42 -80t-66.5 -54t-88 -20q-36 0 -73.5 12t-76.5 35zM128 109q0 -12 8 -17q36 -23 81.5 -39t86.5 -16q75 0 119 52t44 155q0 57 -13.5 96.5
t-36.5 64t-54 35.5t-66 11q-52 0 -85 -16.5t-51.5 -44.5t-25.5 -63.5t-7 -74.5v-143z" />
    <glyph glyph-name="sigma" unicode="&#x3c3;" horiz-adv-x="562" 
d="M477 448q-20 0 -43 0.5t-38 4.5q53 -29 82.5 -87t29.5 -126q0 -52 -17 -97t-47.5 -78.5t-73 -53t-94.5 -19.5t-94.5 19.5t-73 53t-47.5 78.5t-17 97q0 60 19 106t51 77.5t75.5 48t93.5 16.5h285v-40h-91zM455 240q0 94 -47 148t-132 54t-132 -54t-47 -148t47 -148
t132 -54t132 54t47 148z" />
    <glyph glyph-name="sigma1" unicode="&#x3c2;" horiz-adv-x="451" 
d="M314 -211l33 84q18 46 26.5 72t8.5 40q0 17 -25 24.5t-62.5 13.5t-81.5 15.5t-81.5 33t-62.5 64.5t-25 110q0 54 14 100t41.5 79.5t67.5 52t91 18.5q38 0 66 -11t48 -27t33 -34t20 -32l-30 -18l-29 28q-23 23 -49.5 36t-64.5 13q-77 0 -116 -55t-39 -148q0 -61 25 -95.5
t62.5 -53.5t81.5 -27t81.5 -15t62.5 -19t25 -39q0 -20 -11 -55t-36 -89l-37 -80z" />
    <glyph glyph-name="tau" unicode="&#x3c4;" horiz-adv-x="464" 
d="M191 448h-175v40h432v-40h-206v-314q0 -16 1 -33.5t7.5 -32.5t20.5 -24.5t40 -9.5q16 0 34.5 3.5t44.5 11.5l31 9l12 -25q-22 -16 -59 -28.5t-72 -12.5t-57 11.5t-34 31t-16 44.5t-4 52v317z" />
    <glyph glyph-name="upsilon" unicode="&#x3c5;" horiz-adv-x="566" 
d="M158 216q0 -33 6 -65t23 -57t46.5 -40.5t77.5 -15.5q45 0 75.5 18t48.5 48t26 68.5t8 80.5q0 29 -3.5 61t-9 63.5t-12 60t-12.5 50.5h53q10 -33 18 -71q7 -32 13 -75t6 -89q0 -55 -12.5 -102.5t-39 -83t-66 -55.5t-93.5 -20q-65 0 -105 22.5t-62 55.5t-29.5 70t-7.5 66
v243l-91 13v21q14 5 33.5 9t34.5 4q38 0 56 -18t18 -58v-204z" />
    <glyph glyph-name="phi" unicode="&#x3c6;" horiz-adv-x="843" 
d="M447 460l20 10q14 8 43.5 17t64.5 9q49 0 90.5 -19.5t71 -54t46 -80.5t16.5 -98t-14.5 -98t-42 -80t-67 -54t-88.5 -20q-38 0 -72 11t-57 23l-11 6v-261h-51v261l-11 -6q-23 -12 -57 -23t-72 -11q-50 0 -89 20t-66.5 54t-42 80t-14.5 98t16.5 98t46 80.5t70.5 54t91 19.5
q35 0 64.5 -9t43.5 -17l20 -10v249h51v-249zM396 406q0 8 -1.5 10.5t-6.5 5.5q-27 14 -57 21.5t-58 7.5q-86 0 -131 -55.5t-45 -151.5q0 -103 45.5 -155t117.5 -52q31 0 64.5 8t62.5 22q7 3 8 5.5t1 11.5v322zM447 84q0 -9 1 -11.5t8 -5.5q29 -14 62.5 -22t64.5 -8
q72 0 117.5 52t45.5 155q0 96 -45 151.5t-131 55.5q-28 0 -58 -7.5t-57 -21.5q-5 -3 -6.5 -5.5t-1.5 -10.5v-322z" />
    <glyph glyph-name="phi1" unicode="&#x3d5;" horiz-adv-x="863" 
d="M371 29q-33 -17 -64.5 -27t-65.5 -10q-54 0 -91.5 20t-61 55.5t-34 83t-10.5 102.5q0 69 12 131t25 104h53q-6 -22 -12.5 -50.5t-12 -60t-9 -63.5t-3.5 -61q0 -42 5.5 -80.5t21.5 -68.5t44 -48t73 -18h3q32 0 66.5 9t84.5 35q8 5 9.5 7t1.5 10v151q0 41 7 84.5t29 79.5
t62.5 59t106.5 23q100 0 154 -65.5t54 -186.5q0 -52 -12 -98t-36.5 -80t-61.5 -54t-86 -20q-36 0 -71.5 10.5t-63.5 26.5l-31 18v-276h-51v276zM457 99q0 -8 1 -10.5t7 -6.5q38 -23 75 -34t78 -11q75 0 111.5 52t36.5 155q0 57 -11 96.5t-31.5 64t-49 35.5t-63.5 11
q-52 0 -82.5 -18t-46.5 -47.5t-20.5 -67t-4.5 -76.5v-143z" />
    <glyph glyph-name="chi" unicode="&#x3c7;" horiz-adv-x="540" 
d="M273 108l-150 -331q-2 -5 -5 -5.5t-10 -0.5h-42l173 368l-139 311l-84 12v21q12 7 27.5 10t26.5 3q19 0 32.5 -2.5t24 -10.5t19.5 -22.5t19 -37.5l111 -254l130 312q2 4 4.5 5.5t11.5 1.5h41l-153 -350l156 -332l68 -9v-21q-8 -4 -25.5 -8.5t-32.5 -4.5t-25 4t-20 17.5
t-23 40.5t-35 73z" />
    <glyph glyph-name="psi" unicode="&#x3c8;" horiz-adv-x="721" 
d="M412 -229h-51v225q-61 0 -103.5 11t-70.5 29t-44 40.5t-24 46t-10 45.5t-2 38v243l-91 13v21q14 5 33.5 9t34.5 4q38 0 56 -18t18 -58v-204q0 -33 5.5 -64.5t26 -55.5t61 -39t110.5 -15v667h51v-667q73 0 115 17.5t63.5 46.5t27.5 67t6 80q0 29 -3.5 61t-9 63.5t-12 60
t-12.5 50.5h53q10 -33 18 -71q7 -32 13 -75t6 -89q0 -55 -12 -102t-42.5 -81.5t-81.5 -54t-129 -19.5v-225z" />
    <glyph glyph-name="omega" unicode="&#x3c9;" horiz-adv-x="831" 
d="M787 253q0 -55 -10.5 -102.5t-34 -83t-61 -55.5t-91.5 -20q-65 0 -122 31l-53 29l-52 -29q-56 -31 -122 -31q-54 0 -91.5 20t-61 55.5t-34 83t-10.5 102.5q0 54 9.5 115.5t27.5 119.5h53q-6 -22 -12.5 -50.5t-12 -60t-9 -63.5t-3.5 -61q0 -42 5.5 -80.5t21.5 -68.5
t44 -48t73 -18h3q32 0 57 6.5t62 20.5l16 6q8 3 9.5 5.5t1.5 8.5v289h51v-289q0 -6 1.5 -8.5t9.5 -5.5l16 -6q37 -14 62 -20.5t57 -6.5h3q45 0 73 18t44 48t21.5 68.5t5.5 80.5q0 29 -3.5 61t-9 63.5t-12 60t-12.5 50.5h53q18 -58 27.5 -119.5t9.5 -115.5z" />
    <glyph glyph-name="alphatonos" unicode="&#x3ac;" horiz-adv-x="616" 
d="M501 474q2 9 6 11.5t14 2.5h28l-70 -245l61 -200l68 -11v-21q-13 -5 -27 -9t-29 -4q-17 0 -27.5 2.5t-19.5 16t-18.5 41.5t-23.5 79l-7 25q-22 -81 -73 -125.5t-139 -44.5q-48 0 -85 22t-62.5 58t-39 81t-13.5 90q0 59 16 106t44 79.5t65.5 50t81.5 17.5q158 0 207 -185z
M421 297q-14 44 -31.5 73.5t-37.5 47t-42.5 25t-47.5 7.5q-44 0 -75 -17t-51 -45t-29.5 -65.5t-9.5 -77.5q0 -33 7.5 -69.5t25.5 -67t48 -50.5t75 -20q25 0 49.5 5.5t46.5 21t40.5 43t31.5 71.5q9 30 12 44.5t3 19.5q0 6 -4 19.5t-11 34.5zM287 544l-27 7l48 215q2 7 3.5 8
t9.5 -1l44 -13z" />
    <glyph glyph-name="epsilontonos" unicode="&#x3ad;" horiz-adv-x="439" 
d="M240 450q-23 0 -47 -5t-44 -17.5t-33 -34.5t-13 -55v-2q0 -17 5.5 -34.5t10.5 -25.5q6 -10 13 -10h144v-39h-101q-38 0 -58 -18t-20 -62v-2q0 -54 30 -81t105 -27q32 0 66.5 9t66.5 24l51 24l16 -26q-51 -37 -103 -56.5t-101 -19.5t-84 12.5t-57 33t-32.5 46.5t-10.5 54
q0 62 48 106l-18 27q-13 20 -18.5 36.5t-5.5 42.5q0 31 13.5 58t37.5 46.5t58 30.5t76 11q21 0 45 -4t48 -11t46.5 -17t39.5 -22l-11 -26l-65 19q-15 5 -42 10t-53 5h-3zM221 544l-27 7l48 215q2 7 3.5 8t9.5 -1l44 -13z" />
    <glyph glyph-name="etatonos" unicode="&#x3ae;" horiz-adv-x="552" 
d="M112 488l13 -41l27 12q39 17 75.5 27t70.5 10q45 0 82.5 -14t60.5 -38q20 -22 31 -52.5t11 -74.5v-546h-51v536q0 42 -7 65.5t-22 40.5q-18 19 -47 27.5t-64 8.5q-32 0 -66 -6t-71 -20l-16 -6q-8 -3 -9.5 -5.5t-1.5 -8.5v-403h-51v488h35zM250 544l-27 7l48 215
q2 7 3.5 8t9.5 -1l44 -13z" />
    <glyph glyph-name="iotatonos" unicode="&#x3af;" horiz-adv-x="231" 
d="M223 11q-14 -5 -33.5 -9t-34.5 -4q-38 0 -56 18t-18 58v414h51v-443l91 -13v-21zM108 544l-27 7l48 215q2 7 3.5 8t9.5 -1l44 -13z" />
    <glyph glyph-name="iotadieresis" unicode="&#x3ca;" horiz-adv-x="231" 
d="M223 11q-14 -5 -33.5 -9t-34.5 -4q-38 0 -56 18t-18 58v414h51v-443l91 -13v-21zM-12 646h57q9 0 11.5 -2t2.5 -9v-63h-71v74zM155 646h57q9 0 11.5 -2t2.5 -9v-63h-71v74z" />
    <glyph glyph-name="iotadieresistonos" unicode="&#x390;" horiz-adv-x="231" 
d="M223 11q-14 -5 -33.5 -9t-34.5 -4q-38 0 -56 18t-18 58v414h51v-443l91 -13v-21zM103 544l-27 7l48 215q2 7 3.5 8t9.5 -1l44 -13zM-63 646h57q9 0 11.5 -2t2.5 -9v-63h-71v74zM223 646h57q9 0 11.5 -2t2.5 -9v-63h-71v74z" />
    <glyph glyph-name="omicrontonos" unicode="&#x3cc;" horiz-adv-x="552" 
d="M508 244q0 -52 -17 -97.5t-47.5 -80t-73 -54.5t-94.5 -20t-94.5 20t-73 54.5t-47.5 80t-17 97.5t17 97.5t47.5 80t73 54.5t94.5 20t94.5 -20t73 -54.5t47.5 -80t17 -97.5zM455 244q0 94 -47 150t-132 56t-132 -56t-47 -150t47 -150t132 -56t132 56t47 150zM250 544l-27 7
l48 215q2 7 3.5 8t9.5 -1l44 -13z" />
    <glyph glyph-name="upsilontonos" unicode="&#x3cd;" horiz-adv-x="566" 
d="M158 216q0 -33 6 -65t23 -57t46.5 -40.5t77.5 -15.5q45 0 75.5 18t48.5 48t26 68.5t8 80.5q0 29 -3.5 61t-9 63.5t-12 60t-12.5 50.5h53q10 -33 18 -71q7 -32 13 -75t6 -89q0 -55 -12.5 -102.5t-39 -83t-66 -55.5t-93.5 -20q-65 0 -105 22.5t-62 55.5t-29.5 70t-7.5 66
v243l-91 13v21q14 5 33.5 9t34.5 4q38 0 56 -18t18 -58v-204zM269 544l-27 7l48 215q2 7 3.5 8t9.5 -1l44 -13z" />
    <glyph glyph-name="upsilondieresistonos" unicode="&#x3b0;" horiz-adv-x="566" 
d="M158 216q0 -33 6 -65t23 -57t46.5 -40.5t77.5 -15.5q45 0 75.5 18t48.5 48t26 68.5t8 80.5q0 29 -3.5 61t-9 63.5t-12 60t-12.5 50.5h53q10 -33 18 -71q7 -32 13 -75t6 -89q0 -55 -12.5 -102.5t-39 -83t-66 -55.5t-93.5 -20q-65 0 -105 22.5t-62 55.5t-29.5 70t-7.5 66
v243l-91 13v21q14 5 33.5 9t34.5 4q38 0 56 -18t18 -58v-204zM275 544l-27 7l48 215q2 7 3.5 8t9.5 -1l44 -13zM109 646h57q9 0 11.5 -2t2.5 -9v-63h-71v74zM395 646h57q9 0 11.5 -2t2.5 -9v-63h-71v74z" />
    </font>
</defs>
</svg>
