<?xml version="1.0" standalone="no"?>
<!DOCTYPE svg PUBLIC "-//W3C//DTD SVG 1.1//EN" "http://www.w3.org/Graphics/SVG/1.1/DTD/svg11.dtd" >
<svg xmlns="http://www.w3.org/2000/svg">
<metadata>
Copyright (c) 2014 by Fontsmith Ltd. All rights reserved.
</metadata>
<defs>
<font id="JLREmericWeb-SemiBold" horiz-adv-x="651" >
  <font-face 
    font-family="JLR Emeric Web SemiBold"
    font-weight="600"
    font-stretch="normal"
    units-per-em="1000"
    panose-1="2 0 5 3 4 0 0 2 0 4"
    ascent="731"
    descent="-269"
    x-height="488"
    cap-height="663"
    bbox="-59 -294 1312 1106"
    underline-thickness="50"
    underline-position="-50"
    unicode-range="U+000D-FB04"
  />
<missing-glyph horiz-adv-x="597" 
d="M66 650h464v-650h-464v650zM456 604h-316l159 -237zM484 88v474l-158 -237zM456 47l-157 236l-159 -236h316zM113 88l157 237l-157 237v-474z" />
    <glyph glyph-name="fi" unicode="fi" horiz-adv-x="622" 
d="M433 488h129v-488h-129v488zM2 467l86 18q-5 16 -9 35.5t-4 39.5q0 35 14 64.5t38.5 50.5t59 32.5t76.5 11.5q48 0 92.5 -15.5t80.5 -38.5l-30 -77l-40 9q-46 10 -79 10q-37 0 -59.5 -14.5t-22.5 -51.5q0 -14 3 -29.5t7 -23.5h164v-101h-159v-387h-129v387h-89v80z" />
    <glyph glyph-name="fl" unicode="fl" horiz-adv-x="660" 
d="M376 596l-34 5q-16 2 -33 4.5t-31 1.5q-34 0 -54.5 -14t-20.5 -49q0 -14 3.5 -29.5t8.5 -26.5h164v-101h-159v-387h-129v387h-89v80l86 18q-5 14 -10 35.5t-5 43.5q0 36 12.5 64.5t35.5 48.5t54 31t69 11q78 0 152 -45zM652 20q-18 -9 -47 -16t-52 -7q-26 0 -47 8.5
t-35 22.5q-30 31 -30 88v593h129v-604l82 -17v-68z" />
    <glyph glyph-name="f_f" unicode="ff" horiz-adv-x="751" 
d="M446 488q-5 16 -9 34t-4 38q0 35 14 64.5t38.5 50.5t59 32.5t76.5 11.5q48 0 92.5 -15.5t80.5 -38.5l-30 -77l-40 9q-46 10 -79 10q-37 0 -59.5 -14.5t-22.5 -51.5q0 -14 3 -29.5t7 -23.5h164v-101h-159v-387h-130v387h-228v-387h-129v387h-89v80l85 18q-5 14 -8.5 34.5
t-3.5 40.5q0 36 12.5 64.5t36 49t55.5 31.5t71 11q42 0 80 -13t73 -33l-20 -76l-36 5l-34 4t-31 2q-35 0 -56 -15t-21 -50q0 -14 3 -27.5t7 -24.5h231z" />
    <glyph glyph-name="f_f_i" unicode="ffi" horiz-adv-x="980" 
d="M446 488q-5 16 -9 34t-4 38q0 35 14 64.5t38.5 50.5t59 32.5t76.5 11.5q48 0 92.5 -15.5t80.5 -38.5l-30 -77l-40 9q-46 10 -79 10q-37 0 -59.5 -14.5t-22.5 -51.5q0 -14 3 -29.5t7 -23.5h164v-101h-159v-387h-130v387h-228v-387h-129v387h-89v80l85 18q-5 14 -8.5 34.5
t-3.5 40.5q0 36 12.5 64.5t36 49t55.5 31.5t71 11q42 0 80 -13t73 -33l-20 -76l-36 5l-34 4t-31 2q-35 0 -56 -15t-21 -50q0 -14 3 -27.5t7 -24.5h231zM791 488h129v-488h-129v488z" />
    <glyph glyph-name="f_f_l" unicode="ffl" horiz-adv-x="1019" 
d="M443 488q-4 13 -8 34t-4 41q0 35 12.5 64t35 49.5t54.5 31.5t70 11q78 0 152 -45l-20 -78l-34 5q-16 2 -33 4.5t-31 1.5q-34 0 -55 -14t-21 -50q0 -14 3 -29t8 -26h163v-101h-160v-387h-129v387h-226v-387h-129v387h-89v80l85 18q-5 14 -8.5 34.5t-3.5 40.5
q0 36 12.5 64.5t36 49t55.5 31.5t71 11q42 0 80 -13t73 -33l-20 -76l-36 5l-34 4t-31 2q-35 0 -56 -15t-21 -50q0 -14 3 -27.5t7 -24.5h228zM1011 20q-18 -9 -47 -16t-52 -7q-26 0 -47 8.5t-35 22.5q-30 31 -30 88v593h129v-604l82 -17v-68z" />
    <glyph glyph-name="f_j" unicode="fj" horiz-adv-x="622" 
d="M2 467l86 18q-5 16 -9 35.5t-4 39.5q0 35 14 64.5t38.5 50.5t59 32.5t76.5 11.5q48 0 92.5 -15.5t80.5 -38.5l-30 -77l-40 9q-44 10 -79 10q-37 0 -59.5 -14.5t-22.5 -51.5q0 -14 3 -29.5t7 -23.5h164v-101h-159v-387h-129v387h-89v80zM562 -56q0 -45 -7 -78.5
t-24.5 -55.5t-48 -32.5t-76.5 -10.5q-23 0 -47 4.5t-41 11.5v70l57 11q18 3 29.5 7.5t18 11t8.5 16.5t2 25v564h129v-544z" />
    <glyph glyph-name="f_f_j" unicode="ffj" horiz-adv-x="980" 
d="M920 -56q0 -93 -38 -135t-117 -42q-24 0 -48 4.5t-41 11.5v70l58 11q18 3 29.5 7.5t17.5 11t8 16.5t2 25v564h129v-544zM446 488q-5 16 -9 34t-4 38q0 35 14 64.5t38.5 50.5t59 32.5t76.5 11.5q48 0 92.5 -15.5t80.5 -38.5l-30 -77l-40 9q-46 10 -79 10
q-37 0 -59.5 -14.5t-22.5 -51.5q0 -14 3 -29.5t7 -23.5h164v-101h-159v-387h-130v387h-228v-387h-129v387h-89v80l85 18q-5 14 -8.5 34.5t-3.5 40.5q0 36 12.5 64.5t36 49t55.5 31.5t71 11q42 0 80 -13t73 -33l-20 -76l-36 5l-34 4t-31 2q-35 0 -56 -15t-21 -50
q0 -14 3 -27.5t7 -24.5h231z" />
    <glyph glyph-name="f_t" unicode="ft" horiz-adv-x="770" 
d="M220 387v-387h-129v387h-89v80l82 18q-8 12 -14.5 33.5t-6.5 44.5q0 38 14.5 67t38.5 49t55.5 30t66.5 10q39 0 78 -11.5t68 -28.5l-19 -78l-34 3q-15 2 -32 3t-28 1q-38 0 -58 -14.5t-20 -48.5q0 -14 6 -30.5t14 -26.5h215v135h129v-135h162v-101h-162v-222
q0 -32 13 -45q15 -15 44 -15q13 0 30.5 3t33.5 6l46 10l30 -72q-32 -25 -77.5 -42.5t-88.5 -17.5q-38 0 -67 10.5t-49 30.5q-44 43 -44 127v227h-208z" />
    <glyph glyph-name="f_f_t" unicode="fft" horiz-adv-x="1126" 
d="M784 623h129v-135h162v-101h-162v-222q0 -32 13 -45q15 -15 44 -15q13 0 30.5 3t33.5 6l46 10l30 -72q-32 -25 -77.5 -42.5t-88.5 -17.5q-38 0 -67 10.5t-49 30.5q-44 43 -44 127v227h-208v-387h-129v387h-227v-387h-129v387h-89v80l85 18q-5 14 -8.5 34.5t-3.5 40.5
q0 36 12.5 64.5t36 49t55.5 31.5t71 11q42 0 80 -13t73 -33l-20 -76l-36 5l-34 4t-31 2q-35 0 -56 -15t-21 -50q0 -14 3 -27.5t7 -24.5h229q-5 13 -7.5 33t-2.5 38q0 34 12.5 63t35 50.5t54 34t70.5 12.5q38 0 73.5 -11.5t64.5 -28.5l-18 -78l-34 4q-30 3 -56 3
q-34 0 -52.5 -15.5t-18.5 -49.5q0 -14 2.5 -30.5t6.5 -24.5h210v135z" />
    <glyph glyph-name=".notdef" horiz-adv-x="597" 
d="M66 650h464v-650h-464v650zM456 604h-316l159 -237zM484 88v474l-158 -237zM456 47l-157 236l-159 -236h316zM113 88l157 237l-157 237v-474z" />
    <glyph glyph-name=".null" horiz-adv-x="0" 
 />
    <glyph glyph-name=".null" horiz-adv-x="0" 
 />
    <glyph glyph-name="nonmarkingreturn" unicode="&#xd;" horiz-adv-x="228" 
 />
    <glyph glyph-name="space" unicode=" " horiz-adv-x="228" 
 />
    <glyph glyph-name="nonbreakingspace" unicode="&#xa0;" horiz-adv-x="228" 
 />
    <glyph glyph-name="A" unicode="A" horiz-adv-x="705" 
d="M494 133h-292l-44 -121q-3 -8 -6 -10t-12 -2h-127l255 663h136q9 0 12.5 -2.5t7.5 -10.5l268 -650h-131q-9 0 -12.5 2t-6.5 10zM243 244h207l-46 119q-18 46 -35 91.5t-26 75.5q-5 -15 -12 -37t-15.5 -47t-18.5 -52t-19 -53z" />
    <glyph glyph-name="B" unicode="B" horiz-adv-x="656" 
d="M348 663q52 0 94 -9.5t71.5 -29.5t45.5 -51t16 -74q0 -41 -17 -75.5t-45 -65.5q44 -23 74 -63t30 -101q0 -97 -61.5 -145.5t-180.5 -48.5h-307v663h280zM206 116h161q60 0 84.5 19.5t24.5 64.5q0 42 -19.5 60.5t-74.5 18.5h-176v-163zM387 388q11 0 19 3.5t14 13.5
q8 13 13 30t5 37q0 44 -23 59.5t-77 15.5h-132v-159h181z" />
    <glyph glyph-name="C" unicode="C" horiz-adv-x="682" 
d="M658 135q-26 -29 -59 -55.5t-71.5 -46.5t-82 -31.5t-91.5 -11.5q-72 0 -131 26t-100.5 71.5t-64 108t-22.5 135.5q0 79 26 142.5t70 108t102.5 68t123.5 23.5q105 0 177 -52.5t107 -146.5l-89 -57l-61 56q-37 34 -69.5 51t-74.5 17q-34 0 -64.5 -12.5t-53.5 -38.5
t-36.5 -65.5t-13.5 -92.5q0 -47 12.5 -86t36.5 -66.5t59 -42.5t81 -15q31 0 63.5 8t70.5 26l101 49z" />
    <glyph glyph-name="D" unicode="D" horiz-adv-x="719" 
d="M68 0v663h221q99 0 172 -19.5t124 -63.5q48 -41 73 -102.5t25 -146.5q0 -84 -25 -145.5t-73 -102.5q-51 -44 -124 -63.5t-172 -19.5h-221zM285 120q73 0 123 12.5t81 42.5q51 49 51 157q0 55 -12.5 93t-38.5 63q-31 30 -81 42.5t-123 12.5h-79v-423h79z" />
    <glyph glyph-name="E" unicode="E" horiz-adv-x="611" 
d="M546 663v-116h-340v-151h307v-115h-307v-165h350v-116h-488v663h478z" />
    <glyph glyph-name="F" unicode="F" horiz-adv-x="574" 
d="M206 385h296v-114h-296v-271h-138v663h469v-116h-331v-162z" />
    <glyph glyph-name="G" unicode="G" horiz-adv-x="739" 
d="M435 247v103h223q11 0 15.5 -3t4.5 -14v-333h-100l-21 60l-51 -28q-33 -18 -71 -30t-83 -12q-72 0 -130 25.5t-99.5 71.5t-64 108t-22.5 136q0 79 27 142.5t73 108t105.5 68t125.5 23.5q101 0 175.5 -46t111.5 -130l-87 -60l-75 56q-34 26 -63.5 38t-68.5 12
q-38 0 -71 -13.5t-57 -40t-38 -66t-14 -91.5q0 -103 50 -157t143 -54q18 0 39 2t41.5 5t39 7.5t33.5 10.5q11 4 14.5 8.5t3.5 15.5v77h-109z" />
    <glyph glyph-name="H" unicode="H" horiz-adv-x="723" 
d="M517 281h-311v-281h-138v663h138v-262h311v262h138v-663h-138v281z" />
    <glyph glyph-name="I" unicode="I" horiz-adv-x="280" 
d="M71 663h138v-663h-138v663z" />
    <glyph glyph-name="J" unicode="J" horiz-adv-x="513" 
d="M51 138l58 -11q35 -7 62 -10.5t50 -3.5q52 0 72 23q18 22 18 74v453h138v-449q0 -110 -56 -167q-27 -27 -65.5 -42t-85.5 -15q-57 0 -115 17.5t-104 46.5z" />
    <glyph glyph-name="K" unicode="K" horiz-adv-x="667" 
d="M293 305q-19 -17 -43 -32t-44 -25v-248h-138v663h138v-293l348 301l78 -84l-238 -201l267 -386h-142q-11 0 -16 2.5t-11 10.5z" />
    <glyph glyph-name="L" unicode="L" horiz-adv-x="568" 
d="M206 116h327v-116h-465v663h138v-547z" />
    <glyph glyph-name="M" unicode="M" horiz-adv-x="851" 
d="M783 663v-663h-134v454h-2l-172 -221h-82q-9 0 -14 2t-10 9l-166 210h-2v-454h-133v663h111q11 0 15.5 -3t11.5 -12l219 -274h6l215 274q7 9 11.5 12t15.5 3h110z" />
    <glyph glyph-name="N" unicode="N" horiz-adv-x="744" 
d="M543 663h133v-663h-103q-10 0 -15 2t-11 10l-257 323q-13 16 -26.5 33.5t-25.5 33.5t-21.5 29.5t-15.5 21.5v-453h-133v663h104q10 0 14.5 -2t10.5 -10l237 -297q16 -21 33 -42t31.5 -40t26 -35t18.5 -26v452z" />
    <glyph glyph-name="O" unicode="O" horiz-adv-x="740" 
d="M369 -10q-66 0 -126 24t-106 68t-73.5 107.5t-27.5 141.5q0 79 27.5 142t73.5 107.5t106 68.5t126 24h2q66 0 126 -24t106 -68.5t73.5 -107.5t27.5 -142q0 -78 -27.5 -141.5t-73.5 -107.5t-106 -68t-126 -24h-2zM180 331q0 -99 50.5 -153t138.5 -54h2q88 0 138.5 53.5
t50.5 153.5t-50.5 153.5t-138.5 53.5h-2q-88 0 -138.5 -53.5t-50.5 -153.5z" />
    <glyph glyph-name="P" unicode="P" horiz-adv-x="643" 
d="M206 0h-138v663h259q76 0 131 -15t91 -51q26 -27 41 -67t15 -91q0 -54 -16 -97.5t-48 -73.5q-30 -28 -73 -42.5t-108 -14.5h-154v-211zM396 326q17 0 26 4t16 14q11 16 18.5 42t7.5 53q0 55 -27 80q-16 15 -41 21t-61 6h-129v-220h190z" />
    <glyph glyph-name="Q" unicode="Q" horiz-adv-x="740" 
d="M371 -10q-66 0 -127 23.5t-107 68t-73.5 107.5t-27.5 142t27.5 142t73.5 107.5t106 68.5t126 24h2q66 0 126 -24t106 -68.5t73.5 -107.5t27.5 -142q0 -52 -12.5 -97t-34 -82.5t-51.5 -67t-66 -50.5l109 -166l-135 -54l-94 180q-12 -2 -24.5 -3t-24.5 -1zM180 331
q0 -99 50.5 -153t138.5 -54h2q88 0 138.5 53.5t50.5 153.5t-50.5 153.5t-138.5 53.5h-2q-88 0 -138.5 -53.5t-50.5 -153.5z" />
    <glyph glyph-name="R" unicode="R" horiz-adv-x="671" 
d="M371 210q-6 10 -10.5 11.5t-15.5 1.5h-139v-223h-138v663h261q67 0 119 -11.5t87.5 -37.5t54 -67t18.5 -100q0 -66 -30.5 -116t-79.5 -81l151 -250h-139q-10 0 -14.5 1.5t-10.5 12.5zM405 338q27 0 39 18q11 17 17 40.5t6 50.5q0 50 -24 73q-16 14 -42 20t-68 6h-127
v-208h199z" />
    <glyph glyph-name="S" unicode="S" horiz-adv-x="592" 
d="M72 150l68 -15q57 -13 97 -18.5t74 -5.5q51 0 82.5 21t31.5 62q0 32 -24 48t-82 33l-68 20q-100 29 -153.5 74t-53.5 122q0 45 19.5 79t54 57t80.5 34.5t99 11.5q57 0 114.5 -11.5t111.5 -33.5l-21 -93l-53 6q-38 5 -77 8t-67 3q-66 0 -99 -14t-33 -46q0 -28 26.5 -43.5
t79.5 -30.5l62 -18q60 -17 101 -36.5t66 -43t36 -53t11 -67.5q0 -97 -65.5 -153.5t-186.5 -56.5q-33 0 -69 5.5t-71 15t-67.5 22.5t-58.5 27z" />
    <glyph glyph-name="T" unicode="T" horiz-adv-x="615" 
d="M376 0h-138v547h-221v116h580v-116h-221v-547z" />
    <glyph glyph-name="U" unicode="U" horiz-adv-x="707" 
d="M646 273q0 -72 -18 -120.5t-53 -83.5q-38 -39 -95.5 -59t-126.5 -20q-68 0 -125 20t-96 59q-35 35 -53 83.5t-18 120.5v390h138v-378q0 -45 7 -74.5t27 -49.5q19 -18 51.5 -28.5t70.5 -10.5t71 10.5t51 28.5q20 20 27 49.5t7 74.5v378h135v-390z" />
    <glyph glyph-name="V" unicode="V" horiz-adv-x="676" 
d="M668 663l-244 -663h-147q-17 0 -23 16l-246 647h135q7 0 10 -2t6 -10l106 -284q11 -30 22.5 -65t22 -68.5t19 -62.5t13.5 -48h2q6 22 16 56t22 72t24.5 76.5t24.5 70.5l90 253q3 8 6 10t10 2h131z" />
    <glyph glyph-name="W" unicode="W" horiz-adv-x="1016" 
d="M656 0q-18 0 -22 14l-51 168q-8 27 -20 67t-23.5 82t-21 79.5t-13.5 59.5q-4 -22 -13 -58.5t-20 -78t-22.5 -83t-20.5 -72.5l-51 -178h-142q-18 0 -22 14l-206 649h129q8 0 11.5 -2t5.5 -10l87 -284q17 -57 34 -118t28 -106q5 27 13 61.5t18 72.5t20.5 77.5t21.5 76.5
l69 232h112q8 0 11.5 -2t5.5 -10l89 -293q18 -60 33 -118t23 -97q11 44 28.5 111t40.5 140l81 257q2 8 5.5 10t10.5 2h123l-211 -663h-141z" />
    <glyph glyph-name="X" unicode="X" horiz-adv-x="682" 
d="M418 343l259 -343h-145q-8 0 -13 2t-10 8l-176 237l-169 -238q-6 -9 -21 -9h-138l247 342l-244 321h145q10 0 14.5 -2t9.5 -9l161 -215l155 215q5 7 9.5 9t13.5 2h135z" />
    <glyph glyph-name="Y" unicode="Y" horiz-adv-x="669" 
d="M405 211v-211h-138v211l-267 452h141q8 0 11.5 -2t7.5 -9l87 -153q25 -45 49 -91.5t42 -81.5q17 35 42 81t51 94l84 150q4 7 8 9.5t12 2.5h134z" />
    <glyph glyph-name="Z" unicode="Z" horiz-adv-x="616" 
d="M45 547v116h520v-77q0 -11 -3 -17.5t-11 -17.5l-230 -303q-25 -33 -53 -68.5t-51 -63.5h352v-116h-521v76q0 11 2.5 17.5t10.5 18.5l230 303q29 39 57 73.5t48 58.5h-351z" />
    <glyph glyph-name="a" unicode="a" horiz-adv-x="551" 
d="M342 307q0 38 -18 56q-21 21 -72 21q-25 0 -55.5 -6.5t-63.5 -17.5l-41 -14l-40 70q49 38 104 59t111 21q47 0 87 -13t69 -43q23 -23 35.5 -57t12.5 -84v-198l67 -13v-69q-18 -9 -45 -15t-47 -6q-26 0 -47 11.5t-39 31.5l-26 -14q-66 -35 -125 -35q-40 0 -73 12.5
t-56.5 34.5t-36.5 52t-13 65q0 66 46 102t124 36h3q32 0 70.5 -5.5t68.5 -13.5v32zM342 190q0 10 -11 10h-140q-21 0 -29.5 -9.5t-8.5 -29.5q0 -28 20 -46t60 -18q26 0 54 6.5t42 12.5q8 3 10.5 6t2.5 11v57z" />
    <glyph glyph-name="b" unicode="b" horiz-adv-x="573" 
d="M174 45l-18 -45h-98v709h129v-260l30 15q30 15 57.5 23.5t55.5 8.5q45 0 84 -18t67.5 -51t45 -79.5t16.5 -103.5t-16 -103.5t-44 -79.5t-67.5 -51t-85.5 -18q-29 0 -57.5 8.5t-57.5 23.5zM187 151q0 -14 10 -19q18 -8 46 -14.5t54 -6.5q56 0 85 28.5t29 104.5
q0 74 -28.5 102.5t-85.5 28.5q-29 0 -55.5 -6.5t-44.5 -15.5q-8 -4 -9 -7.5t-1 -11.5v-183z" />
    <glyph glyph-name="c" unicode="c" horiz-adv-x="516" 
d="M497 86q-21 -19 -47 -36t-55 -30t-60.5 -20.5t-62.5 -7.5q-55 0 -99.5 18t-76 51.5t-49 80.5t-17.5 104t19.5 103t52.5 78.5t76.5 50.5t90.5 18q42 0 78.5 -12.5t65 -34.5t48.5 -52.5t29 -65.5l-85 -43l-45 44q-30 29 -51.5 39t-45.5 10q-41 0 -71 -33t-30 -100
q0 -74 30.5 -107.5t93.5 -33.5q21 0 50.5 7t59.5 19l58 23z" />
    <glyph glyph-name="d" unicode="d" horiz-adv-x="574" 
d="M387 709h129v-709h-97l-18 45l-37 -20q-29 -16 -57 -24.5t-58 -8.5q-48 0 -88.5 18t-69.5 51t-45 79.5t-16 102.5q0 55 17 101.5t46 80t69 52.5t87 19q36 0 69.5 -12.5t68.5 -33.5v259zM387 336q0 8 -1 11.5t-9 7.5q-18 9 -44.5 15t-55.5 6q-57 0 -86 -29t-29 -103
q0 -76 29.5 -104.5t85.5 -28.5q26 0 54 6t46 15q10 5 10 19v185z" />
    <glyph glyph-name="e" unicode="e" horiz-adv-x="543" 
d="M511 263q0 -11 -1 -23.5t-4 -22.5q-3 -9 -8 -11t-13 -2h-323q5 -45 37 -71.5t92 -26.5q24 0 53 6t60 17l55 19l41 -72q-44 -38 -102 -61t-119 -23q-53 0 -98.5 18.5t-79 52t-52.5 79.5t-19 101q0 58 19.5 104.5t52.5 79.5t77.5 51t94.5 18q52 0 96 -18.5t75 -50t48.5 -74
t17.5 -90.5zM383 295q-4 39 -33 63.5t-77 24.5q-49 0 -77.5 -24.5t-33.5 -63.5h221z" />
    <glyph glyph-name="f" unicode="f" horiz-adv-x="384" 
d="M2 467l86 18q-5 14 -8.5 35t-3.5 41q0 34 12.5 63t35.5 50t56 33t75 12q45 0 90 -15t82 -39l-30 -77l-47 10q-42 9 -71 9q-36 0 -54.5 -14t-18.5 -46q0 -14 2.5 -31t7.5 -28h166v-101h-162v-387h-129v387h-89v80z" />
    <glyph glyph-name="g" unicode="g" horiz-adv-x="558" 
d="M399 456q27 26 51 38t44 12q17 0 34.5 -3.5t31.5 -14.5v-73l-90 -15q-8 -2 -10 -4t2 -10q20 -38 20 -84q0 -43 -17 -79t-46.5 -61.5t-69 -39.5t-85.5 -14q-14 0 -32 3t-29 5q-8 2 -10.5 -0.5t-4.5 -7.5l-6 -14q-4 -9 -4 -14q0 -9 14 -9h143q94 0 138 -35.5t44 -102.5
q0 -42 -19.5 -76t-54 -58t-81.5 -37t-102 -13t-101 12t-79 34t-51.5 51.5t-18.5 64.5q0 32 16.5 54t45.5 39q-9 11 -14.5 21.5t-5.5 24.5q0 15 7.5 30.5t26.5 37.5l32 37q-34 26 -53 63t-19 84q0 43 17 78.5t46 61t69 40t86 14.5q78 0 135 -40zM361 302q0 44 -26.5 66.5
t-70.5 22.5q-45 0 -71 -22.5t-26 -66.5q0 -45 26 -67.5t71 -22.5q44 0 70.5 22.5t26.5 67.5zM164 -32q-8 0 -13 -2t-10 -8q-9 -12 -9 -28q0 -32 32 -52.5t98 -20.5q60 0 96.5 18.5t36.5 54.5q0 20 -12.5 29t-47.5 9h-171z" />
    <glyph glyph-name="h" unicode="h" horiz-adv-x="562" 
d="M210 466q26 14 53.5 22t54.5 8q42 0 77.5 -13t61 -37t39.5 -59.5t14 -80.5v-306h-129v301q0 36 -16 52q-20 21 -75 21h-2q-26 0 -51 -4t-40 -10q-8 -3 -9 -7.5t-1 -11.5v-341h-129v709h129v-256z" />
    <glyph glyph-name="i" unicode="i" horiz-adv-x="249" 
d="M60 488h129v-488h-129v488zM60 693h102q16 0 21.5 -5.5t5.5 -19.5v-102h-129v127z" />
    <glyph glyph-name="j" unicode="j" horiz-adv-x="248" 
d="M188 -56q0 -45 -7 -78.5t-24.5 -55.5t-48 -32.5t-76.5 -10.5q-23 0 -47 4.5t-41 11.5v70l57 11q18 3 29.5 7.5t18 11t8.5 16.5t2 25v564h129v-544zM59 693h102q16 0 21.5 -5.5t5.5 -19.5v-102h-129v127z" />
    <glyph glyph-name="k" unicode="k" horiz-adv-x="552" 
d="M263 224q-17 -12 -38 -23.5t-38 -19.5v-181h-129v709h129v-415l261 211l72 -82l-162 -130l192 -293h-128q-11 0 -15.5 2t-9.5 10z" />
    <glyph glyph-name="l" unicode="l" horiz-adv-x="279" 
d="M271 20q-18 -9 -47 -16t-52 -7q-26 0 -47 8.5t-35 22.5q-30 31 -30 88v593h129v-604l82 -17v-68z" />
    <glyph glyph-name="m" unicode="m" horiz-adv-x="866" 
d="M684 307q0 36 -18 51q-20 16 -69 16h-2q-26 0 -47.5 -4t-36.5 -10q-8 -3 -9 -7.5t-1 -11.5v-341h-130v307q0 36 -18 51q-20 16 -69 16h-2q-26 0 -47.5 -4t-36.5 -10q-8 -3 -9 -7.5t-1 -11.5v-341h-129v488h98l16 -43l22 13q32 19 62 28.5t62 9.5q85 0 142 -64l36 20
q39 22 71.5 33t64.5 11q41 0 75 -14.5t59 -40.5q23 -25 35 -57.5t12 -76.5v-307h-130v307z" />
    <glyph glyph-name="n" unicode="n" horiz-adv-x="562" 
d="M381 301q0 36 -16 52q-20 21 -75 21h-2q-26 0 -51 -4t-40 -10q-8 -3 -9 -7.5t-1 -11.5v-341h-129v488h98l16 -43l38 21q23 13 51 21.5t57 8.5q42 0 77.5 -13t61 -37t39.5 -59.5t14 -80.5v-306h-129v301z" />
    <glyph glyph-name="o" unicode="o" horiz-adv-x="559" 
d="M529 244q0 -61 -20.5 -108t-54.5 -79t-79 -48.5t-94 -16.5h-3q-49 0 -94 16.5t-79 48.5t-54.5 79t-20.5 108q0 60 20.5 107t54.5 79.5t79 49t94 16.5h3q49 0 94 -16.5t79 -49t54.5 -79.5t20.5 -107zM397 244q0 131 -116 131h-3q-116 0 -116 -131q0 -132 116 -132h3
q116 0 116 132z" />
    <glyph glyph-name="p" unicode="p" horiz-adv-x="573" 
d="M187 38v-267h-129v717h98l18 -45l43 21q35 17 59.5 24.5t52.5 7.5q45 0 84.5 -18t68 -51t45 -79.5t16.5 -103.5t-16 -103.5t-44 -79.5t-67.5 -51t-85.5 -18q-29 0 -57.5 9t-57.5 23zM187 151q0 -14 10 -19q18 -8 46 -14.5t54 -6.5q56 0 85 28.5t29 104.5
q0 74 -28.5 102.5t-85.5 28.5q-29 0 -55.5 -6.5t-44.5 -15.5q-8 -4 -9 -7.5t-1 -11.5v-183z" />
    <glyph glyph-name="q" unicode="q" horiz-adv-x="575" 
d="M387 336q0 8 -1 11.5t-9 7.5q-18 9 -44.5 15t-55.5 6q-57 0 -86 -29t-29 -103q0 -76 29.5 -104.5t85.5 -28.5q26 0 54 6t46 15q10 5 10 19v185zM419 488h98v-717h-130v266l-23 -12q-29 -15 -57 -24t-58 -9q-48 0 -88.5 18t-69.5 51t-45 79.5t-16 102.5q0 55 17 101.5
t46 80t69 52.5t87 19q36 0 75.5 -14.5t75.5 -40.5z" />
    <glyph glyph-name="r" unicode="r" horiz-adv-x="384" 
d="M331 382q-38 -7 -69 -15.5t-60 -17.5q-9 -3 -11.5 -6.5t-2.5 -11.5v-331h-129v488h97l20 -60q48 35 81.5 51.5t59.5 16.5q15 0 31.5 -4.5t30.5 -12.5v-88z" />
    <glyph glyph-name="s" unicode="s" horiz-adv-x="478" 
d="M358 382q-35 4 -64 6t-49 2q-46 0 -68 -7t-22 -27q0 -16 16.5 -23t45.5 -15l65 -16q42 -11 73 -23t51 -29t29.5 -40.5t9.5 -56.5q0 -72 -50.5 -116.5t-150.5 -44.5q-27 0 -56 4t-57 11t-53.5 17t-45.5 21l27 79l54 -10q44 -8 75.5 -12t56.5 -4q39 0 60.5 12t21.5 35
q0 19 -13.5 28t-51.5 18l-63 15q-37 9 -67 21t-51 29t-32 40.5t-11 55.5q0 35 15 62t42.5 45t65 27.5t82.5 9.5q47 0 95 -10t88 -28l-20 -81z" />
    <glyph glyph-name="t" unicode="t" horiz-adv-x="430" 
d="M414 52q-32 -25 -77.5 -42.5t-88.5 -17.5q-38 0 -67 10.5t-49 30.5q-44 43 -44 127v227h-88v80l88 19v143h129v-141h162v-101h-162v-222q0 -32 13 -45q15 -15 44 -15q13 0 30.5 3t33.5 6l46 10z" />
    <glyph glyph-name="u" unicode="u" horiz-adv-x="561" 
d="M181 186q0 -36 16 -53q11 -11 29.5 -15.5t46.5 -4.5q25 0 49.5 3.5t40.5 9.5q8 3 9 8t1 12v342h129v-488h-98l-17 42l-28 -15q-34 -18 -60.5 -26.5t-55.5 -8.5q-42 0 -77 12.5t-60.5 36.5t-39.5 59.5t-14 81.5v306h129v-302z" />
    <glyph glyph-name="v" unicode="v" horiz-adv-x="531" 
d="M393 474q3 8 6.5 11t13.5 3h118l-196 -488h-118q-13 0 -18 11l-199 477h121q10 0 13 -2.5t7 -11.5l77 -191q7 -19 15 -39.5t15.5 -40.5t13.5 -38t9 -31q8 26 20.5 64.5t28.5 80.5z" />
    <glyph glyph-name="w" unicode="w" horiz-adv-x="811" 
d="M644 0h-128q-16 0 -20 12l-50 161q-6 19 -12 39.5t-11.5 40.5t-10.5 38t-8 31q-6 -27 -17.5 -68.5t-22.5 -80.5l-51 -173h-128q-16 0 -20 12l-166 476h120q9 0 12.5 -2.5t6.5 -10.5l48 -149q17 -53 31.5 -101.5t25.5 -91.5q8 35 22 86.5t31 108.5l47 160h108
q10 0 14 -2.5t7 -11.5l47 -150q7 -24 15.5 -52t16 -54t14 -49t9.5 -37q4 14 10.5 36.5t14 48t16 53t16.5 51.5l49 153q2 8 6 11t13 3h114z" />
    <glyph glyph-name="x" unicode="x" horiz-adv-x="529" 
d="M389 0q-14 0 -21 10l-110 155h-1l-102 -155q-5 -6 -9 -8t-12 -2h-131l176 252l-172 236h135q9 0 13.5 -2t9.5 -9l99 -142l97 142q5 7 9 9t12 2h125l-165 -239l184 -249h-137z" />
    <glyph glyph-name="y" unicode="y" horiz-adv-x="531" 
d="M219 283q7 -19 15 -39.5t15.5 -40.5t13.5 -38t9 -31q8 26 20.5 64.5t28.5 80.5l73 195q4 9 7.5 11.5t12.5 2.5h118l-291 -724l-124 29l90 202l-207 493h122q9 0 12.5 -2.5t7.5 -11.5z" />
    <glyph glyph-name="z" unicode="z" horiz-adv-x="485" 
d="M40 387v101h409v-56q0 -9 -3 -15.5t-9 -14.5l-159 -203q-9 -11 -20 -25t-22.5 -27.5t-21.5 -26t-17 -19.5h257v-101h-420v60q0 9 2 15.5t9 15.5l175 222q18 23 32.5 40t31.5 34h-244z" />
    <glyph glyph-name="ampersand" unicode="&#x26;" horiz-adv-x="762" 
d="M718 22q-14 -10 -38 -17.5t-48 -7.5q-17 0 -29.5 2.5t-26.5 10t-30.5 20t-40.5 33.5q-44 -35 -95.5 -54t-106.5 -19q-54 0 -102.5 17t-85 47t-58 71t-21.5 89q0 34 11 61.5t29.5 49.5t43 38.5t52.5 29.5q-17 26 -25.5 51t-8.5 53q0 42 16.5 74.5t44.5 55t64 34.5t74 12
q40 0 74.5 -12.5t60 -34.5t40 -52.5t14.5 -66.5q0 -49 -31 -94t-100 -87l110 -105q6 8 14 19.5t16.5 24t16 25t13.5 23.5l55 101l79 -30q-18 -60 -49 -123t-68 -114l48 -45l88 -14v-66zM225 330l-21 -21q-20 -20 -30 -38.5t-10 -44.5q0 -23 10.5 -45t30.5 -39t48.5 -27.5
t65.5 -10.5q30 0 58 8.5t51 23.5zM361 407q29 31 41.5 53t12.5 42q0 32 -22 50t-56 18q-35 0 -59 -18t-24 -51q0 -28 19.5 -54.5t63.5 -64.5z" />
    <glyph glyph-name="at" unicode="@" horiz-adv-x="777" 
d="M699 -1q-24 -20 -58 -37.5t-73.5 -31t-83 -21.5t-87.5 -8q-80 0 -145 26.5t-112 72.5t-72.5 108.5t-25.5 134.5q0 79 29 142t78 107.5t113.5 68t134.5 23.5q73 0 134 -25t105 -67t68.5 -98t24.5 -118q0 -50 -14 -87.5t-37.5 -63t-55 -38t-65.5 -12.5t-57.5 11t-35.5 27
l-24 -13q-17 -9 -37.5 -15.5t-43.5 -6.5q-53 0 -85.5 31.5t-32.5 77.5q0 45 31.5 68t82.5 23q20 0 43.5 -3t40.5 -8v24q0 18 -13 30.5t-39 12.5q-14 0 -32 -3.5t-36 -8.5l-33 -11l-27 49q31 24 67.5 38.5t72.5 14.5q59 0 96 -32.5t37 -97.5v-91q0 -16 7.5 -29t30.5 -13
q13 0 25.5 6t22 19.5t15.5 36.5t6 57q0 46 -17 87t-48.5 71.5t-76 48t-100.5 17.5q-53 0 -99 -16.5t-80 -47.5t-53.5 -76t-19.5 -103q0 -61 18.5 -109t53 -81t83.5 -50.5t109 -17.5q42 0 87 9t91 26l81 29zM351 213q-21 0 -21 -23q0 -16 11.5 -27t34.5 -11q15 0 28 2.5
t23 5.5q8 2 10 4.5t2 10.5v33q0 5 -5 5h-83z" />
    <glyph glyph-name="exclam" unicode="!" horiz-adv-x="280" 
d="M208 0h-136v130h114q13 0 17.5 -5t4.5 -16v-109zM82 339q-3 30 -5.5 55.5t-2.5 50.5v218h132v-218q0 -25 -2.5 -50.5t-5.5 -55.5l-16 -144h-84z" />
    <glyph glyph-name="exclamdown" unicode="&#xa1;" horiz-adv-x="280" 
d="M66.9961 487.971h135.991v-129.992h-113.993q-12.999 0 -17.498 4.99902q-4.5 5 -4.5 15.999v108.994zM192.988 148.991q3 -29.998 5.5 -55.4971q2.49902 -25.498 2.49902 -50.4971v-217.986h-131.991v217.986q0 24.999 2.5 50.4971q2.49902 25.499 5.49902 55.4971
l15.999 143.991h83.9951z" />
    <glyph glyph-name="question" unicode="?" horiz-adv-x="528" 
d="M184 190l-12 68q-3 16 -4 24.5t-1 15.5q0 17 8.5 27.5t28.5 22.5l36 21q29 17 49.5 29.5t34 25t20 26.5t6.5 33q0 32 -24.5 50t-66.5 18q-29 0 -61.5 -7t-69.5 -21l-60 -22l-46 78q49 42 114 68t130 26q43 0 83 -12.5t70 -37t48 -60t18 -81.5q0 -74 -51.5 -123
t-143.5 -81l-20 -88h-86zM294 0h-132v123h110q13 0 17.5 -5t4.5 -16v-102z" />
    <glyph glyph-name="questiondown" unicode="&#xbf;" horiz-adv-x="528" 
d="M347.979 297.981l12 -67.9951q2.99902 -15.999 3.99902 -24.499q1 -8.49902 1 -15.499q0 -16.999 -8.49902 -27.498q-8.5 -10.5 -28.498 -22.499l-35.998 -20.998q-28.998 -16.999 -49.4971 -29.499q-20.499 -12.499 -33.998 -24.998t-19.999 -26.498
q-6.49902 -14 -6.49902 -32.998q0 -31.998 24.498 -49.9971q24.499 -17.999 66.4961 -17.999q28.998 0 61.4961 7q32.498 6.99902 69.4961 20.998l59.9961 21.999l45.9971 -77.9951q-48.9971 -41.998 -113.993 -67.9961t-129.992 -25.998q-42.9971 0 -82.9941 12.499
q-39.998 12.499 -69.9961 36.9971q-29.998 24.499 -47.9971 59.9971q-17.999 35.4971 -17.999 81.4951q0 73.9951 51.4971 122.992t143.491 80.9951l19.999 87.9941h85.9941zM237.985 487.971h131.992v-122.993h-109.993q-12.999 0 -17.499 5t-4.5 15.999v101.994z" />
    <glyph glyph-name="asterisk" unicode="*" horiz-adv-x="466" 
d="M326 293q-14 -9 -22 5l-69 122l-78 -136l-77 51q-8 5 -7 11.5t9 14.5l102 103l-144 29l30 73q5 11 10 13t16 -3l106 -60l-23 147h95q15 0 14 -16l-21 -131l125 69l31 -76q7 -17 -14 -20l-123 -25l117 -120z" />
    <glyph glyph-name="period" unicode="." horiz-adv-x="239" 
d="M188 0h-138v137h111q16 0 21.5 -6t5.5 -19v-112z" />
    <glyph glyph-name="comma" unicode="," horiz-adv-x="238" 
d="M87 -16q4 8 4 10q0 4 -9 10l-15 9q-12 8 -15 12.5t-3 18.5v93h111q16 0 21.5 -6t5.5 -19v-67q0 -27 -3.5 -48.5t-16 -44t-36.5 -50t-65 -64.5l-45 35z" />
    <glyph glyph-name="colon" unicode=":" horiz-adv-x="239" 
d="M188 0h-138v137h111q16 0 21.5 -6t5.5 -19v-112zM188 310h-138v137h111q16 0 21.5 -6t5.5 -19v-112z" />
    <glyph glyph-name="semicolon" unicode=";" horiz-adv-x="238" 
d="M187 310h-138v137h111q16 0 21.5 -6t5.5 -19v-112zM87 -16q4 8 4 10q0 4 -9 9q-11 8 -17.5 12t-10 7t-4.5 7.5t-1 13.5v94h111q16 0 21.5 -6t5.5 -19v-67q0 -27 -3.5 -48.5t-16 -44t-36.5 -50t-65 -64.5l-45 35z" />
    <glyph glyph-name="ellipsis" unicode="&#x2026;" horiz-adv-x="711" 
d="M188 0h-138v137h111q16 0 21.5 -6t5.5 -19v-112zM424 0h-138v137h111q16 0 21.5 -6t5.5 -19v-112zM660 0h-138v137h111q16 0 21.5 -6t5.5 -19v-112z" />
    <glyph glyph-name="periodcentered" unicode="&#xb7;" horiz-adv-x="239" 
d="M188 209h-138v137h111q16 0 21.5 -6t5.5 -19v-112z" />
    <glyph glyph-name="bullet" unicode="&#x2022;" horiz-adv-x="363" 
d="M298 172h-233v221h199q20 0 27 -6.5t7 -24.5v-190z" />
    <glyph glyph-name="slash" unicode="/" horiz-adv-x="476" 
d="M3 0l335 663h135l-335 -663h-135z" />
    <glyph glyph-name="parenleft" unicode="(" horiz-adv-x="356" 
d="M62 217q0 68 15.5 133.5t43.5 125t68 111t89 90.5l59 -50q-34 -48 -59.5 -95.5t-43 -97t-26 -103.5t-8.5 -114t8.5 -114t26 -103.5t43 -97.5t59.5 -96l-59 -49q-49 39 -89 90t-68 110.5t-43.5 125.5t-15.5 134z" />
    <glyph glyph-name="brokenbar" unicode="&#xa6;" horiz-adv-x="274" 
d="M76 709h122v-418h-122v418zM76 189h122v-418h-122v418z" />
    <glyph glyph-name="parenright" unicode=")" horiz-adv-x="356" 
d="M294 217q0 -68 -15.5 -134t-43.5 -125.5t-68 -110.5t-89 -90l-59 49q34 48 59.5 96t42.5 97.5t26 103.5t9 114t-9 114t-26 103.5t-42.5 97t-59.5 95.5l59 50q49 -39 89 -90.5t68 -111t43.5 -125t15.5 -133.5z" />
    <glyph glyph-name="bracketleft" unicode="[" horiz-adv-x="352" 
d="M74 663h259v-116h-134v-660h134v-116h-259v892z" />
    <glyph glyph-name="backslash" unicode="\" horiz-adv-x="476" 
d="M338 0l-335 663h135l335 -663h-135z" />
    <glyph glyph-name="bracketright" unicode="]" horiz-adv-x="352" 
d="M278 -229h-259v116h134v660h-134v116h259v-892z" />
    <glyph glyph-name="braceleft" unicode="{" horiz-adv-x="381" 
d="M40 260q57 18 80.5 38t23.5 55q0 19 -4 44t-8.5 51.5t-8 52.5t-3.5 47q0 32 11 55.5t30.5 39t46 23t57.5 7.5q25 0 53 -5t52 -11v-79l-104 -21q-19 -4 -19 -23q0 -11 3.5 -32.5t7.5 -47.5t7.5 -52.5t3.5 -48.5q0 -23 -5.5 -42.5t-19.5 -36t-38 -31t-61 -27.5
q37 -13 61 -27t38 -31t19.5 -36.5t5.5 -42.5q0 -21 -3.5 -48t-7.5 -52.5t-7.5 -47t-3.5 -32.5t4 -16t15 -7l104 -22v-78q-24 -7 -52 -11.5t-53 -4.5q-31 0 -57.5 7.5t-46 23t-30.5 39t-11 55.5q0 21 3.5 47t8 52t8.5 50.5t4 44.5q0 35 -24 55t-80 39v87z" />
    <glyph glyph-name="bar" unicode="|" horiz-adv-x="274" 
d="M76 709h122v-938h-122v938z" />
    <glyph glyph-name="braceright" unicode="}" horiz-adv-x="381" 
d="M341 173q-56 -19 -80 -39t-24 -55q0 -20 3.5 -44.5t8 -50.5t8.5 -52t4 -47q0 -32 -11 -55.5t-30.5 -39t-46 -23t-57.5 -7.5q-25 0 -53 4.5t-52 11.5v78l104 22q11 2 15 7t4 16t-3.5 32.5t-7.5 47t-7.5 52.5t-3.5 48q0 23 5.5 42.5t19.5 36.5t38 31t61 27q-37 13 -61 27.5
t-38 31t-19.5 36t-5.5 42.5q0 22 3.5 48.5t7.5 52.5t7.5 47.5t3.5 32.5q0 19 -19 23l-104 21v79q24 6 52 11t53 5q31 0 57.5 -7.5t46 -23t30.5 -39t11 -55.5q0 -21 -4 -47t-8.5 -52.5t-8 -51.5t-3.5 -44q0 -35 23.5 -55t80.5 -38v-87z" />
    <glyph glyph-name="hyphen" unicode="-" horiz-adv-x="423" 
d="M49 189v109h325v-109h-325z" />
    <glyph glyph-name="uni00AD" unicode="&#xad;" horiz-adv-x="423" 
d="M49 189v109h325v-109h-325z" />
    <glyph glyph-name="endash" unicode="&#x2013;" horiz-adv-x="598" 
d="M49 189v109h500v-109h-500z" />
    <glyph glyph-name="emdash" unicode="&#x2014;" horiz-adv-x="1098" 
d="M49 189v109h1000v-109h-1000z" />
    <glyph glyph-name="underscore" unicode="_" horiz-adv-x="514" 
d="M23 -149v105h468v-105h-468z" />
    <glyph glyph-name="dagger" unicode="&#x2020;" horiz-adv-x="583" 
d="M351 663v-118q0 -20 -1 -38t-4 -42l-5 -48l74 8q26 3 43.5 4t36.5 1h42v-112h-42q-19 0 -36.5 1t-43.5 4l-74 9l5 -47q2 -23 3.5 -41t1.5 -38v-184q0 -21 -2 -51t-5.5 -63.5t-7.5 -69t-7 -67.5h-75q-3 32 -7 67.5t-7.5 69t-5.5 63.5t-2 51v184q0 20 1.5 38t3.5 41l5 47
l-74 -9q-26 -3 -43.5 -4t-36.5 -1h-42v112h42q19 0 36.5 -1t43.5 -4l74 -8l-5 48q-3 24 -4 42t-1 38v118h119z" />
    <glyph glyph-name="daggerdbl" unicode="&#x2021;" horiz-adv-x="583" 
d="M232 -106q0 12 1.5 31.5t3.5 37.5l5 48l-74 -8q-24 -3 -41 -4t-35 -1h-46v112h55q14 0 30.5 -1.5t36.5 -3.5l74 -9q-5 37 -7.5 67.5t-2.5 50.5t2.5 50.5t7.5 67.5l-74 -9q-20 -2 -36.5 -3.5t-30.5 -1.5h-55v112h46q18 0 35 -1t41 -4l74 -8l-5 48q-2 18 -3.5 36t-1.5 30
v132h119v-132q0 -12 -1.5 -30t-3.5 -36l-5 -48l74 8q24 3 41 4t35 1h46v-112h-55q-14 0 -30.5 1.5t-36.5 3.5l-74 9q5 -37 7.5 -67.5t2.5 -50.5t-2.5 -50.5t-7.5 -67.5l74 9q20 2 36.5 3.5t30.5 1.5h55v-112h-46q-18 0 -35 1t-41 4l-74 8l5 -48q2 -18 3.5 -37.5t1.5 -31.5
v-123h-119v123z" />
    <glyph glyph-name="section" unicode="&#xa7;" horiz-adv-x="616" 
d="M488 72q53 -48 53 -125q0 -47 -20.5 -82t-54 -58.5t-76.5 -35t-88 -11.5q-57 0 -110.5 14.5t-103.5 41.5l28 90l60 -11q35 -7 65 -10.5t53 -3.5q54 0 83.5 18.5t29.5 51.5q0 29 -20.5 44t-65.5 28l-57 16q-43 12 -79.5 27.5t-63.5 37.5t-42.5 53t-15.5 75q0 40 18 71.5
t46 56.5q-25 23 -38.5 54t-13.5 72q0 46 20.5 81.5t54 58.5t76.5 35t88 12q60 0 112 -14.5t102 -42.5l-28 -89l-60 11q-34 6 -63 10t-55 4q-54 0 -83 -19t-29 -52q0 -28 20.5 -44t64.5 -28l57 -16q43 -12 80 -27.5t64 -37.5t42 -53t15 -74q0 -39 -18.5 -71t-46.5 -58z
M398 126q14 15 22 32.5t8 34.5q0 31 -23 47.5t-76 31.5l-59 17q-17 5 -29.5 9t-23.5 9q-14 -15 -21.5 -32t-7.5 -34q0 -32 22.5 -48t75.5 -31l60 -17q29 -8 52 -19z" />
    <glyph glyph-name="paragraph" unicode="&#xb6;" horiz-adv-x="589" 
d="M233 -229v601h-106q-26 0 -43 4.5t-26.5 13.5t-13 23t-3.5 34v216h541v-96h-81v-796h-100v796h-68v-796h-100z" />
    <glyph glyph-name="registered" unicode="&#xae;" horiz-adv-x="769" 
d="M395 270q-5 10 -7 12t-6 2h-41v-94h-80v287h136q55 0 84 -23t29 -69q0 -26 -14 -46.5t-35 -35.5l61 -113h-76q-11 0 -15 10zM724 332q0 -72 -26.5 -134.5t-72.5 -108.5t-108 -72.5t-133 -26.5t-133 26.5t-108 72.5t-72.5 108.5t-26.5 134.5t26.5 134.5t72.5 108t108 72
t133 26.5t133 -26.5t108 -72t72.5 -108t26.5 -134.5zM625 332q0 55 -17 100.5t-48 78.5t-76 51t-100 18q-56 0 -100.5 -18t-75.5 -51t-48 -78.5t-17 -100.5q0 -56 17 -101.5t48 -78.5t75.5 -51t100.5 -18q55 0 100 18t76 51t48 78.5t17 101.5zM341 345h68q8 0 13 6
q9 12 9 30q0 15 -9 24t-35 9h-46v-69z" />
    <glyph glyph-name="copyright" unicode="&#xa9;" horiz-adv-x="769" 
d="M515 252q-24 -29 -60.5 -47t-73.5 -18q-30 0 -56 11t-45 30.5t-29.5 46.5t-10.5 60t11.5 60t31 46t45.5 29.5t55 10.5q42 0 74.5 -23.5t50.5 -66.5l-48 -34l-33 29q-12 11 -22.5 16.5t-25.5 5.5q-25 0 -41.5 -18t-16.5 -56q0 -34 16 -53.5t51 -19.5q23 0 51 14l47 23z
M724 332q0 -72 -26.5 -134.5t-72.5 -108.5t-108 -72.5t-133 -26.5t-133 26.5t-108 72.5t-72.5 108.5t-26.5 134.5t26.5 134.5t72.5 108t108 72t133 26.5t133 -26.5t108 -72t72.5 -108t26.5 -134.5zM625 332q0 55 -17 100.5t-48 78.5t-76 51t-100 18q-56 0 -100.5 -18
t-75.5 -51t-48 -78.5t-17 -100.5q0 -56 17 -101.5t48 -78.5t75.5 -51t100.5 -18q55 0 100 18t76 51t48 78.5t17 101.5z" />
    <glyph glyph-name="trademark" unicode="&#x2122;" horiz-adv-x="730" 
d="M681 663v-311h-83v178l-67 -91h-45q-7 0 -9.5 1t-5.5 5l-65 85v-178h-82v311h67q8 0 14 -7l99 -130h1l95 130q3 4 6 5.5t9 1.5h66zM200 352h-89v233h-91v78h269v-78h-89v-233z" />
    <glyph glyph-name="quotedblleft" unicode="&#x201c;" horiz-adv-x="428" 
d="M338 531q-4 -8 -4 -10q0 -4 9 -10l15 -9q12 -8 15 -12.5t3 -18.5v-93h-111q-16 0 -21.5 6t-5.5 19v67q0 27 3.5 48.5t16 44t36.5 49.5t65 65l45 -35zM141 531q-4 -8 -4 -10q0 -4 9 -10l15 -9q12 -8 15 -12.5t3 -18.5v-93h-111q-16 0 -21.5 6t-5.5 19v67q0 27 3.5 48.5
t16 44t36.5 49.5t65 65l45 -35z" />
    <glyph glyph-name="quotedblright" unicode="&#x201d;" horiz-adv-x="428" 
d="M90 510q4 8 4 10q0 4 -9 10l-15 9q-12 8 -15 12.5t-3 18.5v93h111q16 0 21.5 -6t5.5 -19v-67q0 -27 -3.5 -48.5t-16 -44t-36.5 -50t-65 -64.5l-45 35zM287 510q4 8 4 10q0 4 -9 10l-15 9q-12 8 -15 12.5t-3 18.5v93h111q16 0 21.5 -6t5.5 -19v-67q0 -27 -3.5 -48.5
t-16 -44t-36.5 -50t-65 -64.5l-45 35z" />
    <glyph glyph-name="quoteleft" unicode="&#x2018;" horiz-adv-x="231" 
d="M141 531q-4 -8 -4 -10q0 -4 9 -10l15 -9q12 -8 15 -12.5t3 -18.5v-93h-111q-16 0 -21.5 6t-5.5 19v67q0 27 3.5 48.5t16 44t36.5 49.5t65 65l45 -35z" />
    <glyph glyph-name="quoteright" unicode="&#x2019;" horiz-adv-x="231" 
d="M90 510q4 8 4 10q0 4 -9 10l-15 9q-12 8 -15 12.5t-3 18.5v93h111q16 0 21.5 -6t5.5 -19v-67q0 -27 -3.5 -48.5t-16 -44t-36.5 -50t-65 -64.5l-45 35z" />
    <glyph glyph-name="guillemotleft" unicode="&#xab;" horiz-adv-x="641" 
d="M41 278l228 180l58 -58l-147 -155v-2l147 -154l-58 -59l-218 172q-7 5 -8.5 9t-1.5 12v55zM312 278l228 180l58 -58l-147 -155v-2l147 -154l-58 -59l-218 172q-7 5 -8.5 9t-1.5 12v55z" />
    <glyph glyph-name="guillemotright" unicode="&#xbb;" horiz-adv-x="641" 
d="M599 210l-228 -180l-58 58l147 155v2l-147 154l58 59l218 -172q7 -5 8.5 -9t1.5 -12v-55zM328 210l-228 -180l-58 58l147 155v2l-147 154l58 59l218 -172q7 -5 8.5 -9t1.5 -12v-55z" />
    <glyph glyph-name="guilsinglleft" unicode="&#x2039;" horiz-adv-x="369" 
d="M41 278l228 180l58 -58l-147 -155v-2l147 -154l-58 -59l-218 172q-7 5 -8.5 9t-1.5 12v55z" />
    <glyph glyph-name="guilsinglright" unicode="&#x203a;" horiz-adv-x="369" 
d="M328 210l-228 -180l-58 58l147 155v2l-147 154l58 59l218 -172q7 -5 8.5 -9t1.5 -12v-55z" />
    <glyph glyph-name="quotesinglbase" unicode="&#x201a;" horiz-adv-x="238" 
d="M87 -91q4 8 4 10q0 4 -9 10l-15 9q-12 8 -15 12.5t-3 18.5v93h111q16 0 21.5 -6t5.5 -19v-67q0 -27 -3.5 -48.5t-16 -44t-36.5 -50t-65 -64.5l-45 35z" />
    <glyph glyph-name="quotedblbase" unicode="&#x201e;" horiz-adv-x="435" 
d="M87 -91q4 8 4 10q0 4 -9 10l-15 9q-12 8 -15 12.5t-3 18.5v93h111q16 0 21.5 -6t5.5 -19v-67q0 -27 -3.5 -48.5t-16 -44t-36.5 -50t-65 -64.5l-45 35zM284 -91q4 8 4 10q0 4 -9 10l-15 9q-12 8 -15 12.5t-3 18.5v93h111q16 0 21.5 -6t5.5 -19v-67q0 -27 -3.5 -48.5
t-16 -44t-36.5 -50t-65 -64.5l-45 35z" />
    <glyph glyph-name="ordfeminine" unicode="&#xaa;" horiz-adv-x="490" 
d="M290 515q0 35 -18 48t-53 13q-20 0 -42.5 -5.5t-49.5 -13.5l-35 -11l-33 62q42 30 85.5 47.5t88.5 17.5q37 0 67.5 -9.5t52.5 -29t34.5 -50t12.5 -71.5v-158l46 -10v-60q-15 -9 -33.5 -14.5t-33.5 -5.5q-24 0 -40.5 8.5t-32.5 24.5q-30 -19 -61.5 -29.5t-56.5 -10.5
q-33 0 -59.5 10t-46 28t-30 42t-10.5 52q0 53 37 82t102 29h5q25 0 54 -3.5t50 -8.5v26zM290 417q0 7 -7 7h-109q-26 0 -26 -29q0 -20 15 -32.5t45 -12.5q14 0 34 3t34 9q9 4 11.5 7t2.5 9v39z" />
    <glyph glyph-name="ordmasculine" unicode="&#xba;" horiz-adv-x="490" 
d="M450 466q0 -49 -16.5 -87.5t-45 -64.5t-65.5 -40t-78 -14t-78.5 14t-65.5 40t-44.5 64.5t-16.5 87.5t16.5 87.5t44.5 65t65.5 40.5t78.5 14t78 -14t65.5 -40.5t45 -65t16.5 -87.5zM337 466q0 48 -23 75t-69 27t-69 -27t-23 -75q0 -47 23 -74.5t69 -27.5t69 27.5t23 74.5z
" />
    <glyph glyph-name="arrowleft" unicode="&#x2190;" horiz-adv-x="789" 
d="M266 483l54 -54l-115 -135h526v-100h-528l117 -139l-54 -54l-209 209v50q0 8 1.5 12.5t7.5 10.5z" />
    <glyph glyph-name="arrowup" unicode="&#x2191;" horiz-adv-x="789" 
d="M635 371l-53 -53l-132 114v-525h-106v527l-136 -116l-54 53l209 210h50q8 0 12.5 -2t10.5 -8z" />
    <glyph glyph-name="arrowright" unicode="&#x2192;" horiz-adv-x="789" 
d="M522 5l-54 54l115 135h-526v100h528l-117 139l54 54l209 -209v-50q0 -8 -1.5 -12.5t-7.5 -10.5z" />
    <glyph glyph-name="arrowdown" unicode="&#x2193;" horiz-adv-x="789" 
d="M154 116l54 54l132 -115v526h106v-528l136 117l53 -53l-208 -210h-51q-7 0 -12 1.5t-11 7.5z" />
    <glyph glyph-name="zero" unicode="0" 
d="M606 326q0 -79 -20 -141t-56.5 -105.5t-88 -66.5t-115.5 -23t-116 22.5t-88.5 66t-56.5 105.5t-20 142v11q0 79 20 141t56.5 105.5t88 66.5t114.5 23q64 0 116 -23t89 -66t57 -105.5t20 -141.5v-11zM465 337q0 110 -34.5 159t-104.5 49q-71 0 -105.5 -49t-34.5 -159v-11
q0 -110 34.5 -159t104.5 -49t105 48.5t35 159.5v11z" />
    <glyph glyph-name="one" unicode="1" 
d="M121 112h169v406h-1q-12 -5 -28 -11.5t-47 -16.5l-83 -26l-39 95l214 94q14 6 23 8t23 2h73v-551h139v-112h-443v112z" />
    <glyph glyph-name="two" unicode="2" 
d="M257 112h304v-112h-475v69q0 14 3 21t14 19l200 200q28 28 47.5 49t32 39t18.5 34.5t6 35.5q0 44 -27 63.5t-72 19.5q-51 0 -131 -29l-62 -23l-42 82q59 42 122 67.5t127 25.5q47 0 88 -13t71.5 -38.5t48 -62.5t17.5 -85q0 -33 -8.5 -62t-29 -58t-53.5 -62.5t-81 -75.5z
" />
    <glyph glyph-name="three" unicode="3" 
d="M373 388q11 0 17.5 1.5t11.5 9.5q17 26 17 66q0 47 -27 66t-72 19q-31 0 -66 -8t-76 -22l-59 -21l-42 83q60 44 123 67.5t127 23.5q48 0 89 -12.5t71 -36t47.5 -57t17.5 -76.5q0 -38 -18 -73.5t-52 -67.5q46 -22 69 -60.5t23 -86.5q0 -50 -18 -89.5t-51 -67t-79 -42
t-101 -14.5q-79 0 -149.5 28t-123.5 78l44 77l58 -22q46 -17 87.5 -28.5t76.5 -11.5q52 0 84 24t32 72q0 42 -18.5 57.5t-66.5 15.5h-83q-10 0 -14 3t-4 12v93h125z" />
    <glyph glyph-name="four" unicode="4" 
d="M380 260v260q-8 -13 -23.5 -33.5t-26.5 -34.5l-98 -126q-13 -16 -28 -34.5t-28 -31.5h204zM344 643q9 11 16.5 15.5t21.5 4.5h132v-403h87v-111h-87v-149h-134v149h-339v91q0 14 3 21.5t13 19.5z" />
    <glyph glyph-name="five" unicode="5" 
d="M126 314q-17 10 -20.5 16.5t-3.5 19.5v313h423v-116h-303v-73q0 -24 -1 -44.5t-3 -36.5q29 14 63 20.5t69 6.5q48 0 89 -14.5t70 -40.5t45.5 -64t16.5 -84q0 -47 -16 -88t-47.5 -72t-78 -49t-107.5 -18q-69 0 -138.5 27.5t-120.5 72.5l43 78l74 -27q44 -16 75 -23t60 -7
q55 0 86.5 28t31.5 80q0 25 -9.5 42.5t-26 29t-38 16.5t-46.5 5q-27 0 -58 -6.5t-56 -15.5q-9 -3 -16.5 -3.5t-19.5 6.5z" />
    <glyph glyph-name="six" unicode="6" 
d="M517 533q-32 8 -66 15t-66 7q-78 0 -125.5 -43.5t-55.5 -133.5l22 10q36 17 74 26.5t74 9.5q45 0 84.5 -14t68.5 -40.5t45.5 -64.5t16.5 -87q0 -48 -18 -89.5t-50.5 -72t-78 -48.5t-99.5 -18q-69 0 -121.5 25t-87.5 68t-53 100.5t-18 122.5v5q0 84 24 151t65.5 114
t97.5 72t121 25q97 0 180 -54zM202 263q0 -34 10 -62t28 -48.5t43.5 -32t56.5 -11.5q54 0 86 30t32 81t-30.5 73.5t-84.5 22.5q-38 0 -68.5 -8t-48.5 -16t-21 -13t-3 -16z" />
    <glyph glyph-name="seven" unicode="7" 
d="M185 0q1 47 7 87.5t16.5 78t27.5 73t41 73.5q32 50 57 88t44.5 66t33.5 47.5t23 32.5h-363v117h513v-61q0 -22 -3.5 -32t-12.5 -26l-136 -218q-27 -44 -47 -85t-33 -80.5t-20 -79t-9 -81.5h-139z" />
    <glyph glyph-name="eight" unicode="8" 
d="M54 199q0 52 28.5 90t70.5 64q-32 22 -52.5 54.5t-20.5 78.5q0 40 18 74.5t50 59.5t76.5 39t98.5 14q56 0 101.5 -14t78 -38.5t50 -58t17.5 -71.5q0 -40 -22 -77t-59 -66q51 -24 79 -61t28 -89q0 -42 -19.5 -80t-55 -66.5t-85 -45t-109.5 -16.5q-58 0 -108 14.5
t-86.5 41.5t-57.5 66t-21 87zM210 488q0 -17 8.5 -29t24.5 -21.5t39.5 -17.5t53.5 -17l41 -14q11 -4 15 -3t14 10q15 14 27.5 35.5t12.5 42.5q0 40 -34.5 62t-90.5 22q-46 0 -78.5 -17.5t-32.5 -52.5zM185 212q0 -47 39.5 -75.5t102.5 -28.5q28 0 52 6.5t42 18t28.5 27.5
t10.5 36q0 15 -6.5 25t-22.5 19t-43 18.5t-69 23.5l-63 21q-13 5 -18 3t-13 -9q-19 -17 -29.5 -39t-10.5 -46z" />
    <glyph glyph-name="nine" unicode="9" 
d="M306 345q22 0 53 5.5t57 14.5q12 4 18.5 7.5t9.5 7t3.5 8t0.5 11.5q0 71 -38.5 113.5t-101.5 42.5q-54 0 -86 -29.5t-32 -77.5q0 -53 32 -78t84 -25zM276 238q-47 0 -86.5 14.5t-69 41.5t-46 65.5t-16.5 87.5q0 48 18.5 89.5t51.5 71.5t78.5 47.5t99.5 17.5
q69 0 121.5 -25t88 -68t53 -100.5t17.5 -123.5v-5q0 -77 -16.5 -143t-51 -114.5t-88 -76t-127.5 -27.5q-52 0 -107.5 16.5t-97.5 48.5l35 80l40 -10q32 -8 57.5 -13t51.5 -5q84 0 122.5 43.5t41.5 134.5l-22 -11q-38 -19 -75.5 -27t-72.5 -9z" />
    <glyph glyph-name="dollar" unicode="$" 
d="M181 135q35 -8 63.5 -13t51.5 -8v181l-6 2q-101 30 -153.5 74t-52.5 121q0 41 15.5 72.5t44 54t67 36t85.5 16.5l15 120h72v-121q93 -8 177 -42l-21 -94l-53 6q-26 3 -53 5.5t-50 4.5v-148q59 -17 99 -36.5t64.5 -43.5t35 -54t10.5 -67q0 -88 -55 -143t-154 -65l-15 -122
h-72v121q-60 6 -118.5 25t-100.5 45l35 89zM461 194q0 28 -17.5 44t-60.5 31v-153q78 14 78 78zM214 493q0 -25 20.5 -39t61.5 -27v122q-82 -9 -82 -56z" />
    <glyph glyph-name="cent" unicode="&#xa2;" 
d="M564 88q-34 -32 -80 -57.5t-97 -33.5l-15 -126h-72v124q-47 6 -84.5 26.5t-63.5 53t-40 76t-14 95.5q0 51 15.5 94t43 75t64.5 52t79 26l15 130h72v-132q63 -13 106.5 -55t59.5 -101l-82 -41l-45 43q-21 21 -39 32v-259q33 6 77 24l58 24zM228 248q0 -110 72 -135v266
q-32 -11 -52 -43t-20 -88z" />
    <glyph glyph-name="Euro" unicode="&#x20ac;" 
d="M102 424q11 59 36.5 105.5t61.5 78.5t80.5 48.5t94.5 16.5q83 0 144.5 -43.5t96.5 -118.5l-82 -54l-55 47q-28 23 -50.5 35t-53.5 12q-48 0 -85.5 -31t-49.5 -96h190v-72h-199v-23q0 -17 2 -27h197v-72h-185q13 -59 52 -87t92 -28q30 0 62.5 8.5t61.5 25.5l57 32l52 -66
q-21 -29 -50 -52t-62 -39t-67.5 -25t-67.5 -9q-53 0 -98.5 16.5t-81 48t-59.5 75.5t-33 100h-72v59l63 12q-1 8 -1 15v15v21h-62v59z" />
    <glyph glyph-name="florin" unicode="&#x192;" 
d="M255 334v143q0 97 51.5 146.5t142.5 49.5q37 0 70 -9t65 -26l-23 -76l-36 4q-17 2 -32 3t-28 1q-38 0 -61 -18t-23 -66v-150h151v-97h-151v-283q0 -97 -52.5 -146t-142.5 -49q-37 0 -69.5 9t-64.5 26l22 76q26 -5 51.5 -7t45.5 -2q38 0 61 18t23 67v291h-119v75z" />
    <glyph glyph-name="sterling" unicode="&#xa3;" 
d="M589 0h-497v68q0 12 3 19.5t12 18.5l29 35q17 21 22.5 35.5t6.5 28.5q0 12 -4.5 31t-11.5 43h-92v67l69 17q-8 26 -13 52t-5 49q0 46 17 84.5t48 66t74 43t95 15.5q45 0 83.5 -13t70 -35t55.5 -51t39 -60l-80 -55l-60 47q-29 23 -55.5 33.5t-55.5 10.5q-47 0 -73.5 -25
t-26.5 -63q0 -20 4 -42t11 -46h193v-95h-165q6 -20 9.5 -36t3.5 -30q0 -21 -10 -41t-26 -37l-22 -23h352v-112z" />
    <glyph glyph-name="yen" unicode="&#xa5;" 
d="M638 663l-204 -376h102v-82h-140v-32h140v-82h-140v-91h-138v91h-138v82h138v32h-138v82h98l-206 376h139q8 0 12 -2.5t7 -8.5l88 -167q20 -39 39 -80.5t31 -70.5q12 29 31.5 70.5t39.5 80.5l88 167q5 11 19 11h132z" />
    <glyph glyph-name="numbersign" unicode="#" 
d="M434 663h105l-33 -186h80v-98h-98l-17 -97h115v-97h-132l-32 -185h-105l32 185h-100l-32 -185h-105l32 185h-79v97h96l17 97h-113v98h131l33 186h105l-33 -186h100zM266 282h100l17 97h-100z" />
    <glyph glyph-name="percent" unicode="%" horiz-adv-x="959" 
d="M149 499q0 -37 20 -56.5t55 -19.5t55.5 19t20.5 57t-20 57.5t-55 19.5q-36 0 -56 -19.5t-20 -57.5zM403 499q0 -40 -15 -72t-39.5 -54.5t-57 -34.5t-66.5 -12q-35 0 -67.5 12t-57 34t-39.5 54t-15 73q0 40 15 72.5t39.5 55t56.5 34.5t67 12q34 0 66.5 -12t57.5 -34.5
t40 -54.5t15 -73zM659 163q0 -37 20 -56.5t55 -19.5t55.5 19t20.5 57t-20 57.5t-55 19.5q-36 0 -56 -19.5t-20 -57.5zM913 163q0 -40 -15 -72t-39.5 -54.5t-57 -34.5t-66.5 -12q-35 0 -67.5 12t-57 34t-39.5 54t-15 73q0 40 15 72.5t39.5 55t56.5 34.5t67 12q34 0 66.5 -12
t57.5 -34.5t40 -54.5t15 -73zM256 0l327 663h120l-328 -663h-119z" />
    <glyph glyph-name="perthousand" unicode="&#x2030;" horiz-adv-x="1358" 
d="M149 499q0 -37 20 -56.5t55 -19.5t55.5 19t20.5 57t-20 57.5t-55 19.5q-36 0 -56 -19.5t-20 -57.5zM403 499q0 -40 -15 -72t-39.5 -54.5t-57 -34.5t-66.5 -12q-35 0 -67.5 12t-57 34t-39.5 54t-15 73q0 40 15 72.5t39.5 55t56.5 34.5t67 12q34 0 66.5 -12t57.5 -34.5
t40 -54.5t15 -73zM659 163q0 -37 20 -56.5t55 -19.5t55.5 19t20.5 57t-20 57.5t-55 19.5q-36 0 -56 -19.5t-20 -57.5zM913 163q0 -40 -15 -72t-39.5 -54.5t-57 -34.5t-66.5 -12q-35 0 -67.5 12t-57 34t-39.5 54t-15 73q0 40 15 72.5t39.5 55t56.5 34.5t67 12q34 0 66.5 -12
t57.5 -34.5t40 -54.5t15 -73zM1058 163q0 -37 20 -56.5t55 -19.5t55.5 19t20.5 57t-20 57.5t-55 19.5q-36 0 -56 -19.5t-20 -57.5zM1312 163q0 -40 -15 -72t-39.5 -54.5t-57 -34.5t-66.5 -12q-35 0 -67.5 12t-57 34t-39.5 54t-15 73q0 40 15 72.5t39.5 55t56.5 34.5t67 12
q34 0 66.5 -12t57.5 -34.5t40 -54.5t15 -73zM256 0l327 663h120l-328 -663h-119z" />
    <glyph glyph-name="plus" unicode="+" horiz-adv-x="558" 
d="M333 39h-110v152h-150v110h150v150h110v-150h151v-110h-151v-152z" />
    <glyph glyph-name="minus" unicode="&#x2212;" horiz-adv-x="558" 
d="M73 191v110h411v-110h-411z" />
    <glyph glyph-name="multiply" unicode="&#xd7;" horiz-adv-x="558" 
d="M463 138l-78 -78l-107 107l-106 -106l-78 78l106 106l-106 106l78 78l106 -106l107 107l78 -78l-107 -107z" />
    <glyph glyph-name="less" unicode="&#x3c;" horiz-adv-x="558" 
d="M484 476v-127l-246 -104v-2l246 -101v-127l-411 185v90z" />
    <glyph glyph-name="divide" unicode="&#xf7;" horiz-adv-x="558" 
d="M73 196v110h411v-110h-411zM341 21h-126v122h103q14 0 18.5 -5t4.5 -17v-100zM341 358h-126v122h103q14 0 18.5 -5t4.5 -17v-100z" />
    <glyph glyph-name="equal" unicode="=" horiz-adv-x="558" 
d="M73 291v110h411v-110h-411zM73 90v110h411v-110h-411z" />
    <glyph glyph-name="logicalnot" unicode="&#xac;" horiz-adv-x="558" 
d="M484 90h-110v201h-301v110h411v-311z" />
    <glyph glyph-name="greater" unicode="&#x3e;" horiz-adv-x="558" 
d="M484 290v-90l-411 -185v127l246 101v2l-246 104v127z" />
    <glyph glyph-name="notequal" unicode="&#x2260;" horiz-adv-x="558" 
d="M219 6l-72 27l24 57h-98v110h144l39 91h-183v110h228l38 87l71 -27l-26 -60h100v-110h-146l-38 -91h184v-110h-230z" />
    <glyph glyph-name="approxequal" unicode="&#x2248;" horiz-adv-x="558" 
d="M356 282q-23 0 -44.5 7.5t-41.5 16t-38 16t-35 7.5q-21 0 -35 -12t-28 -37l-75 26q4 28 17 52t32 42t43 28t51 10q24 0 46 -7t42 -16t38 -16t34 -7q20 0 34.5 11.5t28.5 36.5l74 -26q-5 -28 -17.5 -52t-31.5 -42t-43 -28t-51 -10zM356 58q-23 0 -44.5 7.5t-41.5 16
t-38 16t-35 7.5q-21 0 -35 -11.5t-28 -36.5l-75 26q4 27 17 51t32 42t43 28.5t51 10.5q24 0 46 -7.5t42 -16t38 -16t34 -7.5q20 0 34.5 12t28.5 36l74 -25q-5 -28 -17.5 -52t-31.5 -42t-43 -28.5t-51 -10.5z" />
    <glyph glyph-name="plusminus" unicode="&#xb1;" horiz-adv-x="558" 
d="M333 177h-110v117h-150v110h150v116h110v-116h151v-110h-151v-117zM73 0v110h411v-110h-411z" />
    <glyph glyph-name="lessequal" unicode="&#x2264;" horiz-adv-x="558" 
d="M73 0v110h411v-110h-411zM484 531v-117l-225 -65v-2l225 -65v-117l-411 138v90z" />
    <glyph glyph-name="greaterequal" unicode="&#x2265;" horiz-adv-x="558" 
d="M73 0v110h411v-110h-411zM484 393v-90l-411 -138v117l225 65v2l-225 65v117z" />
    <glyph glyph-name="asciicircum" unicode="^" horiz-adv-x="558" 
d="M325 673l175 -227l-94 -63l-126 161h-2l-126 -161l-93 63l175 227h91z" />
    <glyph glyph-name="asciitilde" unicode="~" horiz-adv-x="558" 
d="M356 278q-23 0 -44.5 7.5t-41.5 16t-38 16t-35 7.5q-21 0 -35 -11.5t-28 -36.5l-75 26q4 27 17 51t32 42t43 28.5t51 10.5q24 0 46 -7.5t42 -16t38 -16t34 -7.5q20 0 34.5 12t28.5 36l74 -25q-5 -28 -17.5 -52t-31.5 -42t-43 -28.5t-51 -10.5z" />
    <glyph glyph-name="lozenge" unicode="&#x25ca;" horiz-adv-x="649" 
d="M464 331l-140 218l-140 -217l140 -218zM270 0q-10 0 -13.5 2.5t-7.5 7.5l-184 284q-15 22 -15 38q0 8 3.5 16t11.5 21l190 294h125q10 0 13.5 -2.5t7.5 -8.5l183 -283q8 -13 10.5 -21t3.5 -17q0 -8 -3 -16t-11 -21l-191 -294h-123z" />
    <glyph glyph-name="degree" unicode="&#xb0;" horiz-adv-x="460" 
d="M155 498q0 -38 19.5 -57t54.5 -19h2q35 0 54.5 19t19.5 57q0 37 -19.5 56t-54.5 19h-2q-35 0 -54.5 -19t-19.5 -56zM409 498q0 -42 -15.5 -74.5t-40.5 -55t-57 -34t-65 -11.5h-2q-33 0 -65 11.5t-57 34t-40.5 55t-15.5 74.5t15.5 74.5t40.5 55t57 34t65 11.5h2
q33 0 65 -11.5t57 -34t40.5 -55t15.5 -74.5z" />
    <glyph glyph-name="quotesingle" unicode="'" horiz-adv-x="253" 
d="M195 663v-53q0 -23 -1.5 -47.5t-6.5 -60.5l-17 -130h-87l-17 130q-5 36 -6.5 60.5t-1.5 47.5v53h137z" />
    <glyph glyph-name="quotedbl" unicode="&#x22;" horiz-adv-x="446" 
d="M195 663v-53q0 -23 -1.5 -47.5t-6.5 -60.5l-17 -130h-87l-17 130q-5 36 -6.5 60.5t-1.5 47.5v53h137zM388 663v-53q0 -23 -1.5 -47.5t-6.5 -60.5l-17 -130h-87l-17 130q-5 36 -6.5 60.5t-1.5 47.5v53h137z" />
    <glyph glyph-name="radical" unicode="&#x221a;" horiz-adv-x="763" 
d="M640 779q4 9 6 11.5t13 2.5h120l-321 -793h-118q-9 0 -13 3t-6 8l-159 374h-95v103h176q8 0 11.5 -2.5t7.5 -11.5l91 -221q11 -27 22 -59.5t19 -59.5q9 32 25 79t37 101z" />
    <glyph glyph-name="currency" unicode="&#xa4;" 
d="M430 150q-23 -13 -49.5 -19t-53.5 -6h-3q-58 0 -104 25l-74 -74l-83 82l75 75q-22 40 -22 98q0 57 22 98l-75 74l83 83l74 -74q46 25 104 25h3q27 0 53.5 -6t49.5 -19l75 74l82 -83l-75 -74q22 -41 22 -98q0 -58 -22 -98l75 -75l-82 -82zM232 331q0 -48 23.5 -74
t68.5 -26h3q45 0 68 26t23 74t-23 74t-68 26h-3q-45 0 -68.5 -26t-23.5 -74z" />
    <glyph glyph-name="infinity" unicode="&#x221e;" horiz-adv-x="745" 
d="M232 240q18 0 31.5 9t24 25t18 36.5t15.5 43.5q3 9 3 15q0 7 -6 15q-14 20 -34 31.5t-41 11.5q-32 0 -54 -23.5t-22 -73.5q0 -37 16.5 -63.5t48.5 -26.5zM364 457q25 35 60 56t85 21q40 0 74 -16t58.5 -43.5t38 -65t13.5 -80.5q0 -42 -13 -78.5t-37 -64t-57 -43.5
t-72 -16q-42 0 -74.5 20.5t-59.5 55.5q-25 -35 -59.5 -55.5t-85.5 -20.5q-41 0 -74.5 16t-57.5 43.5t-37.5 65t-13.5 80.5q0 42 13 78.5t36.5 64t56.5 43.5t73 16q42 0 74.5 -20.5t58.5 -56.5zM513 421q-18 0 -31.5 -9.5t-24 -25t-18.5 -36.5t-15 -44q-3 -9 -3 -14
q0 -9 6 -16q14 -19 34 -30.5t41 -11.5q31 0 53 23.5t22 72.5q0 37 -16 64t-48 27z" />
    <glyph glyph-name="uni00B5" unicode="&#xb5;" horiz-adv-x="569" 
d="M58 488h129v-302q0 -36 16 -53q11 -11 29.5 -15.5t46.5 -4.5q25 0 49.5 3.5t40.5 9.5q8 3 9 8t1 12v342h129v-488h-98l-17 42l-28 -15q-34 -18 -60.5 -26.5t-55.5 -8.5q-35 0 -62 9v-230h-129v717z" />
    <glyph glyph-name="partialdiff" unicode="&#x2202;" horiz-adv-x="652" 
d="M102 619q35 24 81 39t97 15q68 0 124.5 -26.5t97.5 -74.5t64 -114.5t23 -146.5v-5q0 -65 -18 -122.5t-53.5 -100.5t-87.5 -68t-121 -25q-55 0 -100.5 17.5t-78.5 48.5t-51.5 72.5t-18.5 89.5q0 49 17 87t46.5 64.5t69 40.5t85.5 14q36 0 73 -10t75 -26l19 -8
q-7 86 -53.5 128.5t-123.5 42.5q-20 0 -40.5 -2t-41.5 -7l-50 -12zM447 261q0 11 -3.5 16t-13.5 10t-24 10t-30 8.5t-33.5 5.5t-33.5 2q-54 0 -83.5 -22.5t-29.5 -70.5t31 -78t84 -30q31 0 56.5 11t43 31t27 47t9.5 60z" />
    <glyph glyph-name="summation" unicode="&#x2211;" horiz-adv-x="648" 
d="M44 663h555v-116h-374l273 -306v-42l-273 -313h384v-115h-564v72q0 12 2.5 19t11.5 18l296 343l-296 330q-9 10 -12 17t-3 20v73z" />
    <glyph glyph-name="product" unicode="&#x220f;" horiz-adv-x="796" 
d="M504 547h-212v-776h-136v776h-122v116h727v-116h-122v-776h-135v776z" />
    <glyph glyph-name="integral" unicode="&#x222b;" horiz-adv-x="662" 
d="M351 -51q0 35 -13 76.5t-32 86.5t-41.5 92.5t-41.5 94t-32 91.5t-13 85q0 49 15.5 86t43 62t64.5 37.5t80 12.5q39 0 72 -9.5t65 -26.5l-24 -78q-27 5 -51.5 7.5t-42.5 2.5q-44 0 -67 -22t-23 -65q0 -35 13 -76.5t32 -86.5t42 -92.5t42 -94t32 -91.5t13 -85
q0 -48 -15 -85t-41.5 -61.5t-64 -37.5t-82.5 -13q-40 0 -72.5 9t-64.5 26l23 78q27 -5 52 -7t42 -2q44 0 67 20.5t23 65.5z" />
    <glyph glyph-name="Ohm" unicode="&#x2126;" horiz-adv-x="748" 
d="M334 0h-279v111h131q-40 32 -67 64.5t-43.5 64.5t-24 64.5t-7.5 65.5q0 61 26 116.5t71 96.5t105 65.5t128 24.5q67 0 127 -24.5t105 -65.5t71 -96.5t26 -116.5q0 -35 -7.5 -66.5t-24 -62.5t-43.5 -63t-66 -67h130v-111h-279v73v13t1.5 8t3.5 6t7 8l57 65q33 38 55.5 87
t22.5 100q0 45 -15 78.5t-40.5 55.5t-59.5 33t-71 11q-39 0 -73.5 -11.5t-59.5 -34t-39.5 -56t-14.5 -76.5q0 -51 23 -101t55 -86l57 -65q4 -5 6.5 -8.5t4 -6.5t1.5 -7.5v-12.5v-73z" />
    <glyph glyph-name="glyph161" unicode="&#x2206;" horiz-adv-x="684" 
d="M38 80q0 7 0.5 11t2.5 10t6.5 16.5t12.5 31.5l199 514h137q9 0 12.5 -2.5t6.5 -10.5l204 -491q10 -24 15.5 -37t8 -20t3 -11t0.5 -11v-80h-608v80zM424 116q16 0 37 -0.5t37 -2.5q-17 32 -29.5 62.5t-28.5 71.5l-57 142q-17 41 -29 77.5t-20 62.5q-8 -26 -20 -61.5
t-28 -79.5l-52 -141q-13 -33 -25 -67.5t-29 -66.5q16 2 37 2.5t37 0.5h170z" />
    <glyph glyph-name="litre" unicode="&#x2113;" horiz-adv-x="279" 
d="M271 20q-18 -9 -47 -16t-52 -7q-26 0 -47 8.5t-35 22.5q-30 31 -30 88v593h129v-604l82 -17v-68z" />
    <glyph glyph-name="estimated" unicode="&#x212e;" horiz-adv-x="869" 
d="M199 323q-8 0 -8 -6v-187q0 -7 3 -11t9 -10q44 -45 104.5 -71.5t129.5 -26.5q74 0 136.5 30t107.5 80h56q-54 -60 -132 -95.5t-169 -35.5q-79 0 -149 26.5t-122 72.5t-82 108.5t-30 133.5t30 133.5t82 109t122 73t149 26.5q78 0 147 -26.5t120.5 -73t82 -109t30.5 -133.5
v-8h-617zM677 537q0 6 -3.5 11t-9.5 11q-42 44 -101.5 69t-125.5 25q-69 0 -129 -26t-105 -71q-6 -6 -9 -11t-3 -13v-185q0 -5 8 -5h470q8 0 8 5v190z" />
    <glyph glyph-name="numero" unicode="&#x2116;" horiz-adv-x="1127" 
d="M839 498q0 -38 19.5 -57t54.5 -19h2q35 0 54.5 19t19.5 57q0 37 -19.5 56t-54.5 19h-2q-35 0 -54.5 -19t-19.5 -56zM1093 498q0 -42 -15.5 -74.5t-40.5 -55t-57 -34t-65 -11.5h-2q-33 0 -65 11.5t-57 34t-40.5 55t-15.5 74.5t15.5 74.5t40.5 55t57 34t65 11.5h2
q33 0 65 -11.5t57 -34t40.5 -55t15.5 -74.5zM540 663h133v-663h-103q-10 0 -15 2t-11 10l-257 323q-13 16 -26.5 33.5t-25.5 33.5t-21.5 29.5t-15.5 21.5v-453h-133v663h104q10 0 14.5 -2t10.5 -10l237 -297q16 -21 33 -42t31.5 -40t26 -35t18.5 -26v452z" />
    <glyph glyph-name="fraction" unicode="&#x2044;" horiz-adv-x="407" 
d="M-20 0l327 663h120l-328 -663h-119z" />
    <glyph glyph-name="onesuperior" unicode="&#xb9;" horiz-adv-x="398" 
d="M80 415h86v156q-8 -4 -20 -8.5t-27 -9.5l-30 -9l-27 69l120 52q9 4 24 4h56v-254h64v-79h-246v79z" />
    <glyph glyph-name="twosuperior" unicode="&#xb2;" horiz-adv-x="398" 
d="M324 415v-79h-255v44q0 8 1.5 11t9.5 11l94 89q26 26 37 41.5t11 28.5q0 15 -10 22t-26 7q-14 0 -28 -3.5t-37 -11.5l-38 -14l-29 56q29 26 66.5 41t72.5 15q58 0 91.5 -30.5t33.5 -73.5q0 -15 -3.5 -29t-12 -28.5t-23.5 -30t-39 -34.5l-39 -32h123z" />
    <glyph glyph-name="threesuperior" unicode="&#xb3;" horiz-adv-x="398" 
d="M220 534q5 0 9 6q3 5 4 11.5t1 11.5q0 15 -11 22t-29 7q-11 0 -25 -2t-36 -8l-42 -12l-25 56q33 23 69 35t68 12q54 0 88.5 -26.5t34.5 -67.5q0 -18 -7.5 -36t-23.5 -32q18 -10 29 -28t11 -42q0 -23 -9.5 -43.5t-27 -35.5t-42.5 -24t-55 -9q-41 0 -79 15.5t-66 40.5
l27 51l56 -17q33 -9 56 -9q20 0 32 8t12 25q0 11 -7.5 19t-29.5 8h-39q-9 0 -11.5 2.5t-2.5 8.5v53h71z" />
    <glyph glyph-name="onehalf" unicode="&#xbd;" horiz-adv-x="929" 
d="M252 0l327 663h120l-328 -663h-119zM98 415h86v156q-8 -4 -20 -8.5t-27 -9.5l-30 -9l-27 69l120 52q9 4 24 4h56v-254h64v-79h-246v79zM847 79v-79h-255v44q0 8 1.5 11t9.5 11l94 89q26 26 37 41.5t11 28.5q0 15 -10 22t-26 7q-14 0 -28 -3.5t-37 -11.5l-38 -14l-29 56
q29 26 66.5 41t72.5 15q58 0 91.5 -30.5t33.5 -73.5q0 -15 -3.5 -29t-12 -28.5t-23.5 -30t-39 -34.5l-39 -32h123z" />
    <glyph glyph-name="onequarter" unicode="&#xbc;" horiz-adv-x="929" 
d="M710 144v91q-3 -5 -8 -11.5t-10 -13.5l-35 -45q-13 -16 -19 -21h72zM690 321q6 8 9.5 10t14.5 2h89v-189h52v-73h-52v-71h-93v71h-163v54q0 9 2 14t10 16zM252 0l327 663h120l-328 -663h-119zM98 415h86v156q-8 -4 -20 -8.5t-27 -9.5l-30 -9l-27 69l120 52q9 4 24 4h56
v-254h64v-79h-246v79z" />
    <glyph glyph-name="threequarters" unicode="&#xbe;" horiz-adv-x="929" 
d="M710 144v91q-3 -5 -8 -11.5t-10 -13.5l-35 -45q-13 -16 -19 -21h72zM690 321q6 8 9.5 10t14.5 2h89v-189h52v-73h-52v-71h-93v71h-163v54q0 9 2 14t10 16zM252 0l327 663h120l-328 -663h-119zM250 534q5 0 9 6q3 5 4 11.5t1 11.5q0 15 -11 22t-29 7q-11 0 -25 -2t-36 -8
l-42 -12l-25 56q33 23 69 35t68 12q54 0 88.5 -26.5t34.5 -67.5q0 -18 -7.5 -36t-23.5 -32q18 -10 29 -28t11 -42q0 -23 -9.5 -43.5t-27 -35.5t-42.5 -24t-55 -9q-41 0 -79 15.5t-66 40.5l27 51l56 -17q33 -9 56 -9q20 0 32 8t12 25q0 11 -7.5 19t-29.5 8h-39
q-9 0 -11.5 2.5t-2.5 8.5v53h71z" />
    <glyph glyph-name="grave" unicode="`" horiz-adv-x="416" 
d="M75 658l51 76q7 12 16 12q6 0 16 -7l183 -140l-41 -57z" />
    <glyph glyph-name="acute" unicode="&#xb4;" horiz-adv-x="416" 
d="M116 542l-41 57l183 140q10 7 16 7q8 0 16 -12l51 -76z" />
    <glyph glyph-name="dieresis" unicode="&#xa8;" horiz-adv-x="415" 
d="M168 571h-126v121h102q14 0 19 -5t5 -17v-99zM373 571h-126v121h102q14 0 19 -5t5 -17v-99z" />
    <glyph glyph-name="circumflex" unicode="&#x2c6;" horiz-adv-x="414" 
d="M207 636l-128 -94l-52 50l128 127q8 8 14 10.5t17 2.5h41q11 0 17 -2.5t14 -10.5l128 -127l-52 -50z" />
    <glyph glyph-name="tilde" unicode="&#x2dc;" horiz-adv-x="414" 
d="M390 684q-4 -25 -13 -47t-23.5 -39t-34.5 -27t-45 -10q-21 0 -39 7t-34 16t-29.5 16t-26.5 7q-16 0 -27 -12t-25 -37l-69 19q3 25 12.5 47t24 39t34 27t44.5 10q21 0 39 -7t34 -16t30 -16t27 -7q15 0 26.5 12t25.5 37z" />
    <glyph glyph-name="macron" unicode="&#xaf;" horiz-adv-x="415" 
d="M49 585v97h317v-97h-317z" />
    <glyph glyph-name="breve" unicode="&#x2d8;" horiz-adv-x="415" 
d="M208 555q-73 0 -116 41.5t-52 107.5l81 13q13 -34 33.5 -51.5t53.5 -17.5q32 0 53 17.5t33 51.5l82 -13q-9 -66 -52 -107.5t-116 -41.5z" />
    <glyph glyph-name="dotaccent" unicode="&#x2d9;" horiz-adv-x="418" 
d="M274 555h-131v125h106q15 0 20 -5t5 -18v-102z" />
    <glyph glyph-name="ring" unicode="&#x2da;" horiz-adv-x="416" 
d="M208 795q28 0 51.5 -9t41 -25t27.5 -39.5t10 -51.5q0 -57 -37 -91t-93 -34t-93 34t-37 91q0 28 10 51.5t27.5 39.5t41 25t51.5 9zM208 619q29 0 41 14t12 37t-12 37t-41 14t-41.5 -14t-12.5 -37t12.5 -37t41.5 -14z" />
    <glyph glyph-name="cedilla" unicode="&#xb8;" horiz-adv-x="417" 
d="M226 5q-23 -28 -23 -42q0 -11 17 -16.5t37 -13.5t37 -23t17 -44q0 -47 -47 -77.5t-141 -30.5l-13 70l33 5q29 5 44.5 11t15.5 16q0 8 -15 13.5t-33.5 12.5t-33.5 17.5t-15 30.5q0 21 18 41t44 43z" />
    <glyph glyph-name="hungarumlaut" unicode="&#x2dd;" horiz-adv-x="414" 
d="M49 557l-58 48l135 171q8 11 15 11q8 0 15 -7l69 -62zM247 557l-58 48l135 171q8 11 15 11q8 0 15 -7l69 -62z" />
    <glyph glyph-name="ogonek" unicode="&#x2db;" horiz-adv-x="416" 
d="M287 39q-17 -11 -34.5 -25.5t-32 -31.5t-23.5 -35t-9 -36q0 -45 62 -45q8 0 18.5 0.5t18.5 2.5l22 4l20 -67q-26 -14 -54 -20.5t-53 -6.5q-62 0 -99 30.5t-37 75.5q0 48 38 94.5t105 88.5z" />
    <glyph glyph-name="caron" unicode="&#x2c7;" horiz-adv-x="414" 
d="M334 743l52 -50l-128 -127q-8 -8 -14 -10.5t-17 -2.5h-41q-11 0 -17 2.5t-14 10.5l-128 127l52 50l128 -94z" />
    <glyph glyph-name="commaaccent" unicode="&#xf6c3;" horiz-adv-x="418" 
d="M141 -281l20 223h81q10 0 16.5 -6.5t10.5 -16t5.5 -19.5t1.5 -16v-5q-1 -16 -8 -34t-24 -52l-43 -87z" />
    <glyph glyph-name="grave.cap" horiz-adv-x="416" 
d="M75 835l51 76q7 12 16 12q6 0 16 -7l183 -140l-41 -57z" />
    <glyph glyph-name="acute.cap" horiz-adv-x="416" 
d="M116 719l-41 57l183 140q10 7 16 7q8 0 16 -12l51 -76z" />
    <glyph glyph-name="dieresis.cap" horiz-adv-x="415" 
d="M168 748h-126v121h102q14 0 19 -5t5 -17v-99zM373 748h-126v121h102q14 0 19 -5t5 -17v-99z" />
    <glyph glyph-name="circumflex.cap" horiz-adv-x="414" 
d="M207 813l-128 -94l-52 50l128 127q8 8 14 10.5t17 2.5h41q11 0 17 -2.5t14 -10.5l128 -127l-52 -50z" />
    <glyph glyph-name="tilde.cap" horiz-adv-x="414" 
d="M390 861q-4 -25 -13 -47t-23.5 -39t-34.5 -27t-45 -10q-21 0 -39 7t-34 16t-29.5 16t-26.5 7q-16 0 -27 -12t-25 -37l-69 19q3 25 12.5 47t24 39t34 27t44.5 10q21 0 39 -7t34 -16t30 -16t27 -7q15 0 26.5 12t25.5 37z" />
    <glyph glyph-name="macron.cap" horiz-adv-x="415" 
d="M49 762v97h317v-97h-317z" />
    <glyph glyph-name="breve.cap" horiz-adv-x="415" 
d="M208 732q-73 0 -116 41.5t-52 107.5l81 13q13 -34 33.5 -51.5t53.5 -17.5q32 0 53 17.5t33 51.5l82 -13q-9 -66 -52 -107.5t-116 -41.5z" />
    <glyph glyph-name="dotaccent.cap" horiz-adv-x="418" 
d="M274 732h-131v125h106q15 0 20 -5t5 -18v-102z" />
    <glyph glyph-name="ring.cap" horiz-adv-x="416" 
d="M208 972q28 0 51.5 -9t41 -25t27.5 -39.5t10 -51.5q0 -57 -37 -91t-93 -34t-93 34t-37 91q0 28 10 51.5t27.5 39.5t41 25t51.5 9zM208 796q29 0 41 14t12 37t-12 37t-41 14t-41.5 -14t-12.5 -37t12.5 -37t41.5 -14z" />
    <glyph glyph-name="hungarumlaut.cap" horiz-adv-x="414" 
d="M49 734l-58 48l135 171q8 11 15 11q8 0 15 -7l69 -62zM247 734l-58 48l135 171q8 11 15 11q8 0 15 -7l69 -62z" />
    <glyph glyph-name="caron.cap" horiz-adv-x="414" 
d="M334 920l52 -50l-128 -127q-8 -8 -14 -10.5t-17 -2.5h-41q-11 0 -17 2.5t-14 10.5l-128 127l52 50l128 -94z" />
    <glyph glyph-name="Agrave" unicode="&#xc0;" horiz-adv-x="705" 
d="M494 133h-292l-44 -121q-3 -8 -6 -10t-12 -2h-127l255 663h136q9 0 12.5 -2.5t7.5 -10.5l268 -650h-131q-9 0 -12.5 2t-6.5 10zM243 244h207l-46 119q-18 46 -35 91.5t-26 75.5q-5 -15 -12 -37t-15.5 -47t-18.5 -52t-19 -53zM209 835l51 76q7 12 16 12q6 0 16 -7
l183 -140l-41 -57z" />
    <glyph glyph-name="Aacute" unicode="&#xc1;" horiz-adv-x="705" 
d="M494 133h-292l-44 -121q-3 -8 -6 -10t-12 -2h-127l255 663h136q9 0 12.5 -2.5t7.5 -10.5l268 -650h-131q-9 0 -12.5 2t-6.5 10zM243 244h207l-46 119q-18 46 -35 91.5t-26 75.5q-5 -15 -12 -37t-15.5 -47t-18.5 -52t-19 -53zM259 719l-41 57l183 140q10 7 16 7
q8 0 16 -12l51 -76z" />
    <glyph glyph-name="Acircumflex" unicode="&#xc2;" horiz-adv-x="705" 
d="M494 133h-292l-44 -121q-3 -8 -6 -10t-12 -2h-127l255 663h136q9 0 12.5 -2.5t7.5 -10.5l268 -650h-131q-9 0 -12.5 2t-6.5 10zM243 244h207l-46 119q-18 46 -35 91.5t-26 75.5q-5 -15 -12 -37t-15.5 -47t-18.5 -52t-19 -53zM344 813l-128 -94l-52 50l128 127
q8 8 14 10.5t17 2.5h41q11 0 17 -2.5t14 -10.5l128 -127l-52 -50z" />
    <glyph glyph-name="Atilde" unicode="&#xc3;" horiz-adv-x="705" 
d="M494 133h-292l-44 -121q-3 -8 -6 -10t-12 -2h-127l255 663h136q9 0 12.5 -2.5t7.5 -10.5l268 -650h-131q-9 0 -12.5 2t-6.5 10zM243 244h207l-46 119q-18 46 -35 91.5t-26 75.5q-5 -15 -12 -37t-15.5 -47t-18.5 -52t-19 -53zM527 861q-4 -25 -13 -47t-23.5 -39t-34.5 -27
t-45 -10q-21 0 -39 7t-34 16t-29.5 16t-26.5 7q-16 0 -27 -12t-25 -37l-69 19q3 25 12.5 47t24 39t34 27t44.5 10q21 0 39 -7t34 -16t30 -16t27 -7q15 0 26.5 12t25.5 37z" />
    <glyph glyph-name="Adieresis" unicode="&#xc4;" horiz-adv-x="705" 
d="M494 133h-292l-44 -121q-3 -8 -6 -10t-12 -2h-127l255 663h136q9 0 12.5 -2.5t7.5 -10.5l268 -650h-131q-9 0 -12.5 2t-6.5 10zM243 244h207l-46 119q-18 46 -35 91.5t-26 75.5q-5 -15 -12 -37t-15.5 -47t-18.5 -52t-19 -53zM305 748h-126v121h102q14 0 19 -5t5 -17v-99z
M510 748h-126v121h102q14 0 19 -5t5 -17v-99z" />
    <glyph glyph-name="Amacron" unicode="&#x100;" horiz-adv-x="705" 
d="M494 133h-292l-44 -121q-3 -8 -6 -10t-12 -2h-127l255 663h136q9 0 12.5 -2.5t7.5 -10.5l268 -650h-131q-9 0 -12.5 2t-6.5 10zM243 244h207l-46 119q-18 46 -35 91.5t-26 75.5q-5 -15 -12 -37t-15.5 -47t-18.5 -52t-19 -53zM185 762v97h317v-97h-317z" />
    <glyph glyph-name="Abreve" unicode="&#x102;" horiz-adv-x="705" 
d="M494 133h-292l-44 -121q-3 -8 -6 -10t-12 -2h-127l255 663h136q9 0 12.5 -2.5t7.5 -10.5l268 -650h-131q-9 0 -12.5 2t-6.5 10zM243 244h207l-46 119q-18 46 -35 91.5t-26 75.5q-5 -15 -12 -37t-15.5 -47t-18.5 -52t-19 -53zM344 732q-73 0 -116 41.5t-52 107.5l81 13
q13 -34 33.5 -51.5t53.5 -17.5q32 0 53 17.5t33 51.5l82 -13q-9 -66 -52 -107.5t-116 -41.5z" />
    <glyph glyph-name="Acaron" unicode="&#x1cd;" horiz-adv-x="705" 
d="M494 133h-292l-44 -121q-3 -8 -6 -10t-12 -2h-127l255 663h136q9 0 12.5 -2.5t7.5 -10.5l268 -650h-131q-9 0 -12.5 2t-6.5 10zM243 244h207l-46 119q-18 46 -35 91.5t-26 75.5q-5 -15 -12 -37t-15.5 -47t-18.5 -52t-19 -53zM472 920l52 -50l-128 -127q-8 -8 -14 -10.5
t-17 -2.5h-41q-11 0 -17 2.5t-14 10.5l-128 127l52 50l128 -94z" />
    <glyph glyph-name="Aring" unicode="&#xc5;" horiz-adv-x="705" 
d="M344 713q29 0 41 14t12 37t-12 37t-41 14t-41.5 -14t-12.5 -37t12.5 -37t41.5 -14zM267 661q-25 16 -39 42t-14 61q0 28 10 51.5t27.5 39.5t41 25t51.5 9t51.5 -9t41 -25t27.5 -39.5t10 -51.5q0 -35 -14.5 -60.5t-40.5 -42.5l273 -661h-131q-9 0 -12.5 2t-6.5 10l-48 121
h-292l-44 -121q-3 -8 -6 -10t-12 -2h-127zM243 244h207l-46 119q-18 46 -35 91.5t-26 75.5q-5 -15 -12 -37t-15.5 -47t-18.5 -52t-19 -53z" />
    <glyph glyph-name="Aringacute" unicode="&#x1fa;" horiz-adv-x="705" 
d="M344 713q29 0 41 14t12 37t-12 37t-41 14t-41.5 -14t-12.5 -37t12.5 -37t41.5 -14zM267 661q-25 16 -39 42t-14 61q0 28 10 51.5t27.5 39.5t41 25t51.5 9t51.5 -9t41 -25t27.5 -39.5t10 -51.5q0 -35 -14.5 -60.5t-40.5 -42.5l273 -661h-131q-9 0 -12.5 2t-6.5 10l-48 121
h-292l-44 -121q-3 -8 -6 -10t-12 -2h-127zM243 244h207l-46 119q-18 46 -35 91.5t-26 75.5q-5 -15 -12 -37t-15.5 -47t-18.5 -52t-19 -53zM251 902l-41 57l183 140q10 7 16 7q8 0 16 -12l51 -76z" />
    <glyph glyph-name="Aogonek" unicode="&#x104;" horiz-adv-x="705" 
d="M494 133h-292l-44 -121q-3 -8 -6 -10t-12 -2h-127l255 663h136q9 0 12.5 -2.5t7.5 -10.5l268 -650h-61q-11 0 -18.5 -2.5t-19.5 -13.5q-15 -14 -26 -32.5t-11 -38.5q0 -26 17 -36.5t44 -10.5q14 0 29 1.5t31 5.5l20 -67q-54 -27 -107 -27q-62 0 -99 30.5t-37 75.5
q0 42 25 77t59 59zM243 244h207l-46 119q-18 46 -35 91.5t-26 75.5q-5 -15 -12 -37t-15.5 -47t-18.5 -52t-19 -53z" />
    <glyph glyph-name="AE" unicode="&#xc6;" horiz-adv-x="1016" 
d="M163 12q-4 -6 -8.5 -9t-15.5 -3h-139l423 663h528v-116h-340v-151h307v-115h-307v-165h350v-116h-488v133h-235zM307 244h166v280q-15 -27 -27.5 -49t-24.5 -42t-24.5 -41t-27.5 -45z" />
    <glyph glyph-name="AEacute" unicode="&#x1fc;" horiz-adv-x="1016" 
d="M163 12q-4 -6 -8.5 -9t-15.5 -3h-139l423 663h528v-116h-340v-151h307v-115h-307v-165h350v-116h-488v133h-235zM307 244h166v280q-15 -27 -27.5 -49t-24.5 -42t-24.5 -41t-27.5 -45zM544 719l-41 57l183 140q10 7 16 7q8 0 16 -12l51 -76z" />
    <glyph glyph-name="Cacute" unicode="&#x106;" horiz-adv-x="682" 
d="M658 135q-26 -29 -59 -55.5t-71.5 -46.5t-82 -31.5t-91.5 -11.5q-72 0 -131 26t-100.5 71.5t-64 108t-22.5 135.5q0 79 26 142.5t70 108t102.5 68t123.5 23.5q105 0 177 -52.5t107 -146.5l-89 -57l-61 56q-37 34 -69.5 51t-74.5 17q-34 0 -64.5 -12.5t-53.5 -38.5
t-36.5 -65.5t-13.5 -92.5q0 -47 12.5 -86t36.5 -66.5t59 -42.5t81 -15q31 0 63.5 8t70.5 26l101 49zM264 719l-41 57l183 140q10 7 16 7q8 0 16 -12l51 -76z" />
    <glyph glyph-name="Ccedilla" unicode="&#xc7;" horiz-adv-x="682" 
d="M658 135q-24 -27 -54 -52t-65 -44.5t-74.5 -32t-82.5 -15.5q-12 -17 -12 -28t17 -16.5t37 -13.5t37 -23t17 -44q0 -47 -47 -77.5t-141 -30.5l-13 70l33 5q29 5 44.5 11t15.5 16q0 8 -15 13.5t-33.5 12.5t-33.5 17.5t-15 30.5q0 15 9.5 29.5t25.5 29.5q-62 8 -112.5 36.5
t-86 73t-54.5 103t-19 125.5q0 79 26 142.5t70 108t102.5 68t123.5 23.5q105 0 177 -52.5t107 -146.5l-89 -57l-61 56q-37 34 -69.5 51t-74.5 17q-34 0 -64.5 -12.5t-53.5 -38.5t-36.5 -65.5t-13.5 -92.5q0 -47 12.5 -86t36.5 -66.5t59 -42.5t81 -15q31 0 63.5 8t70.5 26
l101 49z" />
    <glyph glyph-name="Ccircumflex" unicode="&#x108;" horiz-adv-x="682" 
d="M658 135q-26 -29 -59 -55.5t-71.5 -46.5t-82 -31.5t-91.5 -11.5q-72 0 -131 26t-100.5 71.5t-64 108t-22.5 135.5q0 79 26 142.5t70 108t102.5 68t123.5 23.5q105 0 177 -52.5t107 -146.5l-89 -57l-61 56q-37 34 -69.5 51t-74.5 17q-34 0 -64.5 -12.5t-53.5 -38.5
t-36.5 -65.5t-13.5 -92.5q0 -47 12.5 -86t36.5 -66.5t59 -42.5t81 -15q31 0 63.5 8t70.5 26l101 49zM351 813l-128 -94l-52 50l128 127q8 8 14 10.5t17 2.5h41q11 0 17 -2.5t14 -10.5l128 -127l-52 -50z" />
    <glyph glyph-name="Ccaron" unicode="&#x10c;" horiz-adv-x="682" 
d="M658 135q-26 -29 -59 -55.5t-71.5 -46.5t-82 -31.5t-91.5 -11.5q-72 0 -131 26t-100.5 71.5t-64 108t-22.5 135.5q0 79 26 142.5t70 108t102.5 68t123.5 23.5q105 0 177 -52.5t107 -146.5l-89 -57l-61 56q-37 34 -69.5 51t-74.5 17q-34 0 -64.5 -12.5t-53.5 -38.5
t-36.5 -65.5t-13.5 -92.5q0 -47 12.5 -86t36.5 -66.5t59 -42.5t81 -15q31 0 63.5 8t70.5 26l101 49zM480 920l52 -50l-128 -127q-8 -8 -14 -10.5t-17 -2.5h-41q-11 0 -17 2.5t-14 10.5l-128 127l52 50l128 -94z" />
    <glyph glyph-name="Cdotaccent" unicode="&#x10a;" horiz-adv-x="682" 
d="M658 135q-26 -29 -59 -55.5t-71.5 -46.5t-82 -31.5t-91.5 -11.5q-72 0 -131 26t-100.5 71.5t-64 108t-22.5 135.5q0 79 26 142.5t70 108t102.5 68t123.5 23.5q105 0 177 -52.5t107 -146.5l-89 -57l-61 56q-37 34 -69.5 51t-74.5 17q-34 0 -64.5 -12.5t-53.5 -38.5
t-36.5 -65.5t-13.5 -92.5q0 -47 12.5 -86t36.5 -66.5t59 -42.5t81 -15q31 0 63.5 8t70.5 26l101 49zM417 732h-131v125h106q15 0 20 -5t5 -18v-102z" />
    <glyph glyph-name="Dcaron" unicode="&#x10e;" horiz-adv-x="719" 
d="M68 0v663h221q99 0 172 -19.5t124 -63.5q48 -41 73 -102.5t25 -146.5q0 -84 -25 -145.5t-73 -102.5q-51 -44 -124 -63.5t-172 -19.5h-221zM285 120q73 0 123 12.5t81 42.5q51 49 51 157q0 55 -12.5 93t-38.5 63q-31 30 -81 42.5t-123 12.5h-79v-423h79zM489 920l52 -50
l-128 -127q-8 -8 -14 -10.5t-17 -2.5h-41q-11 0 -17 2.5t-14 10.5l-128 127l52 50l128 -94z" />
    <glyph glyph-name="Dcroat" unicode="&#x110;" horiz-adv-x="741" 
d="M90 0v286h-80v104h80v273h221q99 0 172 -19.5t124 -63.5q48 -41 73 -102.5t25 -146.5q0 -84 -25 -145.5t-73 -102.5q-51 -44 -124 -63.5t-172 -19.5h-221zM307 120q73 0 123 12.5t81 42.5q51 49 51 157q0 55 -12.5 93t-38.5 63q-31 30 -81 42.5t-123 12.5h-79v-153h140
v-104h-140v-166h79z" />
    <glyph glyph-name="Eth" unicode="&#xd0;" horiz-adv-x="741" 
d="M90 0v286h-80v104h80v273h221q99 0 172 -19.5t124 -63.5q48 -41 73 -102.5t25 -146.5q0 -84 -25 -145.5t-73 -102.5q-51 -44 -124 -63.5t-172 -19.5h-221zM307 120q73 0 123 12.5t81 42.5q51 49 51 157q0 55 -12.5 93t-38.5 63q-31 30 -81 42.5t-123 12.5h-79v-153h140
v-104h-140v-166h79z" />
    <glyph glyph-name="Egrave" unicode="&#xc8;" horiz-adv-x="611" 
d="M546 663v-116h-340v-151h307v-115h-307v-165h350v-116h-488v663h478zM180 835l51 76q7 12 16 12q6 0 16 -7l183 -140l-41 -57z" />
    <glyph glyph-name="Eacute" unicode="&#xc9;" horiz-adv-x="611" 
d="M546 663v-116h-340v-151h307v-115h-307v-165h350v-116h-488v663h478zM221 719l-41 57l183 140q10 7 16 7q8 0 16 -12l51 -76z" />
    <glyph glyph-name="Ecircumflex" unicode="&#xca;" horiz-adv-x="611" 
d="M546 663v-116h-340v-151h307v-115h-307v-165h350v-116h-488v663h478zM307 813l-128 -94l-52 50l128 127q8 8 14 10.5t17 2.5h41q11 0 17 -2.5t14 -10.5l128 -127l-52 -50z" />
    <glyph glyph-name="Ecaron" unicode="&#x11a;" horiz-adv-x="611" 
d="M546 663v-116h-340v-151h307v-115h-307v-165h350v-116h-488v663h478zM437 920l52 -50l-128 -127q-8 -8 -14 -10.5t-17 -2.5h-41q-11 0 -17 2.5t-14 10.5l-128 127l52 50l128 -94z" />
    <glyph glyph-name="Edieresis" unicode="&#xcb;" horiz-adv-x="611" 
d="M546 663v-116h-340v-151h307v-115h-307v-165h350v-116h-488v663h478zM267 748h-126v121h102q14 0 19 -5t5 -17v-99zM472 748h-126v121h102q14 0 19 -5t5 -17v-99z" />
    <glyph glyph-name="Emacron" unicode="&#x112;" horiz-adv-x="611" 
d="M546 663v-116h-340v-151h307v-115h-307v-165h350v-116h-488v663h478zM146 762v97h317v-97h-317z" />
    <glyph glyph-name="Ebreve" unicode="&#x114;" horiz-adv-x="611" 
d="M546 663v-116h-340v-151h307v-115h-307v-165h350v-116h-488v663h478zM304 732q-73 0 -116 41.5t-52 107.5l81 13q13 -34 33.5 -51.5t53.5 -17.5q32 0 53 17.5t33 51.5l82 -13q-9 -66 -52 -107.5t-116 -41.5z" />
    <glyph glyph-name="Edotaccent" unicode="&#x116;" horiz-adv-x="611" 
d="M546 663v-116h-340v-151h307v-115h-307v-165h350v-116h-488v663h478zM370 732h-131v125h106q15 0 20 -5t5 -18v-102z" />
    <glyph glyph-name="Eogonek" unicode="&#x118;" horiz-adv-x="611" 
d="M483 0q-11 0 -18.5 -2.5t-19.5 -13.5q-15 -14 -26 -32.5t-11 -38.5q0 -26 17 -36.5t44 -10.5q14 0 29 1.5t31 5.5l20 -67q-26 -14 -54 -20.5t-53 -6.5q-62 0 -99 30.5t-37 75.5q0 31 16 60t43 55h-297v663h478v-116h-340v-151h307v-115h-307v-165h350v-116h-73z" />
    <glyph glyph-name="Gcircumflex" unicode="&#x11c;" horiz-adv-x="739" 
d="M435 247v103h223q11 0 15.5 -3t4.5 -14v-333h-100l-21 60l-51 -28q-33 -18 -71 -30t-83 -12q-72 0 -130 25.5t-99.5 71.5t-64 108t-22.5 136q0 79 27 142.5t73 108t105.5 68t125.5 23.5q101 0 175.5 -46t111.5 -130l-87 -60l-75 56q-34 26 -63.5 38t-68.5 12
q-38 0 -71 -13.5t-57 -40t-38 -66t-14 -91.5q0 -103 50 -157t143 -54q18 0 39 2t41.5 5t39 7.5t33.5 10.5q11 4 14.5 8.5t3.5 15.5v77h-109zM372 813l-128 -94l-52 50l128 127q8 8 14 10.5t17 2.5h41q11 0 17 -2.5t14 -10.5l128 -127l-52 -50z" />
    <glyph glyph-name="Gbreve" unicode="&#x11e;" horiz-adv-x="739" 
d="M435 247v103h223q11 0 15.5 -3t4.5 -14v-333h-100l-21 60l-51 -28q-33 -18 -71 -30t-83 -12q-72 0 -130 25.5t-99.5 71.5t-64 108t-22.5 136q0 79 27 142.5t73 108t105.5 68t125.5 23.5q101 0 175.5 -46t111.5 -130l-87 -60l-75 56q-34 26 -63.5 38t-68.5 12
q-38 0 -71 -13.5t-57 -40t-38 -66t-14 -91.5q0 -103 50 -157t143 -54q18 0 39 2t41.5 5t39 7.5t33.5 10.5q11 4 14.5 8.5t3.5 15.5v77h-109zM372 732q-73 0 -116 41.5t-52 107.5l81 13q13 -34 33.5 -51.5t53.5 -17.5q32 0 53 17.5t33 51.5l82 -13q-9 -66 -52 -107.5
t-116 -41.5z" />
    <glyph glyph-name="Gdotaccent" unicode="&#x120;" horiz-adv-x="739" 
d="M435 247v103h223q11 0 15.5 -3t4.5 -14v-333h-100l-21 60l-51 -28q-33 -18 -71 -30t-83 -12q-72 0 -130 25.5t-99.5 71.5t-64 108t-22.5 136q0 79 27 142.5t73 108t105.5 68t125.5 23.5q101 0 175.5 -46t111.5 -130l-87 -60l-75 56q-34 26 -63.5 38t-68.5 12
q-38 0 -71 -13.5t-57 -40t-38 -66t-14 -91.5q0 -103 50 -157t143 -54q18 0 39 2t41.5 5t39 7.5t33.5 10.5q11 4 14.5 8.5t3.5 15.5v77h-109zM433 732h-131v125h106q15 0 20 -5t5 -18v-102z" />
    <glyph glyph-name="Gcommaaccent" unicode="&#x122;" horiz-adv-x="739" 
d="M435 247v103h223q11 0 15.5 -3t4.5 -14v-333h-100l-21 60l-51 -28q-33 -18 -71 -30t-83 -12q-72 0 -130 25.5t-99.5 71.5t-64 108t-22.5 136q0 79 27 142.5t73 108t105.5 68t125.5 23.5q101 0 175.5 -46t111.5 -130l-87 -60l-75 56q-34 26 -63.5 38t-68.5 12
q-38 0 -71 -13.5t-57 -40t-38 -66t-14 -91.5q0 -103 50 -157t143 -54q18 0 39 2t41.5 5t39 7.5t33.5 10.5q11 4 14.5 8.5t3.5 15.5v77h-109zM303 -281l20 223h81q10 0 16.5 -6.5t10.5 -16t5.5 -19.5t1.5 -16v-5q-1 -16 -8 -34t-24 -52l-43 -87z" />
    <glyph glyph-name="Hcircumflex" unicode="&#x124;" horiz-adv-x="723" 
d="M517 281h-311v-281h-138v663h138v-262h311v262h138v-663h-138v281zM359 813l-128 -94l-52 50l128 127q8 8 14 10.5t17 2.5h41q11 0 17 -2.5t14 -10.5l128 -127l-52 -50z" />
    <glyph glyph-name="Hbar" unicode="&#x126;" horiz-adv-x="762" 
d="M536 281h-311v-281h-138v488h-73v93h73v82h138v-82h311v82h138v-82h74v-93h-74v-488h-138v281zM536 401v87h-311v-87h311z" />
    <glyph glyph-name="Igrave" unicode="&#xcc;" horiz-adv-x="280" 
d="M71 663h138v-663h-138v663zM7 835l51 76q7 12 16 12q6 0 16 -7l183 -140l-41 -57z" />
    <glyph glyph-name="Iacute" unicode="&#xcd;" horiz-adv-x="280" 
d="M71 663h138v-663h-138v663zM48 719l-41 57l183 140q10 7 16 7q8 0 16 -12l51 -76z" />
    <glyph glyph-name="Icircumflex" unicode="&#xce;" horiz-adv-x="280" 
d="M71 663h138v-663h-138v663zM141 813l-128 -94l-52 50l128 127q8 8 14 10.5t17 2.5h41q11 0 17 -2.5t14 -10.5l128 -127l-52 -50z" />
    <glyph glyph-name="Itilde" unicode="&#x128;" horiz-adv-x="280" 
d="M71 663h138v-663h-138v663zM323 861q-4 -25 -13 -47t-23.5 -39t-34.5 -27t-45 -10q-21 0 -39 7t-34 16t-29.5 16t-26.5 7q-16 0 -27 -12t-25 -37l-69 19q3 25 12.5 47t24 39t34 27t44.5 10q21 0 39 -7t34 -16t30 -16t27 -7q15 0 26.5 12t25.5 37z" />
    <glyph glyph-name="Idieresis" unicode="&#xcf;" horiz-adv-x="280" 
d="M71 663h138v-663h-138v663zM100 748h-126v121h102q14 0 19 -5t5 -17v-99zM305 748h-126v121h102q14 0 19 -5t5 -17v-99z" />
    <glyph glyph-name="Imacron" unicode="&#x12a;" horiz-adv-x="280" 
d="M71 663h138v-663h-138v663zM-19 762v97h317v-97h-317z" />
    <glyph glyph-name="Ibreve" unicode="&#x12c;" horiz-adv-x="280" 
d="M71 663h138v-663h-138v663zM140 732q-73 0 -116 41.5t-52 107.5l81 13q13 -34 33.5 -51.5t53.5 -17.5q32 0 53 17.5t33 51.5l82 -13q-9 -66 -52 -107.5t-116 -41.5z" />
    <glyph glyph-name="Idotaccent" unicode="&#x130;" horiz-adv-x="280" 
d="M71 663h138v-663h-138v663zM208 732h-131v125h106q15 0 20 -5t5 -18v-102z" />
    <glyph glyph-name="Iogonek" unicode="&#x12e;" horiz-adv-x="280" 
d="M190 0q-11 0 -18.5 -2.5t-19.5 -13.5q-15 -14 -26 -32.5t-11 -38.5q0 -26 17 -36.5t44 -10.5q14 0 29 1.5t31 5.5l20 -67q-26 -14 -54 -20.5t-53 -6.5q-62 0 -99 30.5t-37 75.5q0 31 15.5 61t42.5 56v661h138v-663h-19z" />
    <glyph glyph-name="IJ" unicode="&#x132;" horiz-adv-x="790" 
d="M71 663h138v-663h-138v663zM328 138l58 -11q35 -7 62 -10.5t50 -3.5q52 0 72 23q18 22 18 74v453h138v-449q0 -110 -56 -167q-27 -27 -65.5 -42t-85.5 -15q-57 0 -115 17.5t-104 46.5z" />
    <glyph glyph-name="Jcircumflex" unicode="&#x134;" horiz-adv-x="513" 
d="M51 138l58 -11q35 -7 62 -10.5t50 -3.5q52 0 72 23q18 22 18 74v453h138v-449q0 -110 -56 -167q-27 -27 -65.5 -42t-85.5 -15q-57 0 -115 17.5t-104 46.5zM381 813l-128 -94l-52 50l128 127q8 8 14 10.5t17 2.5h41q11 0 17 -2.5t14 -10.5l128 -127l-52 -50z" />
    <glyph glyph-name="Kcommaaccent" unicode="&#x136;" horiz-adv-x="667" 
d="M293 305q-19 -17 -43 -32t-44 -25v-248h-138v663h138v-293l348 301l78 -84l-238 -201l267 -386h-142q-11 0 -16 2.5t-11 10.5zM253 -281l20 223h81q10 0 16.5 -6.5t10.5 -16t5.5 -19.5t1.5 -16v-5q-1 -16 -8 -34t-24 -52l-43 -87z" />
    <glyph glyph-name="Lacute" unicode="&#x139;" horiz-adv-x="568" 
d="M206 116h327v-116h-465v663h138v-547zM53 719l-41 57l183 140q10 7 16 7q8 0 16 -12l51 -76z" />
    <glyph glyph-name="Lcaron" unicode="&#x13d;" horiz-adv-x="568" 
d="M206 116h327v-116h-465v663h138v-547zM306 440l20 223h81q10 0 16.5 -6.5t10.5 -16t5.5 -19.5t1.5 -16v-5q-1 -16 -8 -34t-24 -52l-43 -87z" />
    <glyph glyph-name="Lcommaaccent" unicode="&#x13b;" horiz-adv-x="568" 
d="M206 116h327v-116h-465v663h138v-547zM221 -281l20 223h81q10 0 16.5 -6.5t10.5 -16t5.5 -19.5t1.5 -16v-5q-1 -16 -8 -34t-24 -52l-43 -87z" />
    <glyph glyph-name="Lslash" unicode="&#x141;" horiz-adv-x="630" 
d="M59 191l-62 90l133 87v295h138v-214l141 92l62 -90l-203 -133v-202h327v-116h-465v237z" />
    <glyph glyph-name="Ldot" unicode="&#x13f;" horiz-adv-x="568" 
d="M206 116h327v-116h-465v663h138v-547zM469 298h-131v125h106q15 0 20 -5t5 -18v-102z" />
    <glyph glyph-name="Nacute" unicode="&#x143;" horiz-adv-x="738" 
d="M540 663h133v-663h-103q-10 0 -15 2t-11 10l-257 323q-13 16 -26.5 33.5t-25.5 33.5t-21.5 29.5t-15.5 21.5v-453h-133v663h104q10 0 14.5 -2t10.5 -10l237 -297q16 -21 33 -42t31.5 -40t26 -35t18.5 -26v452zM284 719l-41 57l183 140q10 7 16 7q8 0 16 -12l51 -76z" />
    <glyph glyph-name="Ncaron" unicode="&#x147;" horiz-adv-x="738" 
d="M540 663h133v-663h-103q-10 0 -15 2t-11 10l-257 323q-13 16 -26.5 33.5t-25.5 33.5t-21.5 29.5t-15.5 21.5v-453h-133v663h104q10 0 14.5 -2t10.5 -10l237 -297q16 -21 33 -42t31.5 -40t26 -35t18.5 -26v452zM496 920l52 -50l-128 -127q-8 -8 -14 -10.5t-17 -2.5h-41
q-11 0 -17 2.5t-14 10.5l-128 127l52 50l128 -94z" />
    <glyph glyph-name="Ntilde" unicode="&#xd1;" horiz-adv-x="738" 
d="M540 663h133v-663h-103q-10 0 -15 2t-11 10l-257 323q-13 16 -26.5 33.5t-25.5 33.5t-21.5 29.5t-15.5 21.5v-453h-133v663h104q10 0 14.5 -2t10.5 -10l237 -297q16 -21 33 -42t31.5 -40t26 -35t18.5 -26v452zM553 861q-4 -25 -13 -47t-23.5 -39t-34.5 -27t-45 -10
q-21 0 -39 7t-34 16t-29.5 16t-26.5 7q-16 0 -27 -12t-25 -37l-69 19q3 25 12.5 47t24 39t34 27t44.5 10q21 0 39 -7t34 -16t30 -16t27 -7q15 0 26.5 12t25.5 37z" />
    <glyph glyph-name="Ncommaaccent" unicode="&#x145;" horiz-adv-x="738" 
d="M540 663h133v-663h-103q-10 0 -15 2t-11 10l-257 323q-13 16 -26.5 33.5t-25.5 33.5t-21.5 29.5t-15.5 21.5v-453h-133v663h104q10 0 14.5 -2t10.5 -10l237 -297q16 -21 33 -42t31.5 -40t26 -35t18.5 -26v452zM298 -281l20 223h81q10 0 16.5 -6.5t10.5 -16t5.5 -19.5
t1.5 -16v-5q-1 -16 -8 -34t-24 -52l-43 -87z" />
    <glyph glyph-name="Eng" unicode="&#x14a;" horiz-adv-x="738" 
d="M670 -28q0 -99 -47.5 -154.5t-147.5 -55.5q-17 0 -36 3.5t-38 9t-35.5 12.5t-28.5 15l22 86q10 -2 24 -3.5t28 -2.5t26 -2t20 -1q43 0 63 19.5t20 64.5v54l-253 317q-13 16 -26.5 33.5t-25.5 33.5t-21.5 29.5t-15.5 21.5v-452h-130v663h101q10 0 14.5 -2t10.5 -10
l237 -296q16 -21 33 -42t31.5 -40t26 -35t18.5 -26v451h130v-691z" />
    <glyph glyph-name="Ograve" unicode="&#xd2;" horiz-adv-x="740" 
d="M369 -10q-66 0 -126 24t-106 68t-73.5 107.5t-27.5 141.5q0 79 27.5 142t73.5 107.5t106 68.5t126 24h2q66 0 126 -24t106 -68.5t73.5 -107.5t27.5 -142q0 -78 -27.5 -141.5t-73.5 -107.5t-106 -68t-126 -24h-2zM180 331q0 -99 50.5 -153t138.5 -54h2q88 0 138.5 53.5
t50.5 153.5t-50.5 153.5t-138.5 53.5h-2q-88 0 -138.5 -53.5t-50.5 -153.5zM237 835l51 76q7 12 16 12q6 0 16 -7l183 -140l-41 -57z" />
    <glyph glyph-name="Oacute" unicode="&#xd3;" horiz-adv-x="740" 
d="M369 -10q-66 0 -126 24t-106 68t-73.5 107.5t-27.5 141.5q0 79 27.5 142t73.5 107.5t106 68.5t126 24h2q66 0 126 -24t106 -68.5t73.5 -107.5t27.5 -142q0 -78 -27.5 -141.5t-73.5 -107.5t-106 -68t-126 -24h-2zM180 331q0 -99 50.5 -153t138.5 -54h2q88 0 138.5 53.5
t50.5 153.5t-50.5 153.5t-138.5 53.5h-2q-88 0 -138.5 -53.5t-50.5 -153.5zM282 719l-41 57l183 140q10 7 16 7q8 0 16 -12l51 -76z" />
    <glyph glyph-name="Ocircumflex" unicode="&#xd4;" horiz-adv-x="740" 
d="M369 -10q-66 0 -126 24t-106 68t-73.5 107.5t-27.5 141.5q0 79 27.5 142t73.5 107.5t106 68.5t126 24h2q66 0 126 -24t106 -68.5t73.5 -107.5t27.5 -142q0 -78 -27.5 -141.5t-73.5 -107.5t-106 -68t-126 -24h-2zM180 331q0 -99 50.5 -153t138.5 -54h2q88 0 138.5 53.5
t50.5 153.5t-50.5 153.5t-138.5 53.5h-2q-88 0 -138.5 -53.5t-50.5 -153.5zM370 813l-128 -94l-52 50l128 127q8 8 14 10.5t17 2.5h41q11 0 17 -2.5t14 -10.5l128 -127l-52 -50z" />
    <glyph glyph-name="Otilde" unicode="&#xd5;" horiz-adv-x="740" 
d="M369 -10q-66 0 -126 24t-106 68t-73.5 107.5t-27.5 141.5q0 79 27.5 142t73.5 107.5t106 68.5t126 24h2q66 0 126 -24t106 -68.5t73.5 -107.5t27.5 -142q0 -78 -27.5 -141.5t-73.5 -107.5t-106 -68t-126 -24h-2zM180 331q0 -99 50.5 -153t138.5 -54h2q88 0 138.5 53.5
t50.5 153.5t-50.5 153.5t-138.5 53.5h-2q-88 0 -138.5 -53.5t-50.5 -153.5zM553 861q-4 -25 -13 -47t-23.5 -39t-34.5 -27t-45 -10q-21 0 -39 7t-34 16t-29.5 16t-26.5 7q-16 0 -27 -12t-25 -37l-69 19q3 25 12.5 47t24 39t34 27t44.5 10q21 0 39 -7t34 -16t30 -16t27 -7
q15 0 26.5 12t25.5 37z" />
    <glyph glyph-name="Odieresis" unicode="&#xd6;" horiz-adv-x="740" 
d="M369 -10q-66 0 -126 24t-106 68t-73.5 107.5t-27.5 141.5q0 79 27.5 142t73.5 107.5t106 68.5t126 24h2q66 0 126 -24t106 -68.5t73.5 -107.5t27.5 -142q0 -78 -27.5 -141.5t-73.5 -107.5t-106 -68t-126 -24h-2zM180 331q0 -99 50.5 -153t138.5 -54h2q88 0 138.5 53.5
t50.5 153.5t-50.5 153.5t-138.5 53.5h-2q-88 0 -138.5 -53.5t-50.5 -153.5zM330 748h-126v121h102q14 0 19 -5t5 -17v-99zM535 748h-126v121h102q14 0 19 -5t5 -17v-99z" />
    <glyph glyph-name="Omacron" unicode="&#x14c;" horiz-adv-x="740" 
d="M369 -10q-66 0 -126 24t-106 68t-73.5 107.5t-27.5 141.5q0 79 27.5 142t73.5 107.5t106 68.5t126 24h2q66 0 126 -24t106 -68.5t73.5 -107.5t27.5 -142q0 -78 -27.5 -141.5t-73.5 -107.5t-106 -68t-126 -24h-2zM180 331q0 -99 50.5 -153t138.5 -54h2q88 0 138.5 53.5
t50.5 153.5t-50.5 153.5t-138.5 53.5h-2q-88 0 -138.5 -53.5t-50.5 -153.5zM211 762v97h317v-97h-317z" />
    <glyph glyph-name="Obreve" unicode="&#x14e;" horiz-adv-x="740" 
d="M369 -10q-66 0 -126 24t-106 68t-73.5 107.5t-27.5 141.5q0 79 27.5 142t73.5 107.5t106 68.5t126 24h2q66 0 126 -24t106 -68.5t73.5 -107.5t27.5 -142q0 -78 -27.5 -141.5t-73.5 -107.5t-106 -68t-126 -24h-2zM180 331q0 -99 50.5 -153t138.5 -54h2q88 0 138.5 53.5
t50.5 153.5t-50.5 153.5t-138.5 53.5h-2q-88 0 -138.5 -53.5t-50.5 -153.5zM370 732q-73 0 -116 41.5t-52 107.5l81 13q13 -34 33.5 -51.5t53.5 -17.5q32 0 53 17.5t33 51.5l82 -13q-9 -66 -52 -107.5t-116 -41.5z" />
    <glyph glyph-name="Ohungarumlaut" unicode="&#x150;" horiz-adv-x="740" 
d="M369 -10q-66 0 -126 24t-106 68t-73.5 107.5t-27.5 141.5q0 79 27.5 142t73.5 107.5t106 68.5t126 24h2q66 0 126 -24t106 -68.5t73.5 -107.5t27.5 -142q0 -78 -27.5 -141.5t-73.5 -107.5t-106 -68t-126 -24h-2zM180 331q0 -99 50.5 -153t138.5 -54h2q88 0 138.5 53.5
t50.5 153.5t-50.5 153.5t-138.5 53.5h-2q-88 0 -138.5 -53.5t-50.5 -153.5zM222 734l-58 48l135 171q8 11 15 11q8 0 15 -7l69 -62zM420 734l-58 48l135 171q8 11 15 11q8 0 15 -7l69 -62z" />
    <glyph glyph-name="Oslash" unicode="&#xd8;" horiz-adv-x="740" 
d="M371 -10q-47 0 -93 12t-85 36l-66 -86l-76 55l70 91q-39 44 -62 102.5t-23 130.5q0 79 27.5 142t73.5 107.5t106 68.5t126 24h2q87 0 161 -41l65 84l76 -55l-66 -85q45 -45 71 -106.5t26 -138.5q0 -78 -27.5 -141.5t-73.5 -107.5t-106 -68t-126 -24zM560 331
q0 41 -9 75.5t-28 60.5l-248 -322q39 -21 94 -21h2q88 0 138.5 53.5t50.5 153.5zM180 331q0 -35 7 -66t20 -55l242 315q-17 7 -37 10t-41 3h-2q-88 0 -138.5 -53.5t-50.5 -153.5z" />
    <glyph glyph-name="Oslashacute" unicode="&#x1fe;" horiz-adv-x="740" 
d="M371 -10q-47 0 -93 12t-85 36l-66 -86l-76 55l70 91q-39 44 -62 102.5t-23 130.5q0 79 27.5 142t73.5 107.5t106 68.5t126 24h2q87 0 161 -41l65 84l76 -55l-66 -85q45 -45 71 -106.5t26 -138.5q0 -78 -27.5 -141.5t-73.5 -107.5t-106 -68t-126 -24zM560 331
q0 41 -9 75.5t-28 60.5l-248 -322q39 -21 94 -21h2q88 0 138.5 53.5t50.5 153.5zM180 331q0 -35 7 -66t20 -55l242 315q-17 7 -37 10t-41 3h-2q-88 0 -138.5 -53.5t-50.5 -153.5zM282 719l-41 57l183 140q10 7 16 7q8 0 16 -12l51 -76z" />
    <glyph glyph-name="OE" unicode="&#x152;" horiz-adv-x="1099" 
d="M1034 663v-116h-340v-151h307v-115h-307v-165h350v-116h-488v77q-32 -37 -82.5 -62t-115.5 -25t-123 24t-102.5 68.5t-70.5 107.5t-26 141t26 141t70.5 108t102.5 69t123 24t115.5 -25t82.5 -62v77h478zM180 331q0 -99 50.5 -153t138.5 -54h2q88 0 138.5 53.5t50.5 153.5
t-50.5 153.5t-138.5 53.5h-2q-88 0 -138.5 -53.5t-50.5 -153.5z" />
    <glyph glyph-name="Thorn" unicode="&#xde;" horiz-adv-x="643" 
d="M206 0h-138v663h138v-104h121q76 0 131 -15t91 -51q26 -27 41 -67t15 -91q0 -54 -16 -97.5t-48 -73.5q-30 -28 -73 -42.5t-108 -14.5h-154v-107zM396 221q17 0 26 4t16 14q11 16 18.5 42t7.5 53q0 55 -27 80q-16 15 -41 21t-61 6h-129v-220h190z" />
    <glyph glyph-name="Racute" unicode="&#x154;" horiz-adv-x="671" 
d="M371 210q-6 10 -10.5 11.5t-15.5 1.5h-139v-223h-138v663h261q67 0 119 -11.5t87.5 -37.5t54 -67t18.5 -100q0 -66 -30.5 -116t-79.5 -81l151 -250h-139q-10 0 -14.5 1.5t-10.5 12.5zM405 338q27 0 39 18q11 17 17 40.5t6 50.5q0 50 -24 73q-16 14 -42 20t-68 6h-127
v-208h199zM249 719l-41 57l183 140q10 7 16 7q8 0 16 -12l51 -76z" />
    <glyph glyph-name="Rcaron" unicode="&#x158;" horiz-adv-x="671" 
d="M371 210q-6 10 -10.5 11.5t-15.5 1.5h-139v-223h-138v663h261q67 0 119 -11.5t87.5 -37.5t54 -67t18.5 -100q0 -66 -30.5 -116t-79.5 -81l151 -250h-139q-10 0 -14.5 1.5t-10.5 12.5zM405 338q27 0 39 18q11 17 17 40.5t6 50.5q0 50 -24 73q-16 14 -42 20t-68 6h-127
v-208h199zM464 920l52 -50l-128 -127q-8 -8 -14 -10.5t-17 -2.5h-41q-11 0 -17 2.5t-14 10.5l-128 127l52 50l128 -94z" />
    <glyph glyph-name="Rcommaaccent" unicode="&#x156;" horiz-adv-x="671" 
d="M371 210q-6 10 -10.5 11.5t-15.5 1.5h-139v-223h-138v663h261q67 0 119 -11.5t87.5 -37.5t54 -67t18.5 -100q0 -66 -30.5 -116t-79.5 -81l151 -250h-139q-10 0 -14.5 1.5t-10.5 12.5zM405 338q27 0 39 18q11 17 17 40.5t6 50.5q0 50 -24 73q-16 14 -42 20t-68 6h-127
v-208h199zM257 -281l20 223h81q10 0 16.5 -6.5t10.5 -16t5.5 -19.5t1.5 -16v-5q-1 -16 -8 -34t-24 -52l-43 -87z" />
    <glyph glyph-name="Sacute" unicode="&#x15a;" horiz-adv-x="592" 
d="M72 150l68 -15q57 -13 97 -18.5t74 -5.5q51 0 82.5 21t31.5 62q0 32 -24 48t-82 33l-68 20q-100 29 -153.5 74t-53.5 122q0 45 19.5 79t54 57t80.5 34.5t99 11.5q57 0 114.5 -11.5t111.5 -33.5l-21 -93l-53 6q-38 5 -77 8t-67 3q-66 0 -99 -14t-33 -46q0 -28 26.5 -43.5
t79.5 -30.5l62 -18q60 -17 101 -36.5t66 -43t36 -53t11 -67.5q0 -97 -65.5 -153.5t-186.5 -56.5q-33 0 -69 5.5t-71 15t-67.5 22.5t-58.5 27zM208 719l-41 57l183 140q10 7 16 7q8 0 16 -12l51 -76z" />
    <glyph glyph-name="Scircumflex" unicode="&#x15c;" horiz-adv-x="592" 
d="M72 150l68 -15q57 -13 97 -18.5t74 -5.5q51 0 82.5 21t31.5 62q0 32 -24 48t-82 33l-68 20q-100 29 -153.5 74t-53.5 122q0 45 19.5 79t54 57t80.5 34.5t99 11.5q57 0 114.5 -11.5t111.5 -33.5l-21 -93l-53 6q-38 5 -77 8t-67 3q-66 0 -99 -14t-33 -46q0 -28 26.5 -43.5
t79.5 -30.5l62 -18q60 -17 101 -36.5t66 -43t36 -53t11 -67.5q0 -97 -65.5 -153.5t-186.5 -56.5q-33 0 -69 5.5t-71 15t-67.5 22.5t-58.5 27zM302 813l-128 -94l-52 50l128 127q8 8 14 10.5t17 2.5h41q11 0 17 -2.5t14 -10.5l128 -127l-52 -50z" />
    <glyph glyph-name="Scaron" unicode="&#x160;" horiz-adv-x="592" 
d="M72 150l68 -15q57 -13 97 -18.5t74 -5.5q51 0 82.5 21t31.5 62q0 32 -24 48t-82 33l-68 20q-100 29 -153.5 74t-53.5 122q0 45 19.5 79t54 57t80.5 34.5t99 11.5q57 0 114.5 -11.5t111.5 -33.5l-21 -93l-53 6q-38 5 -77 8t-67 3q-66 0 -99 -14t-33 -46q0 -28 26.5 -43.5
t79.5 -30.5l62 -18q60 -17 101 -36.5t66 -43t36 -53t11 -67.5q0 -97 -65.5 -153.5t-186.5 -56.5q-33 0 -69 5.5t-71 15t-67.5 22.5t-58.5 27zM428 920l52 -50l-128 -127q-8 -8 -14 -10.5t-17 -2.5h-41q-11 0 -17 2.5t-14 10.5l-128 127l52 50l128 -94z" />
    <glyph glyph-name="Scedilla" unicode="&#x15e;" horiz-adv-x="592" 
d="M72 150l68 -15q57 -13 97 -18.5t74 -5.5q51 0 82.5 21t31.5 62q0 32 -24 48t-82 33l-68 20q-100 29 -153.5 74t-53.5 122q0 45 19.5 79t54 57t80.5 34.5t99 11.5q57 0 114.5 -11.5t111.5 -33.5l-21 -93l-53 6q-38 5 -77 8t-67 3q-66 0 -99 -14t-33 -46q0 -28 26.5 -43.5
t79.5 -30.5l62 -18q60 -17 101 -36.5t66 -43t36 -53t11 -67.5q0 -91 -58.5 -146.5t-166.5 -62.5q-12 -17 -12 -28t17 -16.5t37 -13.5t37 -23t17 -44q0 -47 -47 -77.5t-141 -30.5l-13 70l33 5q29 5 44.5 11t15.5 16q0 8 -15 13.5t-33.5 12.5t-33.5 17.5t-15 30.5
q0 15 9.5 29.5t24.5 29.5q-58 6 -116.5 24.5t-101.5 42.5z" />
    <glyph glyph-name="Scommaaccent" unicode="&#x218;" horiz-adv-x="592" 
d="M72 150l68 -15q57 -13 97 -18.5t74 -5.5q51 0 82.5 21t31.5 62q0 32 -24 48t-82 33l-68 20q-100 29 -153.5 74t-53.5 122q0 45 19.5 79t54 57t80.5 34.5t99 11.5q57 0 114.5 -11.5t111.5 -33.5l-21 -93l-53 6q-38 5 -77 8t-67 3q-66 0 -99 -14t-33 -46q0 -28 26.5 -43.5
t79.5 -30.5l62 -18q60 -17 101 -36.5t66 -43t36 -53t11 -67.5q0 -97 -65.5 -153.5t-186.5 -56.5q-33 0 -69 5.5t-71 15t-67.5 22.5t-58.5 27zM226 -281l20 223h81q10 0 16.5 -6.5t10.5 -16t5.5 -19.5t1.5 -16v-5q-1 -16 -8 -34t-24 -52l-43 -87z" />
    <glyph glyph-name="Tcaron" unicode="&#x164;" horiz-adv-x="615" 
d="M376 0h-138v547h-221v116h580v-116h-221v-547zM435 920l52 -50l-128 -127q-8 -8 -14 -10.5t-17 -2.5h-41q-11 0 -17 2.5t-14 10.5l-128 127l52 50l128 -94z" />
    <glyph glyph-name="Tcommaaccent" unicode="&#x162;" horiz-adv-x="615" 
d="M376 0h-138v547h-221v116h580v-116h-221v-547zM236 -281l20 223h81q10 0 16.5 -6.5t10.5 -16t5.5 -19.5t1.5 -16v-5q-1 -16 -8 -34t-24 -52l-43 -87z" />
    <glyph glyph-name="uni021A" unicode="&#x21a;" horiz-adv-x="615" 
d="M376 0h-138v547h-221v116h580v-116h-221v-547zM236 -281l20 223h81q10 0 16.5 -6.5t10.5 -16t5.5 -19.5t1.5 -16v-5q-1 -16 -8 -34t-24 -52l-43 -87z" />
    <glyph glyph-name="Tbar" unicode="&#x166;" horiz-adv-x="615" 
d="M102 277v99h136v171h-221v116h580v-116h-221v-171h136v-99h-136v-277h-138v277h-136z" />
    <glyph glyph-name="Ugrave" unicode="&#xd9;" horiz-adv-x="707" 
d="M646 273q0 -72 -18 -120.5t-53 -83.5q-38 -39 -95.5 -59t-126.5 -20q-68 0 -125 20t-96 59q-35 35 -53 83.5t-18 120.5v390h138v-378q0 -45 7 -74.5t27 -49.5q19 -18 51.5 -28.5t70.5 -10.5t71 10.5t51 28.5q20 20 27 49.5t7 74.5v378h135v-390zM216 835l51 76
q7 12 16 12q6 0 16 -7l183 -140l-41 -57z" />
    <glyph glyph-name="Uacute" unicode="&#xda;" horiz-adv-x="707" 
d="M646 273q0 -72 -18 -120.5t-53 -83.5q-38 -39 -95.5 -59t-126.5 -20q-68 0 -125 20t-96 59q-35 35 -53 83.5t-18 120.5v390h138v-378q0 -45 7 -74.5t27 -49.5q19 -18 51.5 -28.5t70.5 -10.5t71 10.5t51 28.5q20 20 27 49.5t7 74.5v378h135v-390zM268 719l-41 57l183 140
q10 7 16 7q8 0 16 -12l51 -76z" />
    <glyph glyph-name="Ucircumflex" unicode="&#xdb;" horiz-adv-x="707" 
d="M646 273q0 -72 -18 -120.5t-53 -83.5q-38 -39 -95.5 -59t-126.5 -20q-68 0 -125 20t-96 59q-35 35 -53 83.5t-18 120.5v390h138v-378q0 -45 7 -74.5t27 -49.5q19 -18 51.5 -28.5t70.5 -10.5t71 10.5t51 28.5q20 20 27 49.5t7 74.5v378h135v-390zM355 813l-128 -94l-52 50
l128 127q8 8 14 10.5t17 2.5h41q11 0 17 -2.5t14 -10.5l128 -127l-52 -50z" />
    <glyph glyph-name="Utilde" unicode="&#x168;" horiz-adv-x="707" 
d="M646 273q0 -72 -18 -120.5t-53 -83.5q-38 -39 -95.5 -59t-126.5 -20q-68 0 -125 20t-96 59q-35 35 -53 83.5t-18 120.5v390h138v-378q0 -45 7 -74.5t27 -49.5q19 -18 51.5 -28.5t70.5 -10.5t71 10.5t51 28.5q20 20 27 49.5t7 74.5v378h135v-390zM538 861q-4 -25 -13 -47
t-23.5 -39t-34.5 -27t-45 -10q-21 0 -39 7t-34 16t-29.5 16t-26.5 7q-16 0 -27 -12t-25 -37l-69 19q3 25 12.5 47t24 39t34 27t44.5 10q21 0 39 -7t34 -16t30 -16t27 -7q15 0 26.5 12t25.5 37z" />
    <glyph glyph-name="Udieresis" unicode="&#xdc;" horiz-adv-x="707" 
d="M646 273q0 -72 -18 -120.5t-53 -83.5q-38 -39 -95.5 -59t-126.5 -20q-68 0 -125 20t-96 59q-35 35 -53 83.5t-18 120.5v390h138v-378q0 -45 7 -74.5t27 -49.5q19 -18 51.5 -28.5t70.5 -10.5t71 10.5t51 28.5q20 20 27 49.5t7 74.5v378h135v-390zM313 748h-126v121h102
q14 0 19 -5t5 -17v-99zM518 748h-126v121h102q14 0 19 -5t5 -17v-99z" />
    <glyph glyph-name="Umacron" unicode="&#x16a;" horiz-adv-x="707" 
d="M646 273q0 -72 -18 -120.5t-53 -83.5q-38 -39 -95.5 -59t-126.5 -20q-68 0 -125 20t-96 59q-35 35 -53 83.5t-18 120.5v390h138v-378q0 -45 7 -74.5t27 -49.5q19 -18 51.5 -28.5t70.5 -10.5t71 10.5t51 28.5q20 20 27 49.5t7 74.5v378h135v-390zM194 762v97h317v-97h-317
z" />
    <glyph glyph-name="Ubreve" unicode="&#x16c;" horiz-adv-x="707" 
d="M646 273q0 -72 -18 -120.5t-53 -83.5q-38 -39 -95.5 -59t-126.5 -20q-68 0 -125 20t-96 59q-35 35 -53 83.5t-18 120.5v390h138v-378q0 -45 7 -74.5t27 -49.5q19 -18 51.5 -28.5t70.5 -10.5t71 10.5t51 28.5q20 20 27 49.5t7 74.5v378h135v-390zM353 726q-73 0 -116 41.5
t-52 107.5l81 13q13 -34 33.5 -51.5t53.5 -17.5q32 0 53 17.5t33 51.5l82 -13q-9 -66 -52 -107.5t-116 -41.5z" />
    <glyph glyph-name="Uring" unicode="&#x16e;" horiz-adv-x="707" 
d="M646 273q0 -72 -18 -120.5t-53 -83.5q-38 -39 -95.5 -59t-126.5 -20q-68 0 -125 20t-96 59q-35 35 -53 83.5t-18 120.5v390h138v-378q0 -45 7 -74.5t27 -49.5q19 -18 51.5 -28.5t70.5 -10.5t71 10.5t51 28.5q20 20 27 49.5t7 74.5v378h135v-390zM353 966q28 0 51.5 -9
t41 -25t27.5 -39.5t10 -51.5q0 -57 -37 -91t-93 -34t-93 34t-37 91q0 28 10 51.5t27.5 39.5t41 25t51.5 9zM353 790q29 0 41 14t12 37t-12 37t-41 14t-41.5 -14t-12.5 -37t12.5 -37t41.5 -14z" />
    <glyph glyph-name="Uhungarumlaut" unicode="&#x170;" horiz-adv-x="707" 
d="M646 273q0 -72 -18 -120.5t-53 -83.5q-38 -39 -95.5 -59t-126.5 -20q-68 0 -125 20t-96 59q-35 35 -53 83.5t-18 120.5v390h138v-378q0 -45 7 -74.5t27 -49.5q19 -18 51.5 -28.5t70.5 -10.5t71 10.5t51 28.5q20 20 27 49.5t7 74.5v378h135v-390zM218 734l-58 48l135 171
q8 11 15 11q8 0 15 -7l69 -62zM416 734l-58 48l135 171q8 11 15 11q8 0 15 -7l69 -62z" />
    <glyph glyph-name="Uogonek" unicode="&#x172;" horiz-adv-x="707" 
d="M199 285q0 -45 7 -74.5t27 -49.5q19 -18 51.5 -28.5t70.5 -10.5t71 10.5t51 28.5q20 20 27 49.5t7 74.5v378h135v-390q0 -53 -10 -92t-28.5 -68.5t-45.5 -52t-60 -40.5q-27 -15 -51 -25.5t-41 -21.5t-27 -25t-10 -35q0 -24 15.5 -35.5t42.5 -11.5q31 0 63 7l20 -67
q-26 -14 -54 -20.5t-53 -6.5q-62 0 -99 30.5t-37 75.5q0 32 15.5 59t41.5 47q-60 3 -110.5 22.5t-85.5 55.5q-35 35 -53 83.5t-18 120.5v390h138v-378z" />
    <glyph glyph-name="Wgrave" unicode="&#x1e80;" horiz-adv-x="1016" 
d="M656 0q-18 0 -22 14l-51 168q-8 27 -20 67t-23.5 82t-21 79.5t-13.5 59.5q-4 -22 -13 -58.5t-20 -78t-22.5 -83t-20.5 -72.5l-51 -178h-142q-18 0 -22 14l-206 649h129q8 0 11.5 -2t5.5 -10l87 -284q17 -57 34 -118t28 -106q5 27 13 61.5t18 72.5t20.5 77.5t21.5 76.5
l69 232h112q8 0 11.5 -2t5.5 -10l89 -293q18 -60 33 -118t23 -97q11 44 28.5 111t40.5 140l81 257q2 8 5.5 10t10.5 2h123l-211 -663h-141zM375 835l51 76q7 12 16 12q6 0 16 -7l183 -140l-41 -57z" />
    <glyph glyph-name="Wacute" unicode="&#x1e82;" horiz-adv-x="1016" 
d="M656 0q-18 0 -22 14l-51 168q-8 27 -20 67t-23.5 82t-21 79.5t-13.5 59.5q-4 -22 -13 -58.5t-20 -78t-22.5 -83t-20.5 -72.5l-51 -178h-142q-18 0 -22 14l-206 649h129q8 0 11.5 -2t5.5 -10l87 -284q17 -57 34 -118t28 -106q5 27 13 61.5t18 72.5t20.5 77.5t21.5 76.5
l69 232h112q8 0 11.5 -2t5.5 -10l89 -293q18 -60 33 -118t23 -97q11 44 28.5 111t40.5 140l81 257q2 8 5.5 10t10.5 2h123l-211 -663h-141zM420 719l-41 57l183 140q10 7 16 7q8 0 16 -12l51 -76z" />
    <glyph glyph-name="Wcircumflex" unicode="&#x174;" horiz-adv-x="1016" 
d="M656 0q-18 0 -22 14l-51 168q-8 27 -20 67t-23.5 82t-21 79.5t-13.5 59.5q-4 -22 -13 -58.5t-20 -78t-22.5 -83t-20.5 -72.5l-51 -178h-142q-18 0 -22 14l-206 649h129q8 0 11.5 -2t5.5 -10l87 -284q17 -57 34 -118t28 -106q5 27 13 61.5t18 72.5t20.5 77.5t21.5 76.5
l69 232h112q8 0 11.5 -2t5.5 -10l89 -293q18 -60 33 -118t23 -97q11 44 28.5 111t40.5 140l81 257q2 8 5.5 10t10.5 2h123l-211 -663h-141zM505 813l-128 -94l-52 50l128 127q8 8 14 10.5t17 2.5h41q11 0 17 -2.5t14 -10.5l128 -127l-52 -50z" />
    <glyph glyph-name="Wdieresis" unicode="&#x1e84;" horiz-adv-x="1016" 
d="M656 0q-18 0 -22 14l-51 168q-8 27 -20 67t-23.5 82t-21 79.5t-13.5 59.5q-4 -22 -13 -58.5t-20 -78t-22.5 -83t-20.5 -72.5l-51 -178h-142q-18 0 -22 14l-206 649h129q8 0 11.5 -2t5.5 -10l87 -284q17 -57 34 -118t28 -106q5 27 13 61.5t18 72.5t20.5 77.5t21.5 76.5
l69 232h112q8 0 11.5 -2t5.5 -10l89 -293q18 -60 33 -118t23 -97q11 44 28.5 111t40.5 140l81 257q2 8 5.5 10t10.5 2h123l-211 -663h-141zM466 748h-126v121h102q14 0 19 -5t5 -17v-99zM671 748h-126v121h102q14 0 19 -5t5 -17v-99z" />
    <glyph glyph-name="Ygrave" unicode="&#x1ef2;" horiz-adv-x="669" 
d="M405 211v-211h-138v211l-267 452h141q8 0 11.5 -2t7.5 -9l87 -153q25 -45 49 -91.5t42 -81.5q17 35 42 81t51 94l84 150q4 7 8 9.5t12 2.5h134zM190 835l51 76q7 12 16 12q6 0 16 -7l183 -140l-41 -57z" />
    <glyph glyph-name="Yacute" unicode="&#xdd;" horiz-adv-x="669" 
d="M405 211v-211h-138v211l-267 452h141q8 0 11.5 -2t7.5 -9l87 -153q25 -45 49 -91.5t42 -81.5q17 35 42 81t51 94l84 150q4 7 8 9.5t12 2.5h134zM254 719l-41 57l183 140q10 7 16 7q8 0 16 -12l51 -76z" />
    <glyph glyph-name="Ycircumflex" unicode="&#x176;" horiz-adv-x="669" 
d="M405 211v-211h-138v211l-267 452h141q8 0 11.5 -2t7.5 -9l87 -153q25 -45 49 -91.5t42 -81.5q17 35 42 81t51 94l84 150q4 7 8 9.5t12 2.5h134zM335 813l-128 -94l-52 50l128 127q8 8 14 10.5t17 2.5h41q11 0 17 -2.5t14 -10.5l128 -127l-52 -50z" />
    <glyph glyph-name="Ydieresis" unicode="&#x178;" horiz-adv-x="669" 
d="M405 211v-211h-138v211l-267 452h141q8 0 11.5 -2t7.5 -9l87 -153q25 -45 49 -91.5t42 -81.5q17 35 42 81t51 94l84 150q4 7 8 9.5t12 2.5h134zM294 748h-126v121h102q14 0 19 -5t5 -17v-99zM499 748h-126v121h102q14 0 19 -5t5 -17v-99z" />
    <glyph glyph-name="Zacute" unicode="&#x179;" horiz-adv-x="616" 
d="M45 547v116h520v-77q0 -11 -3 -17.5t-11 -17.5l-230 -303q-25 -33 -53 -68.5t-51 -63.5h352v-116h-521v76q0 11 2.5 17.5t10.5 18.5l230 303q29 39 57 73.5t48 58.5h-351zM221 719l-41 57l183 140q10 7 16 7q8 0 16 -12l51 -76z" />
    <glyph glyph-name="Zcaron" unicode="&#x17d;" horiz-adv-x="616" 
d="M45 547v116h520v-77q0 -11 -3 -17.5t-11 -17.5l-230 -303q-25 -33 -53 -68.5t-51 -63.5h352v-116h-521v76q0 11 2.5 17.5t10.5 18.5l230 303q29 39 57 73.5t48 58.5h-351zM437 920l52 -50l-128 -127q-8 -8 -14 -10.5t-17 -2.5h-41q-11 0 -17 2.5t-14 10.5l-128 127l52 50
l128 -94z" />
    <glyph glyph-name="Zdotaccent" unicode="&#x17b;" horiz-adv-x="616" 
d="M45 547v116h520v-77q0 -11 -3 -17.5t-11 -17.5l-230 -303q-25 -33 -53 -68.5t-51 -63.5h352v-116h-521v76q0 11 2.5 17.5t10.5 18.5l230 303q29 39 57 73.5t48 58.5h-351zM374 732h-131v125h106q15 0 20 -5t5 -18v-102z" />
    <glyph glyph-name="agrave" unicode="&#xe0;" horiz-adv-x="551" 
d="M342 307q0 38 -18 56q-21 21 -72 21q-25 0 -55.5 -6.5t-63.5 -17.5l-41 -14l-40 70q49 38 104 59t111 21q47 0 87 -13t69 -43q23 -23 35.5 -57t12.5 -84v-198l67 -13v-69q-18 -9 -45 -15t-47 -6q-26 0 -47 11.5t-39 31.5l-26 -14q-66 -35 -125 -35q-40 0 -73 12.5
t-56.5 34.5t-36.5 52t-13 65q0 66 46 102t124 36h3q32 0 70.5 -5.5t68.5 -13.5v32zM342 190q0 10 -11 10h-140q-21 0 -29.5 -9.5t-8.5 -29.5q0 -28 20 -46t60 -18q26 0 54 6.5t42 12.5q8 3 10.5 6t2.5 11v57zM140 658l51 76q7 12 16 12q6 0 16 -7l183 -140l-41 -57z" />
    <glyph glyph-name="aacute" unicode="&#xe1;" horiz-adv-x="551" 
d="M342 307q0 38 -18 56q-21 21 -72 21q-25 0 -55.5 -6.5t-63.5 -17.5l-41 -14l-40 70q49 38 104 59t111 21q47 0 87 -13t69 -43q23 -23 35.5 -57t12.5 -84v-198l67 -13v-69q-18 -9 -45 -15t-47 -6q-26 0 -47 11.5t-39 31.5l-26 -14q-66 -35 -125 -35q-40 0 -73 12.5
t-56.5 34.5t-36.5 52t-13 65q0 66 46 102t124 36h3q32 0 70.5 -5.5t68.5 -13.5v32zM342 190q0 10 -11 10h-140q-21 0 -29.5 -9.5t-8.5 -29.5q0 -28 20 -46t60 -18q26 0 54 6.5t42 12.5q8 3 10.5 6t2.5 11v57zM185 542l-41 57l183 140q10 7 16 7q8 0 16 -12l51 -76z" />
    <glyph glyph-name="acircumflex" unicode="&#xe2;" horiz-adv-x="551" 
d="M342 307q0 38 -18 56q-21 21 -72 21q-25 0 -55.5 -6.5t-63.5 -17.5l-41 -14l-40 70q49 38 104 59t111 21q47 0 87 -13t69 -43q23 -23 35.5 -57t12.5 -84v-198l67 -13v-69q-18 -9 -45 -15t-47 -6q-26 0 -47 11.5t-39 31.5l-26 -14q-66 -35 -125 -35q-40 0 -73 12.5
t-56.5 34.5t-36.5 52t-13 65q0 66 46 102t124 36h3q32 0 70.5 -5.5t68.5 -13.5v32zM342 190q0 10 -11 10h-140q-21 0 -29.5 -9.5t-8.5 -29.5q0 -28 20 -46t60 -18q26 0 54 6.5t42 12.5q8 3 10.5 6t2.5 11v57zM273 636l-128 -94l-52 50l128 127q8 8 14 10.5t17 2.5h41
q11 0 17 -2.5t14 -10.5l128 -127l-52 -50z" />
    <glyph glyph-name="atilde" unicode="&#xe3;" horiz-adv-x="551" 
d="M342 307q0 38 -18 56q-21 21 -72 21q-25 0 -55.5 -6.5t-63.5 -17.5l-41 -14l-40 70q49 38 104 59t111 21q47 0 87 -13t69 -43q23 -23 35.5 -57t12.5 -84v-198l67 -13v-69q-18 -9 -45 -15t-47 -6q-26 0 -47 11.5t-39 31.5l-26 -14q-66 -35 -125 -35q-40 0 -73 12.5
t-56.5 34.5t-36.5 52t-13 65q0 66 46 102t124 36h3q32 0 70.5 -5.5t68.5 -13.5v32zM342 190q0 10 -11 10h-140q-21 0 -29.5 -9.5t-8.5 -29.5q0 -28 20 -46t60 -18q26 0 54 6.5t42 12.5q8 3 10.5 6t2.5 11v57zM456 684q-4 -25 -13 -47t-23.5 -39t-34.5 -27t-45 -10
q-21 0 -39 7t-34 16t-29.5 16t-26.5 7q-16 0 -27 -12t-25 -37l-69 19q3 25 12.5 47t24 39t34 27t44.5 10q21 0 39 -7t34 -16t30 -16t27 -7q15 0 26.5 12t25.5 37z" />
    <glyph glyph-name="adieresis" unicode="&#xe4;" horiz-adv-x="551" 
d="M342 307q0 38 -18 56q-21 21 -72 21q-25 0 -55.5 -6.5t-63.5 -17.5l-41 -14l-40 70q49 38 104 59t111 21q47 0 87 -13t69 -43q23 -23 35.5 -57t12.5 -84v-198l67 -13v-69q-18 -9 -45 -15t-47 -6q-26 0 -47 11.5t-39 31.5l-26 -14q-66 -35 -125 -35q-40 0 -73 12.5
t-56.5 34.5t-36.5 52t-13 65q0 66 46 102t124 36h3q32 0 70.5 -5.5t68.5 -13.5v32zM342 190q0 10 -11 10h-140q-21 0 -29.5 -9.5t-8.5 -29.5q0 -28 20 -46t60 -18q26 0 54 6.5t42 12.5q8 3 10.5 6t2.5 11v57zM234 571h-126v121h102q14 0 19 -5t5 -17v-99zM439 571h-126v121
h102q14 0 19 -5t5 -17v-99z" />
    <glyph glyph-name="amacron" unicode="&#x101;" horiz-adv-x="551" 
d="M342 307q0 38 -18 56q-21 21 -72 21q-25 0 -55.5 -6.5t-63.5 -17.5l-41 -14l-40 70q49 38 104 59t111 21q47 0 87 -13t69 -43q23 -23 35.5 -57t12.5 -84v-198l67 -13v-69q-18 -9 -45 -15t-47 -6q-26 0 -47 11.5t-39 31.5l-26 -14q-66 -35 -125 -35q-40 0 -73 12.5
t-56.5 34.5t-36.5 52t-13 65q0 66 46 102t124 36h3q32 0 70.5 -5.5t68.5 -13.5v32zM342 190q0 10 -11 10h-140q-21 0 -29.5 -9.5t-8.5 -29.5q0 -28 20 -46t60 -18q26 0 54 6.5t42 12.5q8 3 10.5 6t2.5 11v57zM115 585v97h317v-97h-317z" />
    <glyph glyph-name="abreve" unicode="&#x103;" horiz-adv-x="551" 
d="M342 307q0 38 -18 56q-21 21 -72 21q-25 0 -55.5 -6.5t-63.5 -17.5l-41 -14l-40 70q49 38 104 59t111 21q47 0 87 -13t69 -43q23 -23 35.5 -57t12.5 -84v-198l67 -13v-69q-18 -9 -45 -15t-47 -6q-26 0 -47 11.5t-39 31.5l-26 -14q-66 -35 -125 -35q-40 0 -73 12.5
t-56.5 34.5t-36.5 52t-13 65q0 66 46 102t124 36h3q32 0 70.5 -5.5t68.5 -13.5v32zM342 190q0 10 -11 10h-140q-21 0 -29.5 -9.5t-8.5 -29.5q0 -28 20 -46t60 -18q26 0 54 6.5t42 12.5q8 3 10.5 6t2.5 11v57zM274 555q-73 0 -116 41.5t-52 107.5l81 13q13 -34 33.5 -51.5
t53.5 -17.5q32 0 53 17.5t33 51.5l82 -13q-9 -66 -52 -107.5t-116 -41.5z" />
    <glyph glyph-name="acaron" unicode="&#x1ce;" horiz-adv-x="551" 
d="M342 307q0 38 -18 56q-21 21 -72 21q-25 0 -55.5 -6.5t-63.5 -17.5l-41 -14l-40 70q49 38 104 59t111 21q47 0 87 -13t69 -43q23 -23 35.5 -57t12.5 -84v-198l67 -13v-69q-18 -9 -45 -15t-47 -6q-26 0 -47 11.5t-39 31.5l-26 -14q-66 -35 -125 -35q-40 0 -73 12.5
t-56.5 34.5t-36.5 52t-13 65q0 66 46 102t124 36h3q32 0 70.5 -5.5t68.5 -13.5v32zM342 190q0 10 -11 10h-140q-21 0 -29.5 -9.5t-8.5 -29.5q0 -28 20 -46t60 -18q26 0 54 6.5t42 12.5q8 3 10.5 6t2.5 11v57zM400 743l52 -50l-128 -127q-8 -8 -14 -10.5t-17 -2.5h-41
q-11 0 -17 2.5t-14 10.5l-128 127l52 50l128 -94z" />
    <glyph glyph-name="aring" unicode="&#xe5;" horiz-adv-x="551" 
d="M342 307q0 38 -18 56q-21 21 -72 21q-25 0 -55.5 -6.5t-63.5 -17.5l-41 -14l-40 70q49 38 104 59t111 21q47 0 87 -13t69 -43q23 -23 35.5 -57t12.5 -84v-198l67 -13v-69q-18 -9 -45 -15t-47 -6q-26 0 -47 11.5t-39 31.5l-26 -14q-66 -35 -125 -35q-40 0 -73 12.5
t-56.5 34.5t-36.5 52t-13 65q0 66 46 102t124 36h3q32 0 70.5 -5.5t68.5 -13.5v32zM342 190q0 10 -11 10h-140q-21 0 -29.5 -9.5t-8.5 -29.5q0 -28 20 -46t60 -18q26 0 54 6.5t42 12.5q8 3 10.5 6t2.5 11v57zM272 795q28 0 51.5 -9t41 -25t27.5 -39.5t10 -51.5
q0 -57 -37 -91t-93 -34t-93 34t-37 91q0 28 10 51.5t27.5 39.5t41 25t51.5 9zM272 619q29 0 41 14t12 37t-12 37t-41 14t-41.5 -14t-12.5 -37t12.5 -37t41.5 -14z" />
    <glyph glyph-name="aringacute" unicode="&#x1fb;" horiz-adv-x="551" 
d="M342 307q0 38 -18 56q-21 21 -72 21q-25 0 -55.5 -6.5t-63.5 -17.5l-41 -14l-40 70q49 38 104 59t111 21q47 0 87 -13t69 -43q23 -23 35.5 -57t12.5 -84v-198l67 -13v-69q-18 -9 -45 -15t-47 -6q-26 0 -47 11.5t-39 31.5l-26 -14q-66 -35 -125 -35q-40 0 -73 12.5
t-56.5 34.5t-36.5 52t-13 65q0 66 46 102t124 36h3q32 0 70.5 -5.5t68.5 -13.5v32zM342 190q0 10 -11 10h-140q-21 0 -29.5 -9.5t-8.5 -29.5q0 -28 20 -46t60 -18q26 0 54 6.5t42 12.5q8 3 10.5 6t2.5 11v57zM273 772q28 0 51.5 -9t41 -25t27.5 -39.5t10 -51.5
q0 -57 -37 -91t-93 -34t-93 34t-37 91q0 28 10 51.5t27.5 39.5t41 25t51.5 9zM273 596q29 0 41 14t12 37t-12 37t-41 14t-41.5 -14t-12.5 -37t12.5 -37t41.5 -14zM182 784l-41 57l183 140q10 7 16 7q8 0 16 -12l51 -76z" />
    <glyph glyph-name="aogonek" unicode="&#x105;" horiz-adv-x="551" 
d="M395 13q-8 3 -17.5 10t-17.5 18l-26 -14q-66 -35 -125 -35q-40 0 -73 12.5t-56.5 34.5t-36.5 52t-13 65q0 66 46 102t124 36h3q32 0 70.5 -5.5t68.5 -13.5v35q0 35 -16 51q-13 13 -30 17.5t-43 4.5t-58 -6.5t-61 -16.5l-41 -14l-39 70q49 38 103 59t110 21q41 0 78 -10.5
t65 -33.5t44.5 -60t16.5 -89v-202l67 -13v-69q-64 -20 -106 -48t-42 -61q0 -47 63 -47q23 0 58 7l21 -66q-27 -14 -54.5 -20.5t-53.5 -6.5q-63 0 -99 31t-36 78q0 43 30.5 75.5t75.5 51.5zM342 190q0 10 -11 10h-140q-21 0 -29.5 -9.5t-8.5 -29.5q0 -28 20 -46t60 -18
q26 0 54 6.5t42 12.5q8 3 10.5 6t2.5 11v57z" />
    <glyph glyph-name="ae" unicode="&#xe6;" horiz-adv-x="853" 
d="M243 96q29 0 62 8.5t58 22.5q-16 36 -21 77h-143q-24 0 -34 -11t-10 -30q0 -27 22.5 -47t65.5 -20zM472 204q5 -44 38 -71t93 -27q23 0 49.5 5.5t55.5 15.5l61 21l41 -71q-44 -38 -102 -61.5t-119 -23.5q-54 0 -98 17.5t-75 48.5l-38 -22q-36 -21 -74.5 -32.5
t-80.5 -11.5q-39 0 -73.5 12t-61 33.5t-41.5 52t-15 68.5q0 34 13 60.5t35.5 44.5t53.5 27t68 9h5q32 0 68.5 -5t65.5 -13v29q0 44 -23.5 58.5t-64.5 14.5q-26 0 -58 -6.5t-61 -16.5l-41 -14l-39 70q49 38 103 59t109 21q45 0 85 -16t69 -45q32 29 73 45t88 16
q52 0 96 -18.5t76 -50.5t50 -74.5t18 -91.5q0 -11 -1 -22t-4 -21q-3 -9 -7.5 -11.5t-12.5 -2.5h-324zM693 295q-4 39 -33 63.5t-78 24.5t-77 -24t-33 -64h221z" />
    <glyph glyph-name="aeacute" unicode="&#x1fd;" horiz-adv-x="853" 
d="M243 96q29 0 62 8.5t58 22.5q-16 36 -21 77h-143q-24 0 -34 -11t-10 -30q0 -27 22.5 -47t65.5 -20zM472 204q5 -44 38 -71t93 -27q23 0 49.5 5.5t55.5 15.5l61 21l41 -71q-44 -38 -102 -61.5t-119 -23.5q-54 0 -98 17.5t-75 48.5l-38 -22q-36 -21 -74.5 -32.5
t-80.5 -11.5q-39 0 -73.5 12t-61 33.5t-41.5 52t-15 68.5q0 34 13 60.5t35.5 44.5t53.5 27t68 9h5q32 0 68.5 -5t65.5 -13v29q0 44 -23.5 58.5t-64.5 14.5q-26 0 -58 -6.5t-61 -16.5l-41 -14l-39 70q49 38 103 59t109 21q45 0 85 -16t69 -45q32 29 73 45t88 16
q52 0 96 -18.5t76 -50.5t50 -74.5t18 -91.5q0 -11 -1 -22t-4 -21q-3 -9 -7.5 -11.5t-12.5 -2.5h-324zM693 295q-4 39 -33 63.5t-78 24.5t-77 -24t-33 -64h221zM368 542l-41 57l183 140q10 7 16 7q8 0 16 -12l51 -76z" />
    <glyph glyph-name="cacute" unicode="&#x107;" horiz-adv-x="516" 
d="M497 86q-21 -19 -47 -36t-55 -30t-60.5 -20.5t-62.5 -7.5q-55 0 -99.5 18t-76 51.5t-49 80.5t-17.5 104t19.5 103t52.5 78.5t76.5 50.5t90.5 18q42 0 78.5 -12.5t65 -34.5t48.5 -52.5t29 -65.5l-85 -43l-45 44q-30 29 -51.5 39t-45.5 10q-41 0 -71 -33t-30 -100
q0 -74 30.5 -107.5t93.5 -33.5q21 0 50.5 7t59.5 19l58 23zM180 542l-41 57l183 140q10 7 16 7q8 0 16 -12l51 -76z" />
    <glyph glyph-name="ccedilla" unicode="&#xe7;" horiz-adv-x="516" 
d="M497 86q-37 -34 -89 -60.5t-108 -31.5q-14 -20 -14 -31t17 -16.5t37 -13.5t37 -23t17 -44q0 -47 -47 -77.5t-141 -30.5l-13 70l33 5q29 5 44.5 11t15.5 16q0 8 -15 13.5t-33.5 12.5t-33.5 17.5t-15 30.5q0 16 10 30.5t27 31.5q-45 7 -81.5 27.5t-62 53t-39 75.5t-13.5 94
q0 57 19.5 103t52.5 78.5t76.5 50.5t90.5 18q42 0 78.5 -12.5t65 -34.5t48.5 -52.5t29 -65.5l-85 -43l-45 44q-30 29 -51.5 39t-45.5 10q-41 0 -71 -33t-30 -100q0 -74 30.5 -107.5t93.5 -33.5q21 0 50.5 7t59.5 19l58 23z" />
    <glyph glyph-name="ccircumflex" unicode="&#x109;" horiz-adv-x="516" 
d="M497 86q-21 -19 -47 -36t-55 -30t-60.5 -20.5t-62.5 -7.5q-55 0 -99.5 18t-76 51.5t-49 80.5t-17.5 104t19.5 103t52.5 78.5t76.5 50.5t90.5 18q42 0 78.5 -12.5t65 -34.5t48.5 -52.5t29 -65.5l-85 -43l-45 44q-30 29 -51.5 39t-45.5 10q-41 0 -71 -33t-30 -100
q0 -74 30.5 -107.5t93.5 -33.5q21 0 50.5 7t59.5 19l58 23zM267 636l-128 -94l-52 50l128 127q8 8 14 10.5t17 2.5h41q11 0 17 -2.5t14 -10.5l128 -127l-52 -50z" />
    <glyph glyph-name="ccaron" unicode="&#x10d;" horiz-adv-x="516" 
d="M497 86q-21 -19 -47 -36t-55 -30t-60.5 -20.5t-62.5 -7.5q-55 0 -99.5 18t-76 51.5t-49 80.5t-17.5 104t19.5 103t52.5 78.5t76.5 50.5t90.5 18q42 0 78.5 -12.5t65 -34.5t48.5 -52.5t29 -65.5l-85 -43l-45 44q-30 29 -51.5 39t-45.5 10q-41 0 -71 -33t-30 -100
q0 -74 30.5 -107.5t93.5 -33.5q21 0 50.5 7t59.5 19l58 23zM395 743l52 -50l-128 -127q-8 -8 -14 -10.5t-17 -2.5h-41q-11 0 -17 2.5t-14 10.5l-128 127l52 50l128 -94z" />
    <glyph glyph-name="cdotaccent" unicode="&#x10b;" horiz-adv-x="516" 
d="M497 86q-21 -19 -47 -36t-55 -30t-60.5 -20.5t-62.5 -7.5q-55 0 -99.5 18t-76 51.5t-49 80.5t-17.5 104t19.5 103t52.5 78.5t76.5 50.5t90.5 18q42 0 78.5 -12.5t65 -34.5t48.5 -52.5t29 -65.5l-85 -43l-45 44q-30 29 -51.5 39t-45.5 10q-41 0 -71 -33t-30 -100
q0 -74 30.5 -107.5t93.5 -33.5q21 0 50.5 7t59.5 19l58 23zM332 555h-131v125h106q15 0 20 -5t5 -18v-102z" />
    <glyph glyph-name="dcaron" unicode="&#x10f;" horiz-adv-x="718" 
d="M387 709h129v-709h-97l-18 45l-37 -20q-29 -16 -57 -24.5t-58 -8.5q-48 0 -88.5 18t-69.5 51t-45 79.5t-16 102.5q0 55 17 101.5t46 80t69 52.5t87 19q36 0 69.5 -12.5t68.5 -33.5v259zM387 336q0 8 -1 11.5t-9 7.5q-18 9 -44.5 15t-55.5 6q-57 0 -86 -29t-29 -103
q0 -76 29.5 -104.5t85.5 -28.5q26 0 54 6t46 15q10 5 10 19v185zM574 486l20 223h81q10 0 16.5 -6.5t10.5 -16t5.5 -19.5t1.5 -16v-5q-1 -16 -8 -34t-24 -52l-43 -87z" />
    <glyph glyph-name="dcroat" unicode="&#x111;" horiz-adv-x="577" 
d="M387 556h-155v81h155v72h129v-72l74 -13v-68h-74v-556h-97l-18 45l-37 -20q-29 -16 -57 -24.5t-58 -8.5q-48 0 -88.5 18t-69.5 51t-45 79.5t-16 102.5q0 55 17 101.5t46 80t69 52.5t87 19q36 0 69.5 -12.5t68.5 -33.5v106zM387 336q0 8 -1 11.5t-9 7.5q-18 9 -44.5 15
t-55.5 6q-57 0 -86 -29t-29 -103q0 -76 29.5 -104.5t85.5 -28.5q26 0 54 6t46 15q10 5 10 19v185z" />
    <glyph glyph-name="eth" unicode="&#xf0;" horiz-adv-x="565" 
d="M111 575l92 45l-73 41l39 68q39 -12 73.5 -26t64.5 -32l128 63l45 -77l-92 -45q74 -69 108 -156.5t34 -182.5q0 -66 -18 -118.5t-51.5 -89t-80.5 -55.5t-105 -19h-3q-55 0 -100 18.5t-76.5 51.5t-48.5 77.5t-17 96.5q0 54 18 97t48.5 73t71.5 46t86 16q28 0 58 -7t55 -19
q-12 35 -33 66t-50 54l-128 -62zM399 263q0 18 -1 33t-4 31q-2 8 -5.5 11.5t-11.5 7.5q-15 7 -39.5 11.5t-53.5 4.5h-4q-54 0 -86.5 -29t-32.5 -98q0 -56 29.5 -92t89.5 -36q63 0 91 41.5t28 114.5z" />
    <glyph glyph-name="egrave" unicode="&#xe8;" horiz-adv-x="543" 
d="M511 263q0 -11 -1 -23.5t-4 -22.5q-3 -9 -8 -11t-13 -2h-323q5 -45 37 -71.5t92 -26.5q24 0 53 6t60 17l55 19l41 -72q-44 -38 -102 -61t-119 -23q-53 0 -98.5 18.5t-79 52t-52.5 79.5t-19 101q0 58 19.5 104.5t52.5 79.5t77.5 51t94.5 18q52 0 96 -18.5t75 -50t48.5 -74
t17.5 -90.5zM383 295q-4 39 -33 63.5t-77 24.5q-49 0 -77.5 -24.5t-33.5 -63.5h221zM144 658l51 76q7 12 16 12q6 0 16 -7l183 -140l-41 -57z" />
    <glyph glyph-name="eacute" unicode="&#xe9;" horiz-adv-x="543" 
d="M511 263q0 -11 -1 -23.5t-4 -22.5q-3 -9 -8 -11t-13 -2h-323q5 -45 37 -71.5t92 -26.5q24 0 53 6t60 17l55 19l41 -72q-44 -38 -102 -61t-119 -23q-53 0 -98.5 18.5t-79 52t-52.5 79.5t-19 101q0 58 19.5 104.5t52.5 79.5t77.5 51t94.5 18q52 0 96 -18.5t75 -50t48.5 -74
t17.5 -90.5zM383 295q-4 39 -33 63.5t-77 24.5q-49 0 -77.5 -24.5t-33.5 -63.5h221zM183 542l-41 57l183 140q10 7 16 7q8 0 16 -12l51 -76z" />
    <glyph glyph-name="ecircumflex" unicode="&#xea;" horiz-adv-x="543" 
d="M511 263q0 -11 -1 -23.5t-4 -22.5q-3 -9 -8 -11t-13 -2h-323q5 -45 37 -71.5t92 -26.5q24 0 53 6t60 17l55 19l41 -72q-44 -38 -102 -61t-119 -23q-53 0 -98.5 18.5t-79 52t-52.5 79.5t-19 101q0 58 19.5 104.5t52.5 79.5t77.5 51t94.5 18q52 0 96 -18.5t75 -50t48.5 -74
t17.5 -90.5zM383 295q-4 39 -33 63.5t-77 24.5q-49 0 -77.5 -24.5t-33.5 -63.5h221zM273 636l-128 -94l-52 50l128 127q8 8 14 10.5t17 2.5h41q11 0 17 -2.5t14 -10.5l128 -127l-52 -50z" />
    <glyph glyph-name="ecaron" unicode="&#x11b;" horiz-adv-x="543" 
d="M511 263q0 -11 -1 -23.5t-4 -22.5q-3 -9 -8 -11t-13 -2h-323q5 -45 37 -71.5t92 -26.5q24 0 53 6t60 17l55 19l41 -72q-44 -38 -102 -61t-119 -23q-53 0 -98.5 18.5t-79 52t-52.5 79.5t-19 101q0 58 19.5 104.5t52.5 79.5t77.5 51t94.5 18q52 0 96 -18.5t75 -50t48.5 -74
t17.5 -90.5zM383 295q-4 39 -33 63.5t-77 24.5q-49 0 -77.5 -24.5t-33.5 -63.5h221zM400 743l52 -50l-128 -127q-8 -8 -14 -10.5t-17 -2.5h-41q-11 0 -17 2.5t-14 10.5l-128 127l52 50l128 -94z" />
    <glyph glyph-name="edieresis" unicode="&#xeb;" horiz-adv-x="543" 
d="M511 263q0 -11 -1 -23.5t-4 -22.5q-3 -9 -8 -11t-13 -2h-323q5 -45 37 -71.5t92 -26.5q24 0 53 6t60 17l55 19l41 -72q-44 -38 -102 -61t-119 -23q-53 0 -98.5 18.5t-79 52t-52.5 79.5t-19 101q0 58 19.5 104.5t52.5 79.5t77.5 51t94.5 18q52 0 96 -18.5t75 -50t48.5 -74
t17.5 -90.5zM383 295q-4 39 -33 63.5t-77 24.5q-49 0 -77.5 -24.5t-33.5 -63.5h221zM232 571h-126v121h102q14 0 19 -5t5 -17v-99zM437 571h-126v121h102q14 0 19 -5t5 -17v-99z" />
    <glyph glyph-name="emacron" unicode="&#x113;" horiz-adv-x="543" 
d="M511 263q0 -11 -1 -23.5t-4 -22.5q-3 -9 -8 -11t-13 -2h-323q5 -45 37 -71.5t92 -26.5q24 0 53 6t60 17l55 19l41 -72q-44 -38 -102 -61t-119 -23q-53 0 -98.5 18.5t-79 52t-52.5 79.5t-19 101q0 58 19.5 104.5t52.5 79.5t77.5 51t94.5 18q52 0 96 -18.5t75 -50t48.5 -74
t17.5 -90.5zM383 295q-4 39 -33 63.5t-77 24.5q-49 0 -77.5 -24.5t-33.5 -63.5h221zM113 585v97h317v-97h-317z" />
    <glyph glyph-name="ebreve" unicode="&#x115;" horiz-adv-x="543" 
d="M511 263q0 -11 -1 -23.5t-4 -22.5q-3 -9 -8 -11t-13 -2h-323q5 -45 37 -71.5t92 -26.5q24 0 53 6t60 17l55 19l41 -72q-44 -38 -102 -61t-119 -23q-53 0 -98.5 18.5t-79 52t-52.5 79.5t-19 101q0 58 19.5 104.5t52.5 79.5t77.5 51t94.5 18q52 0 96 -18.5t75 -50t48.5 -74
t17.5 -90.5zM383 295q-4 39 -33 63.5t-77 24.5q-49 0 -77.5 -24.5t-33.5 -63.5h221zM272 555q-73 0 -116 41.5t-52 107.5l81 13q13 -34 33.5 -51.5t53.5 -17.5q32 0 53 17.5t33 51.5l82 -13q-9 -66 -52 -107.5t-116 -41.5z" />
    <glyph glyph-name="edotaccent" unicode="&#x117;" horiz-adv-x="543" 
d="M511 263q0 -11 -1 -23.5t-4 -22.5q-3 -9 -8 -11t-13 -2h-323q5 -45 37 -71.5t92 -26.5q24 0 53 6t60 17l55 19l41 -72q-44 -38 -102 -61t-119 -23q-53 0 -98.5 18.5t-79 52t-52.5 79.5t-19 101q0 58 19.5 104.5t52.5 79.5t77.5 51t94.5 18q52 0 96 -18.5t75 -50t48.5 -74
t17.5 -90.5zM383 295q-4 39 -33 63.5t-77 24.5q-49 0 -77.5 -24.5t-33.5 -63.5h221zM338 555h-131v125h106q15 0 20 -5t5 -18v-102z" />
    <glyph glyph-name="eogonek" unicode="&#x119;" horiz-adv-x="543" 
d="M383 295q-4 39 -33 63.5t-77 24.5q-49 0 -77.5 -24.5t-33.5 -63.5h221zM279 -8q-53 0 -98.5 18.5t-79 52t-52.5 79.5t-19 101q0 58 19.5 104.5t52.5 79.5t77.5 51t94.5 18q52 0 96 -18.5t75 -50t48.5 -74t17.5 -90.5q0 -11 -1 -23.5t-4 -22.5q-3 -9 -8 -11t-13 -2h-323
q5 -45 37 -71.5t92 -26.5q24 0 53 6t60 17l55 19l41 -72q-29 -20 -55.5 -40.5t-46.5 -42t-32 -43t-12 -42.5q0 -23 15.5 -34t42.5 -11q15 0 31 1.5t32 5.5l20 -67q-54 -27 -107 -27q-64 0 -100 30t-36 72q0 65 76 122q-8 -3 -23 -5.5t-25 -2.5h-1z" />
    <glyph glyph-name="gcircumflex" unicode="&#x11d;" horiz-adv-x="555" 
d="M399 456q27 26 51 38t44 12q17 0 34.5 -3.5t31.5 -14.5v-73l-90 -15q-8 -2 -10 -4t2 -10q20 -38 20 -84q0 -43 -17 -79t-46.5 -61.5t-69 -39.5t-85.5 -14q-14 0 -32 3t-29 5q-8 2 -10.5 -0.5t-4.5 -7.5l-6 -14q-4 -9 -4 -14q0 -9 14 -9h143q94 0 138 -35.5t44 -102.5
q0 -42 -19.5 -76t-54 -58t-81.5 -37t-102 -13t-101 12t-79 34t-51.5 51.5t-18.5 64.5q0 32 16.5 54t45.5 39q-9 11 -14.5 21.5t-5.5 24.5q0 15 7.5 30.5t26.5 37.5l32 37q-34 26 -53 63t-19 84q0 43 17 78.5t46 61t69 40t86 14.5q78 0 135 -40zM361 302q0 44 -26.5 66.5
t-70.5 22.5q-45 0 -71 -22.5t-26 -66.5q0 -45 26 -67.5t71 -22.5q44 0 70.5 22.5t26.5 67.5zM164 -32q-8 0 -13 -2t-10 -8q-9 -12 -9 -28q0 -32 32 -52.5t98 -20.5q60 0 96.5 18.5t36.5 54.5q0 20 -12.5 29t-47.5 9h-171zM264 636l-128 -94l-52 50l128 127q8 8 14 10.5
t17 2.5h41q11 0 17 -2.5t14 -10.5l128 -127l-52 -50z" />
    <glyph glyph-name="gbreve" unicode="&#x11f;" horiz-adv-x="555" 
d="M399 456q27 26 51 38t44 12q17 0 34.5 -3.5t31.5 -14.5v-73l-90 -15q-8 -2 -10 -4t2 -10q20 -38 20 -84q0 -43 -17 -79t-46.5 -61.5t-69 -39.5t-85.5 -14q-14 0 -32 3t-29 5q-8 2 -10.5 -0.5t-4.5 -7.5l-6 -14q-4 -9 -4 -14q0 -9 14 -9h143q94 0 138 -35.5t44 -102.5
q0 -42 -19.5 -76t-54 -58t-81.5 -37t-102 -13t-101 12t-79 34t-51.5 51.5t-18.5 64.5q0 32 16.5 54t45.5 39q-9 11 -14.5 21.5t-5.5 24.5q0 15 7.5 30.5t26.5 37.5l32 37q-34 26 -53 63t-19 84q0 43 17 78.5t46 61t69 40t86 14.5q78 0 135 -40zM361 302q0 44 -26.5 66.5
t-70.5 22.5q-45 0 -71 -22.5t-26 -66.5q0 -45 26 -67.5t71 -22.5q44 0 70.5 22.5t26.5 67.5zM164 -32q-8 0 -13 -2t-10 -8q-9 -12 -9 -28q0 -32 32 -52.5t98 -20.5q60 0 96.5 18.5t36.5 54.5q0 20 -12.5 29t-47.5 9h-171zM265 555q-73 0 -116 41.5t-52 107.5l81 13
q13 -34 33.5 -51.5t53.5 -17.5q32 0 53 17.5t33 51.5l82 -13q-9 -66 -52 -107.5t-116 -41.5z" />
    <glyph glyph-name="gdotaccent" unicode="&#x121;" horiz-adv-x="555" 
d="M399 456q27 26 51 38t44 12q17 0 34.5 -3.5t31.5 -14.5v-73l-90 -15q-8 -2 -10 -4t2 -10q20 -38 20 -84q0 -43 -17 -79t-46.5 -61.5t-69 -39.5t-85.5 -14q-14 0 -32 3t-29 5q-8 2 -10.5 -0.5t-4.5 -7.5l-6 -14q-4 -9 -4 -14q0 -9 14 -9h143q94 0 138 -35.5t44 -102.5
q0 -42 -19.5 -76t-54 -58t-81.5 -37t-102 -13t-101 12t-79 34t-51.5 51.5t-18.5 64.5q0 32 16.5 54t45.5 39q-9 11 -14.5 21.5t-5.5 24.5q0 15 7.5 30.5t26.5 37.5l32 37q-34 26 -53 63t-19 84q0 43 17 78.5t46 61t69 40t86 14.5q78 0 135 -40zM361 302q0 44 -26.5 66.5
t-70.5 22.5q-45 0 -71 -22.5t-26 -66.5q0 -45 26 -67.5t71 -22.5q44 0 70.5 22.5t26.5 67.5zM164 -32q-8 0 -13 -2t-10 -8q-9 -12 -9 -28q0 -32 32 -52.5t98 -20.5q60 0 96.5 18.5t36.5 54.5q0 20 -12.5 29t-47.5 9h-171zM339 555h-131v125h106q15 0 20 -5t5 -18v-102z" />
    <glyph glyph-name="gcommaaccent" unicode="&#x123;" horiz-adv-x="555" 
d="M399 456q27 26 51 38t44 12q17 0 34.5 -3.5t31.5 -14.5v-73l-90 -15q-8 -2 -10 -4t2 -10q20 -38 20 -84q0 -43 -17 -79t-46.5 -61.5t-69 -39.5t-85.5 -14q-14 0 -32 3t-29 5q-8 2 -10.5 -0.5t-4.5 -7.5l-6 -14q-4 -9 -4 -14q0 -9 14 -9h143q94 0 138 -35.5t44 -102.5
q0 -42 -19.5 -76t-54 -58t-81.5 -37t-102 -13t-101 12t-79 34t-51.5 51.5t-18.5 64.5q0 32 16.5 54t45.5 39q-9 11 -14.5 21.5t-5.5 24.5q0 15 7.5 30.5t26.5 37.5l32 37q-34 26 -53 63t-19 84q0 43 17 78.5t46 61t69 40t86 14.5q78 0 135 -40zM361 302q0 44 -26.5 66.5
t-70.5 22.5q-45 0 -71 -22.5t-26 -66.5q0 -45 26 -67.5t71 -22.5q44 0 70.5 22.5t26.5 67.5zM164 -32q-8 0 -13 -2t-10 -8q-9 -12 -9 -28q0 -32 32 -52.5t98 -20.5q60 0 96.5 18.5t36.5 54.5q0 20 -12.5 29t-47.5 9h-171zM339.979 766.953l-19.999 -222.986h-80.9951
q-9.99902 0 -16.499 6.5q-6.5 6.49902 -10.499 15.999q-4 9.49902 -5.5 19.498q-1.5 10 -1.5 15.999v5q1 15.999 8 33.998q6.99902 17.999 23.998 51.9971l42.9971 86.9941z" />
    <glyph glyph-name="hcircumflex" unicode="&#x125;" horiz-adv-x="562" 
d="M210 466q26 14 53.5 22t54.5 8q42 0 77.5 -13t61 -37t39.5 -59.5t14 -80.5v-306h-129v301q0 36 -16 52q-20 21 -75 21h-2q-26 0 -51 -4t-40 -10q-8 -3 -9 -7.5t-1 -11.5v-341h-129v709h129v-256zM123 815l-128 -94l-52 50l128 127q8 8 14 10.5t17 2.5h41q11 0 17 -2.5
t14 -10.5l128 -127l-52 -50z" />
    <glyph glyph-name="hbar" unicode="&#x127;" horiz-adv-x="562" 
d="M210 466q26 14 53.5 22t54.5 8q42 0 77.5 -13t61 -37t39.5 -59.5t14 -80.5v-306h-129v301q0 36 -16 52q-20 21 -75 21h-2q-26 0 -51 -4t-40 -10q-8 -3 -9 -7.5t-1 -11.5v-341h-129v556h-74v68l74 13v72h129v-72h154v-81h-154v-103z" />
    <glyph glyph-name="dotlessi" unicode="&#x131;" horiz-adv-x="249" 
d="M60 488h129v-488h-129v488z" />
    <glyph glyph-name="igrave" unicode="&#xec;" horiz-adv-x="249" 
d="M-9 658l51 76q7 12 16 12q6 0 16 -7l183 -140l-41 -57zM60 488h129v-488h-129v488z" />
    <glyph glyph-name="iacute" unicode="&#xed;" horiz-adv-x="249" 
d="M32 542l-41 57l183 140q10 7 16 7q8 0 16 -12l51 -76zM60 488h129v-488h-129v488z" />
    <glyph glyph-name="icircumflex" unicode="&#xee;" horiz-adv-x="249" 
d="M60 488h129v-488h-129v488zM125 636l-128 -94l-52 50l128 127q8 8 14 10.5t17 2.5h41q11 0 17 -2.5t14 -10.5l128 -127l-52 -50z" />
    <glyph glyph-name="itilde" unicode="&#x129;" horiz-adv-x="249" 
d="M307 684q-4 -25 -13 -47t-23.5 -39t-34.5 -27t-45 -10q-21 0 -39 7t-34 16t-29.5 16t-26.5 7q-16 0 -27 -12t-25 -37l-69 19q3 25 12.5 47t24 39t34 27t44.5 10q21 0 39 -7t34 -16t30 -16t27 -7q15 0 26.5 12t25.5 37zM60 488h129v-488h-129v488z" />
    <glyph glyph-name="idieresis" unicode="&#xef;" horiz-adv-x="249" 
d="M85 571h-126v121h102q14 0 19 -5t5 -17v-99zM290 571h-126v121h102q14 0 19 -5t5 -17v-99zM60 488h129v-488h-129v488z" />
    <glyph glyph-name="imacron" unicode="&#x12b;" horiz-adv-x="249" 
d="M-34 585v97h317v-97h-317zM60 488h129v-488h-129v488z" />
    <glyph glyph-name="ibreve" unicode="&#x12d;" horiz-adv-x="249" 
d="M124 555q-73 0 -116 41.5t-52 107.5l81 13q13 -34 33.5 -51.5t53.5 -17.5q32 0 53 17.5t33 51.5l82 -13q-9 -66 -52 -107.5t-116 -41.5zM60 488h129v-488h-129v488z" />
    <glyph glyph-name="iogonek" unicode="&#x12f;" horiz-adv-x="249" 
d="M163 0q-8 0 -14.5 -2.5t-14.5 -10.5q-12 -12 -21 -33.5t-9 -44.5t15.5 -34t42.5 -12q7 0 16.5 0.5t18.5 2.5l28 4l21 -66q-27 -14 -54.5 -20.5t-53.5 -6.5q-62 0 -99 30t-37 76q0 32 15 61.5t43 57.5v486h129v-488h-26zM60 693h102q16 0 21.5 -5.5t5.5 -19.5v-102h-129
v127z" />
    <glyph glyph-name="ij" unicode="&#x133;" horiz-adv-x="494" 
d="M60 488h129v-488h-129v488zM60 693h102q16 0 21.5 -5.5t5.5 -19.5v-102h-129v127zM434 -56q0 -45 -7 -78.5t-24.5 -55.5t-48 -32.5t-76.5 -10.5q-23 0 -47 4.5t-41 11.5v70l57 11q18 3 29.5 7.5t18 11t8.5 16.5t2 25v564h129v-544zM305 693h102q16 0 21.5 -5.5t5.5 -19.5
v-102h-129v127z" />
    <glyph glyph-name="jcircumflex" unicode="&#x135;" horiz-adv-x="248" 
d="M189 -56q0 -45 -7 -78.5t-24.5 -55.5t-48 -32.5t-76.5 -10.5q-23 0 -47 4.5t-41 11.5v70l57 11q18 3 29.5 7.5t18 11t8.5 16.5t2 25v564h129v-544zM124 636l-128 -94l-52 50l128 127q8 8 14 10.5t17 2.5h41q11 0 17 -2.5t14 -10.5l128 -127l-52 -50z" />
    <glyph glyph-name="kcommaaccent" unicode="&#x137;" horiz-adv-x="552" 
d="M263 224q-17 -12 -38 -23.5t-38 -19.5v-181h-129v709h129v-415l261 211l72 -82l-162 -130l192 -293h-128q-11 0 -15.5 2t-9.5 10zM205 -281l20 223h81q10 0 16.5 -6.5t10.5 -16t5.5 -19.5t1.5 -16v-5q-1 -16 -8 -34t-24 -52l-43 -87z" />
    <glyph glyph-name="kgreenlandic" unicode="&#x138;" horiz-adv-x="552" 
d="M263 214q-17 -12 -38 -23.5t-38 -19.5v-171h-129v488h129v-204l261 221l72 -82l-161 -138l191 -285h-128q-11 0 -15.5 2t-9.5 10z" />
    <glyph glyph-name="lacute" unicode="&#x13a;" horiz-adv-x="279" 
d="M271 20q-18 -9 -47 -16t-52 -7q-26 0 -47 8.5t-35 22.5q-30 31 -30 88v593h129v-604l82 -17v-68zM39 754l-41 57l183 140q10 7 16 7q8 0 16 -12l51 -76z" />
    <glyph glyph-name="lcaron" unicode="&#x13e;" horiz-adv-x="389" 
d="M271 20q-18 -9 -47 -16t-52 -7q-26 0 -47 8.5t-35 22.5q-30 31 -30 88v593h129v-604l82 -17v-68zM247 486l20 223h81q10 0 16.5 -6.5t10.5 -16t5.5 -19.5t1.5 -16v-5q-1 -16 -8 -34t-24 -52l-43 -87z" />
    <glyph glyph-name="lcommaaccent" unicode="&#x13c;" horiz-adv-x="279" 
d="M271 20q-18 -9 -47 -16t-52 -7q-26 0 -47 8.5t-35 22.5q-30 31 -30 88v593h129v-604l82 -17v-68zM86 -281l20 223h81q10 0 16.5 -6.5t10.5 -16t5.5 -19.5t1.5 -16v-5q-1 -16 -8 -34t-24 -52l-43 -87z" />
    <glyph glyph-name="lslash" unicode="&#x142;" horiz-adv-x="388" 
d="M336 20q-18 -9 -47 -16t-52 -7q-26 0 -47 8.5t-35 22.5q-30 31 -30 88v124l-64 -42l-53 81l117 78v352h129v-276l85 56l53 -81l-138 -91v-212l82 -17v-68z" />
    <glyph glyph-name="longs" unicode="&#x17f;" horiz-adv-x="352" 
d="M206 545q0 -17 2 -32t5 -31.5t5 -35.5t2 -44v-402h-129v387h-89v80l86 18q-5 14 -8.5 35t-3.5 41q0 34 12.5 63t35.5 50t56 33t75 12q46 0 90.5 -15.5t80.5 -39.5l-29 -74l-44 9q-20 5 -38.5 7.5t-35.5 2.5q-35 0 -54 -14.5t-19 -49.5z" />
    <glyph glyph-name="ldot" unicode="&#x140;" horiz-adv-x="425" 
d="M271 20q-18 -9 -47 -16t-52 -7q-26 0 -47 8.5t-35 22.5q-30 31 -30 88v593h129v-604l82 -17v-68zM397 325h-131v125h106q15 0 20 -5t5 -18v-102z" />
    <glyph glyph-name="nacute" unicode="&#x144;" horiz-adv-x="563" 
d="M382 301q0 36 -16 52q-20 21 -75 21h-2q-26 0 -51 -4t-40 -10q-8 -3 -9 -7.5t-1 -11.5v-341h-129v488h98l16 -43l38 21q23 13 51 21.5t57 8.5q42 0 77.5 -13t61 -37t39.5 -59.5t14 -80.5v-306h-129v301zM211 542l-41 57l183 140q10 7 16 7q8 0 16 -12l51 -76z" />
    <glyph glyph-name="ncaron" unicode="&#x148;" horiz-adv-x="563" 
d="M382 301q0 36 -16 52q-20 21 -75 21h-2q-26 0 -51 -4t-40 -10q-8 -3 -9 -7.5t-1 -11.5v-341h-129v488h98l16 -43l38 21q23 13 51 21.5t57 8.5q42 0 77.5 -13t61 -37t39.5 -59.5t14 -80.5v-306h-129v301zM423 743l52 -50l-128 -127q-8 -8 -14 -10.5t-17 -2.5h-41
q-11 0 -17 2.5t-14 10.5l-128 127l52 50l128 -94z" />
    <glyph glyph-name="ntilde" unicode="&#xf1;" horiz-adv-x="563" 
d="M382 301q0 36 -16 52q-20 21 -75 21h-2q-26 0 -51 -4t-40 -10q-8 -3 -9 -7.5t-1 -11.5v-341h-129v488h98l16 -43l38 21q23 13 51 21.5t57 8.5q42 0 77.5 -13t61 -37t39.5 -59.5t14 -80.5v-306h-129v301zM474 684q-4 -25 -13 -47t-23.5 -39t-34.5 -27t-45 -10q-21 0 -39 7
t-34 16t-29.5 16t-26.5 7q-16 0 -27 -12t-25 -37l-69 19q3 25 12.5 47t24 39t34 27t44.5 10q21 0 39 -7t34 -16t30 -16t27 -7q15 0 26.5 12t25.5 37z" />
    <glyph glyph-name="ncommaaccent" unicode="&#x146;" horiz-adv-x="563" 
d="M382 301q0 36 -16 52q-20 21 -75 21h-2q-26 0 -51 -4t-40 -10q-8 -3 -9 -7.5t-1 -11.5v-341h-129v488h98l16 -43l38 21q23 13 51 21.5t57 8.5q42 0 77.5 -13t61 -37t39.5 -59.5t14 -80.5v-306h-129v301zM214 -281l20 223h81q10 0 16.5 -6.5t10.5 -16t5.5 -19.5t1.5 -16
v-5q-1 -16 -8 -34t-24 -52l-43 -87z" />
    <glyph glyph-name="napostrophe" unicode="&#x149;" horiz-adv-x="725" 
d="M544 301q0 36 -16 52q-20 21 -75 21h-2q-26 0 -51 -4t-40 -10q-8 -3 -9 -7.5t-1 -11.5v-341h-129v488h98l16 -43l38 21q23 13 51 21.5t57 8.5q42 0 77.5 -13t61 -37t39.5 -59.5t14 -80.5v-306h-129v301zM90 510q4 8 4 10q0 4 -9 10l-15 9q-12 8 -15 12.5t-3 18.5v93h111
q16 0 21.5 -6t5.5 -19v-67q0 -27 -3.5 -48.5t-16 -44t-36.5 -50t-65 -64.5l-45 35z" />
    <glyph glyph-name="eng" unicode="&#x14b;" horiz-adv-x="563" 
d="M511 -36q0 -45 -7 -78.5t-24.5 -55.5t-48 -32.5t-76.5 -10.5q-23 0 -47 4.5t-41 11.5v70l57 11q18 3 29.5 7.5t18 11t8.5 16.5t2 25v357q0 36 -16 52q-20 21 -75 21h-2q-26 0 -51 -4t-40 -10q-8 -3 -9 -7.5t-1 -11.5v-341h-129v488h98l16 -43l38 21q23 13 51 21.5t57 8.5
q42 0 77.5 -13t61 -37t39.5 -59.5t14 -80.5v-342z" />
    <glyph glyph-name="ograve" unicode="&#xf2;" horiz-adv-x="559" 
d="M529 244q0 -61 -20.5 -108t-54.5 -79t-79 -48.5t-94 -16.5h-3q-49 0 -94 16.5t-79 48.5t-54.5 79t-20.5 108q0 60 20.5 107t54.5 79.5t79 49t94 16.5h3q49 0 94 -16.5t79 -49t54.5 -79.5t20.5 -107zM397 244q0 131 -116 131h-3q-116 0 -116 -131q0 -132 116 -132h3
q116 0 116 132zM146 658l51 76q7 12 16 12q6 0 16 -7l183 -140l-41 -57z" />
    <glyph glyph-name="oacute" unicode="&#xf3;" horiz-adv-x="559" 
d="M529 244q0 -61 -20.5 -108t-54.5 -79t-79 -48.5t-94 -16.5h-3q-49 0 -94 16.5t-79 48.5t-54.5 79t-20.5 108q0 60 20.5 107t54.5 79.5t79 49t94 16.5h3q49 0 94 -16.5t79 -49t54.5 -79.5t20.5 -107zM397 244q0 131 -116 131h-3q-116 0 -116 -131q0 -132 116 -132h3
q116 0 116 132zM191 542l-41 57l183 140q10 7 16 7q8 0 16 -12l51 -76z" />
    <glyph glyph-name="ocircumflex" unicode="&#xf4;" horiz-adv-x="559" 
d="M529 244q0 -61 -20.5 -108t-54.5 -79t-79 -48.5t-94 -16.5h-3q-49 0 -94 16.5t-79 48.5t-54.5 79t-20.5 108q0 60 20.5 107t54.5 79.5t79 49t94 16.5h3q49 0 94 -16.5t79 -49t54.5 -79.5t20.5 -107zM397 244q0 131 -116 131h-3q-116 0 -116 -131q0 -132 116 -132h3
q116 0 116 132zM279 636l-128 -94l-52 50l128 127q8 8 14 10.5t17 2.5h41q11 0 17 -2.5t14 -10.5l128 -127l-52 -50z" />
    <glyph glyph-name="otilde" unicode="&#xf5;" horiz-adv-x="559" 
d="M529 244q0 -61 -20.5 -108t-54.5 -79t-79 -48.5t-94 -16.5h-3q-49 0 -94 16.5t-79 48.5t-54.5 79t-20.5 108q0 60 20.5 107t54.5 79.5t79 49t94 16.5h3q49 0 94 -16.5t79 -49t54.5 -79.5t20.5 -107zM397 244q0 131 -116 131h-3q-116 0 -116 -131q0 -132 116 -132h3
q116 0 116 132zM462 684q-4 -25 -13 -47t-23.5 -39t-34.5 -27t-45 -10q-21 0 -39 7t-34 16t-29.5 16t-26.5 7q-16 0 -27 -12t-25 -37l-69 19q3 25 12.5 47t24 39t34 27t44.5 10q21 0 39 -7t34 -16t30 -16t27 -7q15 0 26.5 12t25.5 37z" />
    <glyph glyph-name="odieresis" unicode="&#xf6;" horiz-adv-x="559" 
d="M529 244q0 -61 -20.5 -108t-54.5 -79t-79 -48.5t-94 -16.5h-3q-49 0 -94 16.5t-79 48.5t-54.5 79t-20.5 108q0 60 20.5 107t54.5 79.5t79 49t94 16.5h3q49 0 94 -16.5t79 -49t54.5 -79.5t20.5 -107zM397 244q0 131 -116 131h-3q-116 0 -116 -131q0 -132 116 -132h3
q116 0 116 132zM239 571h-126v121h102q14 0 19 -5t5 -17v-99zM444 571h-126v121h102q14 0 19 -5t5 -17v-99z" />
    <glyph glyph-name="omacron" unicode="&#x14d;" horiz-adv-x="559" 
d="M529 244q0 -61 -20.5 -108t-54.5 -79t-79 -48.5t-94 -16.5h-3q-49 0 -94 16.5t-79 48.5t-54.5 79t-20.5 108q0 60 20.5 107t54.5 79.5t79 49t94 16.5h3q49 0 94 -16.5t79 -49t54.5 -79.5t20.5 -107zM397 244q0 131 -116 131h-3q-116 0 -116 -131q0 -132 116 -132h3
q116 0 116 132zM120 585v97h317v-97h-317z" />
    <glyph glyph-name="obreve" unicode="&#x14f;" horiz-adv-x="559" 
d="M529 244q0 -61 -20.5 -108t-54.5 -79t-79 -48.5t-94 -16.5h-3q-49 0 -94 16.5t-79 48.5t-54.5 79t-20.5 108q0 60 20.5 107t54.5 79.5t79 49t94 16.5h3q49 0 94 -16.5t79 -49t54.5 -79.5t20.5 -107zM397 244q0 131 -116 131h-3q-116 0 -116 -131q0 -132 116 -132h3
q116 0 116 132zM279 555q-73 0 -116 41.5t-52 107.5l81 13q13 -34 33.5 -51.5t53.5 -17.5q32 0 53 17.5t33 51.5l82 -13q-9 -66 -52 -107.5t-116 -41.5z" />
    <glyph glyph-name="ohungarumlaut" unicode="&#x151;" horiz-adv-x="559" 
d="M529 244q0 -61 -20.5 -108t-54.5 -79t-79 -48.5t-94 -16.5h-3q-49 0 -94 16.5t-79 48.5t-54.5 79t-20.5 108q0 60 20.5 107t54.5 79.5t79 49t94 16.5h3q49 0 94 -16.5t79 -49t54.5 -79.5t20.5 -107zM397 244q0 131 -116 131h-3q-116 0 -116 -131q0 -132 116 -132h3
q116 0 116 132zM128 557l-58 48l135 171q8 11 15 11q8 0 15 -7l69 -62zM326 557l-58 48l135 171q8 11 15 11q8 0 15 -7l69 -62z" />
    <glyph glyph-name="oslash" unicode="&#xf8;" horiz-adv-x="559" 
d="M529 244q0 -61 -20.5 -108t-54.5 -79t-79 -48.5t-94 -16.5h-3q-58 0 -110 23l-61 -88l-62 40l62 88q-35 32 -56 79.5t-21 109.5q0 60 20.5 107t54.5 79.5t79 49t94 16.5h3q60 0 113 -25l60 85l62 -40l-61 -87q34 -32 54 -78.5t20 -106.5zM162 244q0 -50 17 -84l145 209
q-20 6 -43 6h-3q-55 0 -85.5 -31t-30.5 -100zM397 244q0 47 -15 79q-35 -52 -71.5 -103.5t-71.5 -102.5q20 -5 39 -5h3q55 0 85.5 31.5t30.5 100.5z" />
    <glyph glyph-name="oslashacute" unicode="&#x1ff;" horiz-adv-x="559" 
d="M191 542l-41 57l183 140q10 7 16 7q8 0 16 -12l51 -76zM529 244q0 -61 -20.5 -108t-54.5 -79t-79 -48.5t-94 -16.5h-3q-58 0 -110 23l-61 -88l-62 40l62 88q-35 32 -56 79.5t-21 109.5q0 60 20.5 107t54.5 79.5t79 49t94 16.5h3q60 0 113 -25l60 85l62 -40l-61 -87
q34 -32 54 -78.5t20 -106.5zM162 244q0 -50 17 -84l145 209q-20 6 -43 6h-3q-55 0 -85.5 -31t-30.5 -100zM397 244q0 47 -15 79q-35 -52 -71.5 -103.5t-71.5 -102.5q20 -5 39 -5h3q55 0 85.5 31.5t30.5 100.5z" />
    <glyph glyph-name="oe" unicode="&#x153;" horiz-adv-x="910" 
d="M877 263q0 -11 -1 -23.5t-4 -22.5q-3 -9 -8 -11t-13 -2h-320q5 -43 35 -71t87 -28q27 0 56 6t61 17l55 19l41 -71q-44 -38 -102 -61t-119 -23q-57 0 -103 19.5t-79 54.5q-35 -37 -82 -55.5t-100 -18.5h-3q-49 0 -94 16.5t-79 48.5t-54.5 79t-20.5 108q0 60 20.5 107
t54.5 79.5t79 49t94 16.5h3q53 0 100.5 -19t82.5 -56q33 35 79 55t99 20q52 0 95.5 -18.5t74.5 -50t48 -74t17 -90.5zM397 244q0 131 -116 131h-3q-116 0 -116 -131q0 -132 116 -132h3q116 0 116 132zM749 295q-4 38 -32 63.5t-76 25.5q-49 0 -76.5 -25.5t-32.5 -63.5h217z
" />
    <glyph glyph-name="thorn" unicode="&#xfe;" horiz-adv-x="573" 
d="M187 38v-267h-129v938h129v-260l30 15q35 17 59.5 24.5t52.5 7.5q45 0 84.5 -18t68 -51t45 -79.5t16.5 -103.5t-16 -103.5t-44 -79.5t-67.5 -51t-85.5 -18q-29 0 -57.5 9t-57.5 23zM187 151q0 -14 10 -19q18 -8 46 -14.5t54 -6.5q56 0 85 28.5t29 104.5q0 74 -28.5 102.5
t-85.5 28.5q-29 0 -55.5 -6.5t-44.5 -15.5q-8 -4 -9 -7.5t-1 -11.5v-183z" />
    <glyph glyph-name="racute" unicode="&#x155;" horiz-adv-x="384" 
d="M331 382q-38 -7 -69 -15.5t-60 -17.5q-9 -3 -11.5 -6.5t-2.5 -11.5v-331h-129v488h97l20 -60q48 35 81.5 51.5t59.5 16.5q15 0 31.5 -4.5t30.5 -12.5v-88zM126 542l-41 57l183 140q10 7 16 7q8 0 16 -12l51 -76z" />
    <glyph glyph-name="rcaron" unicode="&#x159;" horiz-adv-x="384" 
d="M331 382q-38 -7 -69 -15.5t-60 -17.5q-9 -3 -11.5 -6.5t-2.5 -11.5v-331h-129v488h97l20 -60q48 35 81.5 51.5t59.5 16.5q15 0 31.5 -4.5t30.5 -12.5v-88zM345 743l52 -50l-128 -127q-8 -8 -14 -10.5t-17 -2.5h-41q-11 0 -17 2.5t-14 10.5l-128 127l52 50l128 -94z" />
    <glyph glyph-name="rcommaaccent" unicode="&#x157;" horiz-adv-x="384" 
d="M331 382q-38 -7 -69 -15.5t-60 -17.5q-9 -3 -11.5 -6.5t-2.5 -11.5v-331h-129v488h97l20 -60q48 35 81.5 51.5t59.5 16.5q15 0 31.5 -4.5t30.5 -12.5v-88zM53 -281l20 223h81q10 0 16.5 -6.5t10.5 -16t5.5 -19.5t1.5 -16v-5q-1 -16 -8 -34t-24 -52l-43 -87z" />
    <glyph glyph-name="sacute" unicode="&#x15b;" horiz-adv-x="478" 
d="M358 382q-35 4 -64 6t-49 2q-46 0 -68 -7t-22 -27q0 -16 16.5 -23t45.5 -15l65 -16q42 -11 73 -23t51 -29t29.5 -40.5t9.5 -56.5q0 -72 -50.5 -116.5t-150.5 -44.5q-27 0 -56 4t-57 11t-53.5 17t-45.5 21l27 79l54 -10q44 -8 75.5 -12t56.5 -4q39 0 60.5 12t21.5 35
q0 19 -13.5 28t-51.5 18l-63 15q-37 9 -67 21t-51 29t-32 40.5t-11 55.5q0 35 15 62t42.5 45t65 27.5t82.5 9.5q47 0 95 -10t88 -28l-20 -81zM159 542l-41 57l183 140q10 7 16 7q8 0 16 -12l51 -76z" />
    <glyph glyph-name="scircumflex" unicode="&#x15d;" horiz-adv-x="478" 
d="M358 382q-35 4 -64 6t-49 2q-46 0 -68 -7t-22 -27q0 -16 16.5 -23t45.5 -15l65 -16q42 -11 73 -23t51 -29t29.5 -40.5t9.5 -56.5q0 -72 -50.5 -116.5t-150.5 -44.5q-27 0 -56 4t-57 11t-53.5 17t-45.5 21l27 79l54 -10q44 -8 75.5 -12t56.5 -4q39 0 60.5 12t21.5 35
q0 19 -13.5 28t-51.5 18l-63 15q-37 9 -67 21t-51 29t-32 40.5t-11 55.5q0 35 15 62t42.5 45t65 27.5t82.5 9.5q47 0 95 -10t88 -28l-20 -81zM245 636l-128 -94l-52 50l128 127q8 8 14 10.5t17 2.5h41q11 0 17 -2.5t14 -10.5l128 -127l-52 -50z" />
    <glyph glyph-name="scaron" unicode="&#x161;" horiz-adv-x="478" 
d="M358 382q-35 4 -64 6t-49 2q-46 0 -68 -7t-22 -27q0 -16 16.5 -23t45.5 -15l65 -16q42 -11 73 -23t51 -29t29.5 -40.5t9.5 -56.5q0 -72 -50.5 -116.5t-150.5 -44.5q-27 0 -56 4t-57 11t-53.5 17t-45.5 21l27 79l54 -10q44 -8 75.5 -12t56.5 -4q39 0 60.5 12t21.5 35
q0 19 -13.5 28t-51.5 18l-63 15q-37 9 -67 21t-51 29t-32 40.5t-11 55.5q0 35 15 62t42.5 45t65 27.5t82.5 9.5q47 0 95 -10t88 -28l-20 -81zM374 743l52 -50l-128 -127q-8 -8 -14 -10.5t-17 -2.5h-41q-11 0 -17 2.5t-14 10.5l-128 127l52 50l128 -94z" />
    <glyph glyph-name="scedilla" unicode="&#x15f;" horiz-adv-x="478" 
d="M358 382q-35 4 -64 6t-49 2q-46 0 -68 -7t-22 -27q0 -16 16.5 -23t45.5 -15l65 -16q42 -11 73 -23t51 -29t29.5 -40.5t9.5 -56.5q0 -67 -44 -110.5t-132 -49.5q-13 -17 -13 -30q0 -11 17 -16.5t37 -13.5t37 -23t17 -44q0 -47 -47 -77.5t-141 -30.5l-13 70l33 5
q29 5 44.5 11t15.5 16q0 8 -15 13.5t-33.5 12.5t-33.5 17.5t-15 30.5q0 16 9.5 30.5t26.5 30.5q-45 5 -88 18.5t-75 31.5l27 79l54 -10q44 -8 75.5 -12t56.5 -4q39 0 60.5 12t21.5 35q0 19 -13.5 28t-51.5 18l-63 15q-37 9 -67 21t-51 29t-32 40.5t-11 55.5q0 35 15 62
t42.5 45t65 27.5t82.5 9.5q47 0 95 -10t88 -28l-20 -81z" />
    <glyph glyph-name="scommaaccent" unicode="&#x219;" horiz-adv-x="478" 
d="M358 382q-35 4 -64 6t-49 2q-46 0 -68 -7t-22 -27q0 -16 16.5 -23t45.5 -15l65 -16q42 -11 73 -23t51 -29t29.5 -40.5t9.5 -56.5q0 -72 -50.5 -116.5t-150.5 -44.5q-27 0 -56 4t-57 11t-53.5 17t-45.5 21l27 79l54 -10q44 -8 75.5 -12t56.5 -4q39 0 60.5 12t21.5 35
q0 19 -13.5 28t-51.5 18l-63 15q-37 9 -67 21t-51 29t-32 40.5t-11 55.5q0 35 15 62t42.5 45t65 27.5t82.5 9.5q47 0 95 -10t88 -28l-20 -81zM171 -281l20 223h81q10 0 16.5 -6.5t10.5 -16t5.5 -19.5t1.5 -16v-5q-1 -16 -8 -34t-24 -52l-43 -87z" />
    <glyph glyph-name="germandbls" unicode="&#xdf;" horiz-adv-x="679" 
d="M302 124l44 -12q31 -8 55 -12t47 -4q35 0 57 14t22 37q0 18 -14 29t-53 25l-55 20q-67 24 -97 51.5t-30 71.5q0 55 58 102l71 57q24 20 32.5 29t8.5 22q0 23 -24.5 39t-75.5 16q-63 0 -95.5 -29.5t-32.5 -95.5v-484h-129v387h-89v80l87 17q20 235 261 235q51 0 92 -12.5
t69.5 -34.5t44 -51.5t15.5 -63.5q0 -43 -23 -72.5t-71 -59.5l-41 -26q-20 -13 -28 -20t-8 -16q0 -10 13 -17t48 -20l30 -11q36 -13 65 -28t49.5 -33.5t31.5 -43t11 -56.5q0 -36 -14 -66t-39 -51.5t-60 -33.5t-77 -12q-55 0 -104 16t-84 40z" />
    <glyph glyph-name="tcaron" unicode="&#x165;" horiz-adv-x="430" 
d="M414 52q-32 -25 -77.5 -42.5t-88.5 -17.5q-38 0 -67 10.5t-49 30.5q-44 43 -44 127v227h-88v80l88 19v143h129v-141h162v-101h-162v-222q0 -32 13 -45q15 -15 44 -15q13 0 30.5 3t33.5 6l46 10zM284 584l20 223h81q10 0 16.5 -6.5t10.5 -16t5.5 -19.5t1.5 -16v-5
q-1 -16 -8 -34t-24 -52l-43 -87z" />
    <glyph glyph-name="tcommaaccent" unicode="&#x163;" horiz-adv-x="430" 
d="M414 52q-32 -25 -77.5 -42.5t-88.5 -17.5q-38 0 -67 10.5t-49 30.5q-44 43 -44 127v227h-88v80l88 19v143h129v-141h162v-101h-162v-222q0 -32 13 -45q15 -15 44 -15q13 0 30.5 3t33.5 6l46 10zM159 -281l20 223h81q10 0 16.5 -6.5t10.5 -16t5.5 -19.5t1.5 -16v-5
q-1 -16 -8 -34t-24 -52l-43 -87z" />
    <glyph glyph-name="uni021B" unicode="&#x21b;" horiz-adv-x="430" 
d="M414 52q-32 -25 -77.5 -42.5t-88.5 -17.5q-38 0 -67 10.5t-49 30.5q-44 43 -44 127v227h-88v80l88 19v143h129v-141h162v-101h-162v-222q0 -32 13 -45q15 -15 44 -15q13 0 30.5 3t33.5 6l46 10zM159 -281l20 223h81q10 0 16.5 -6.5t10.5 -16t5.5 -19.5t1.5 -16v-5
q-1 -16 -8 -34t-24 -52l-43 -87z" />
    <glyph glyph-name="tbar" unicode="&#x167;" horiz-adv-x="430" 
d="M414 52q-32 -25 -77.5 -42.5t-88.5 -17.5q-38 0 -67 10.5t-49 30.5q-44 43 -44 127v47h-69v74l69 12v94h-88v80l88 19v143h129v-141h162v-101h-162v-93h130v-87h-130v-42q0 -32 13 -45q15 -15 44 -15q13 0 30.5 3t33.5 6l46 10z" />
    <glyph glyph-name="ugrave" unicode="&#xf9;" horiz-adv-x="561" 
d="M181 186q0 -36 16 -53q11 -11 29.5 -15.5t46.5 -4.5q25 0 49.5 3.5t40.5 9.5q8 3 9 8t1 12v342h129v-488h-98l-17 42l-28 -15q-34 -18 -60.5 -26.5t-55.5 -8.5q-42 0 -77 12.5t-60.5 36.5t-39.5 59.5t-14 81.5v306h129v-302zM142 658l51 76q7 12 16 12q6 0 16 -7
l183 -140l-41 -57z" />
    <glyph glyph-name="uacute" unicode="&#xfa;" horiz-adv-x="561" 
d="M181 186q0 -36 16 -53q11 -11 29.5 -15.5t46.5 -4.5q25 0 49.5 3.5t40.5 9.5q8 3 9 8t1 12v342h129v-488h-98l-17 42l-28 -15q-34 -18 -60.5 -26.5t-55.5 -8.5q-42 0 -77 12.5t-60.5 36.5t-39.5 59.5t-14 81.5v306h129v-302zM198 542l-41 57l183 140q10 7 16 7
q8 0 16 -12l51 -76z" />
    <glyph glyph-name="ucircumflex" unicode="&#xfb;" horiz-adv-x="561" 
d="M181 186q0 -36 16 -53q11 -11 29.5 -15.5t46.5 -4.5q25 0 49.5 3.5t40.5 9.5q8 3 9 8t1 12v342h129v-488h-98l-17 42l-28 -15q-34 -18 -60.5 -26.5t-55.5 -8.5q-42 0 -77 12.5t-60.5 36.5t-39.5 59.5t-14 81.5v306h129v-302zM280 636l-128 -94l-52 50l128 127
q8 8 14 10.5t17 2.5h41q11 0 17 -2.5t14 -10.5l128 -127l-52 -50z" />
    <glyph glyph-name="utilde" unicode="&#x169;" horiz-adv-x="561" 
d="M181 186q0 -36 16 -53q11 -11 29.5 -15.5t46.5 -4.5q25 0 49.5 3.5t40.5 9.5q8 3 9 8t1 12v342h129v-488h-98l-17 42l-28 -15q-34 -18 -60.5 -26.5t-55.5 -8.5q-42 0 -77 12.5t-60.5 36.5t-39.5 59.5t-14 81.5v306h129v-302zM463 684q-4 -25 -13 -47t-23.5 -39t-34.5 -27
t-45 -10q-21 0 -39 7t-34 16t-29.5 16t-26.5 7q-16 0 -27 -12t-25 -37l-69 19q3 25 12.5 47t24 39t34 27t44.5 10q21 0 39 -7t34 -16t30 -16t27 -7q15 0 26.5 12t25.5 37z" />
    <glyph glyph-name="udieresis" unicode="&#xfc;" horiz-adv-x="561" 
d="M181 186q0 -36 16 -53q11 -11 29.5 -15.5t46.5 -4.5q25 0 49.5 3.5t40.5 9.5q8 3 9 8t1 12v342h129v-488h-98l-17 42l-28 -15q-34 -18 -60.5 -26.5t-55.5 -8.5q-42 0 -77 12.5t-60.5 36.5t-39.5 59.5t-14 81.5v306h129v-302zM240 571h-126v121h102q14 0 19 -5t5 -17v-99z
M445 571h-126v121h102q14 0 19 -5t5 -17v-99z" />
    <glyph glyph-name="umacron" unicode="&#x16b;" horiz-adv-x="561" 
d="M181 186q0 -36 16 -53q11 -11 29.5 -15.5t46.5 -4.5q25 0 49.5 3.5t40.5 9.5q8 3 9 8t1 12v342h129v-488h-98l-17 42l-28 -15q-34 -18 -60.5 -26.5t-55.5 -8.5q-42 0 -77 12.5t-60.5 36.5t-39.5 59.5t-14 81.5v306h129v-302zM121 585v97h317v-97h-317z" />
    <glyph glyph-name="ubreve" unicode="&#x16d;" horiz-adv-x="561" 
d="M181 186q0 -36 16 -53q11 -11 29.5 -15.5t46.5 -4.5q25 0 49.5 3.5t40.5 9.5q8 3 9 8t1 12v342h129v-488h-98l-17 42l-28 -15q-34 -18 -60.5 -26.5t-55.5 -8.5q-42 0 -77 12.5t-60.5 36.5t-39.5 59.5t-14 81.5v306h129v-302zM280 555q-73 0 -116 41.5t-52 107.5l81 13
q13 -34 33.5 -51.5t53.5 -17.5q32 0 53 17.5t33 51.5l82 -13q-9 -66 -52 -107.5t-116 -41.5z" />
    <glyph glyph-name="uring" unicode="&#x16f;" horiz-adv-x="561" 
d="M181 186q0 -36 16 -53q11 -11 29.5 -15.5t46.5 -4.5q25 0 49.5 3.5t40.5 9.5q8 3 9 8t1 12v342h129v-488h-98l-17 42l-28 -15q-34 -18 -60.5 -26.5t-55.5 -8.5q-42 0 -77 12.5t-60.5 36.5t-39.5 59.5t-14 81.5v306h129v-302zM280 795q28 0 51.5 -9t41 -25t27.5 -39.5
t10 -51.5q0 -57 -37 -91t-93 -34t-93 34t-37 91q0 28 10 51.5t27.5 39.5t41 25t51.5 9zM280 619q29 0 41 14t12 37t-12 37t-41 14t-41.5 -14t-12.5 -37t12.5 -37t41.5 -14z" />
    <glyph glyph-name="uhungarumlaut" unicode="&#x171;" horiz-adv-x="561" 
d="M181 186q0 -36 16 -53q11 -11 29.5 -15.5t46.5 -4.5q25 0 49.5 3.5t40.5 9.5q8 3 9 8t1 12v342h129v-488h-98l-17 42l-28 -15q-34 -18 -60.5 -26.5t-55.5 -8.5q-42 0 -77 12.5t-60.5 36.5t-39.5 59.5t-14 81.5v306h129v-302zM132 557l-58 48l135 171q8 11 15 11
q8 0 15 -7l69 -62zM330 557l-58 48l135 171q8 11 15 11q8 0 15 -7l69 -62z" />
    <glyph glyph-name="uogonek" unicode="&#x173;" horiz-adv-x="561" 
d="M387 42l-28 -15q-34 -18 -60.5 -26.5t-55.5 -8.5q-42 0 -77 12.5t-60.5 36.5t-39.5 59.5t-14 81.5v306h129v-302q0 -36 16 -53q11 -11 29.5 -15.5t46.5 -4.5q25 0 49.5 3.5t40.5 9.5q8 3 9 8t1 12v342h129v-488q-47 -11 -72.5 -36t-25.5 -56q0 -46 59 -46q13 0 28 2t28 5
l21 -67q-23 -13 -50 -19.5t-53 -6.5q-65 0 -99.5 31.5t-34.5 75.5q0 24 8.5 44t22 36t31 28t35.5 20z" />
    <glyph glyph-name="wgrave" unicode="&#x1e81;" horiz-adv-x="811" 
d="M644 0h-128q-16 0 -20 12l-50 161q-6 19 -12 39.5t-11.5 40.5t-10.5 38t-8 31q-6 -27 -17.5 -68.5t-22.5 -80.5l-51 -173h-128q-16 0 -20 12l-166 476h120q9 0 12.5 -2.5t6.5 -10.5l48 -149q17 -53 31.5 -101.5t25.5 -91.5q8 35 22 86.5t31 108.5l47 160h108
q10 0 14 -2.5t7 -11.5l47 -150q7 -24 15.5 -52t16 -54t14 -49t9.5 -37q4 14 10.5 36.5t14 48t16 53t16.5 51.5l49 153q2 8 6 11t13 3h114zM278 658l51 76q7 12 16 12q6 0 16 -7l183 -140l-41 -57z" />
    <glyph glyph-name="wacute" unicode="&#x1e83;" horiz-adv-x="811" 
d="M644 0h-128q-16 0 -20 12l-50 161q-6 19 -12 39.5t-11.5 40.5t-10.5 38t-8 31q-6 -27 -17.5 -68.5t-22.5 -80.5l-51 -173h-128q-16 0 -20 12l-166 476h120q9 0 12.5 -2.5t6.5 -10.5l48 -149q17 -53 31.5 -101.5t25.5 -91.5q8 35 22 86.5t31 108.5l47 160h108
q10 0 14 -2.5t7 -11.5l47 -150q7 -24 15.5 -52t16 -54t14 -49t9.5 -37q4 14 10.5 36.5t14 48t16 53t16.5 51.5l49 153q2 8 6 11t13 3h114zM318 542l-41 57l183 140q10 7 16 7q8 0 16 -12l51 -76z" />
    <glyph glyph-name="wcircumflex" unicode="&#x175;" horiz-adv-x="811" 
d="M644 0h-128q-16 0 -20 12l-50 161q-6 19 -12 39.5t-11.5 40.5t-10.5 38t-8 31q-6 -27 -17.5 -68.5t-22.5 -80.5l-51 -173h-128q-16 0 -20 12l-166 476h120q9 0 12.5 -2.5t6.5 -10.5l48 -149q17 -53 31.5 -101.5t25.5 -91.5q8 35 22 86.5t31 108.5l47 160h108
q10 0 14 -2.5t7 -11.5l47 -150q7 -24 15.5 -52t16 -54t14 -49t9.5 -37q4 14 10.5 36.5t14 48t16 53t16.5 51.5l49 153q2 8 6 11t13 3h114zM406 636l-128 -94l-52 50l128 127q8 8 14 10.5t17 2.5h41q11 0 17 -2.5t14 -10.5l128 -127l-52 -50z" />
    <glyph glyph-name="wdieresis" unicode="&#x1e85;" horiz-adv-x="811" 
d="M644 0h-128q-16 0 -20 12l-50 161q-6 19 -12 39.5t-11.5 40.5t-10.5 38t-8 31q-6 -27 -17.5 -68.5t-22.5 -80.5l-51 -173h-128q-16 0 -20 12l-166 476h120q9 0 12.5 -2.5t6.5 -10.5l48 -149q17 -53 31.5 -101.5t25.5 -91.5q8 35 22 86.5t31 108.5l47 160h108
q10 0 14 -2.5t7 -11.5l47 -150q7 -24 15.5 -52t16 -54t14 -49t9.5 -37q4 14 10.5 36.5t14 48t16 53t16.5 51.5l49 153q2 8 6 11t13 3h114zM366 571h-126v121h102q14 0 19 -5t5 -17v-99zM571 571h-126v121h102q14 0 19 -5t5 -17v-99z" />
    <glyph glyph-name="ygrave" unicode="&#x1ef3;" horiz-adv-x="531" 
d="M219 283q7 -19 15 -39.5t15.5 -40.5t13.5 -38t9 -31q8 26 20.5 64.5t28.5 80.5l73 195q4 9 7.5 11.5t12.5 2.5h118l-291 -724l-124 29l90 202l-207 493h122q9 0 12.5 -2.5t7.5 -11.5zM120 658l51 76q7 12 16 12q6 0 16 -7l183 -140l-41 -57z" />
    <glyph glyph-name="yacute" unicode="&#xfd;" horiz-adv-x="531" 
d="M219 283q7 -19 15 -39.5t15.5 -40.5t13.5 -38t9 -31q8 26 20.5 64.5t28.5 80.5l73 195q4 9 7.5 11.5t12.5 2.5h118l-291 -724l-124 29l90 202l-207 493h122q9 0 12.5 -2.5t7.5 -11.5zM189 542l-41 57l183 140q10 7 16 7q8 0 16 -12l51 -76z" />
    <glyph glyph-name="ycircumflex" unicode="&#x177;" horiz-adv-x="531" 
d="M219 283q7 -19 15 -39.5t15.5 -40.5t13.5 -38t9 -31q8 26 20.5 64.5t28.5 80.5l73 195q4 9 7.5 11.5t12.5 2.5h118l-291 -724l-124 29l90 202l-207 493h122q9 0 12.5 -2.5t7.5 -11.5zM265 636l-128 -94l-52 50l128 127q8 8 14 10.5t17 2.5h41q11 0 17 -2.5t14 -10.5
l128 -127l-52 -50z" />
    <glyph glyph-name="ydieresis" unicode="&#xff;" horiz-adv-x="531" 
d="M219 283q7 -19 15 -39.5t15.5 -40.5t13.5 -38t9 -31q8 26 20.5 64.5t28.5 80.5l73 195q4 9 7.5 11.5t12.5 2.5h118l-291 -724l-124 29l90 202l-207 493h122q9 0 12.5 -2.5t7.5 -11.5zM226 571h-126v121h102q14 0 19 -5t5 -17v-99zM431 571h-126v121h102q14 0 19 -5t5 -17
v-99z" />
    <glyph glyph-name="zacute" unicode="&#x17a;" horiz-adv-x="485" 
d="M40 387v101h409v-56q0 -9 -3 -15.5t-9 -14.5l-159 -203q-9 -11 -20 -25t-22.5 -27.5t-21.5 -26t-17 -19.5h257v-101h-420v60q0 9 2 15.5t9 15.5l175 222q18 23 32.5 40t31.5 34h-244zM152 542l-41 57l183 140q10 7 16 7q8 0 16 -12l51 -76z" />
    <glyph glyph-name="zcaron" unicode="&#x17e;" horiz-adv-x="485" 
d="M40 387v101h409v-56q0 -9 -3 -15.5t-9 -14.5l-159 -203q-9 -11 -20 -25t-22.5 -27.5t-21.5 -26t-17 -19.5h257v-101h-420v60q0 9 2 15.5t9 15.5l175 222q18 23 32.5 40t31.5 34h-244zM371 743l52 -50l-128 -127q-8 -8 -14 -10.5t-17 -2.5h-41q-11 0 -17 2.5t-14 10.5
l-128 127l52 50l128 -94z" />
    <glyph glyph-name="zdotaccent" unicode="&#x17c;" horiz-adv-x="485" 
d="M40 387v101h409v-56q0 -9 -3 -15.5t-9 -14.5l-159 -203q-9 -11 -20 -25t-22.5 -27.5t-21.5 -26t-17 -19.5h257v-101h-420v60q0 9 2 15.5t9 15.5l175 222q18 23 32.5 40t31.5 34h-244zM308 555h-131v125h106q15 0 20 -5t5 -18v-102z" />
    <glyph glyph-name="afii10017" unicode="&#x410;" horiz-adv-x="705" 
d="M494 133h-292l-44 -121q-3 -8 -6 -10t-12 -2h-127l255 663h136q9 0 12.5 -2.5t7.5 -10.5l268 -650h-131q-9 0 -12.5 2t-6.5 10zM243 244h207l-46 119q-18 46 -35 91.5t-26 75.5q-5 -15 -12 -37t-15.5 -47t-18.5 -52t-19 -53z" />
    <glyph glyph-name="afii10018" unicode="&#x411;" horiz-adv-x="647" 
d="M206 116h161q60 0 84.5 19.5t24.5 64.5q0 41 -20.5 61t-79.5 20h-170v-165zM546 663v-116h-340v-151h176q121 0 178 -51t57 -145q0 -97 -61.5 -148.5t-180.5 -51.5h-307v663h478z" />
    <glyph glyph-name="afii10019" unicode="&#x412;" horiz-adv-x="656" 
d="M348 663q52 0 94 -9.5t71.5 -29.5t45.5 -51t16 -74q0 -41 -17 -75.5t-45 -65.5q44 -23 74 -63t30 -101q0 -97 -61.5 -145.5t-180.5 -48.5h-307v663h280zM206 116h161q60 0 84.5 19.5t24.5 64.5q0 42 -19.5 60.5t-74.5 18.5h-176v-163zM387 388q11 0 19 3.5t14 13.5
q8 13 13 30t5 37q0 44 -23 59.5t-77 15.5h-132v-159h181z" />
    <glyph glyph-name="afii10020" unicode="&#x413;" horiz-adv-x="567" 
d="M206 0h-138v663h469v-116h-331v-547z" />
    <glyph glyph-name="afii10021" unicode="&#x414;" horiz-adv-x="814" 
d="M363 543l-105 -427h295v427h-190zM161 0l-19 -130h-88q-24 0 -24 22v224h66q14 0 20 4.5t9 16.5l123 502q4 14 11 19t22 5h410v-547h93v-224q0 -22 -24 -22h-88l-19 130h-492z" />
    <glyph glyph-name="afii10022" unicode="&#x415;" horiz-adv-x="611" 
d="M546 663v-116h-340v-151h307v-115h-307v-165h350v-116h-488v663h478z" />
    <glyph glyph-name="afii10024" unicode="&#x416;" horiz-adv-x="1048" 
d="M300 458q12 -18 23 -30t24 -19t29 -10t38 -3h41v267h138v-267h41q22 0 38 3t28.5 10t24 19t23.5 30l146 218l109 -68l-135 -198q-13 -20 -25.5 -33t-31.5 -27l211 -350h-142q-11 0 -16.5 2.5t-10.5 10.5l-156 268h-104v-281h-138v281h-104l-156 -268q-5 -8 -10.5 -10.5
t-16.5 -2.5h-142l211 350q-19 14 -31.5 27t-25.5 33l-138 202l109 68z" />
    <glyph glyph-name="afii10025" unicode="&#x417;" horiz-adv-x="635" 
d="M162 390h212q15 0 24 2.5t17 11.5q17 20 17 53q0 42 -30.5 67.5t-94.5 25.5q-35 0 -72.5 -5.5t-73.5 -15.5l-68 -19l-42 94q67 37 131.5 53t133.5 16q52 0 98.5 -13.5t80.5 -39t54 -62t20 -83.5q0 -42 -15.5 -72.5t-50.5 -55.5q45 -23 68.5 -57.5t23.5 -82.5
q0 -52 -22.5 -92.5t-60 -68t-86 -42t-101.5 -14.5q-92 0 -165.5 25t-133.5 75l44 85l68 -28q48 -20 89.5 -28t86.5 -8q67 0 104 21t37 68q0 39 -26 57t-77 18h-190v115z" />
    <glyph glyph-name="afii10026" unicode="&#x418;" horiz-adv-x="744" 
d="M544 452q-7 -10 -18.5 -26t-26 -35t-31.5 -40t-33 -42l-237 -297q-6 -8 -10.5 -10t-14.5 -2h-105v663h134v-453q6 8 15.5 21.5t21.5 29.5t25.5 33t26.5 34l257 323q6 8 11 10t15 2h102v-663h-133z" />
    <glyph glyph-name="afii10027" unicode="&#x419;" horiz-adv-x="744" 
d="M544 452q-7 -10 -18.5 -26t-26 -35t-31.5 -40t-33 -42l-237 -297q-6 -8 -10.5 -10t-14.5 -2h-105v663h134v-453q6 8 15.5 21.5t21.5 29.5t25.5 33t26.5 34l257 323q6 8 11 10t15 2h102v-663h-133zM372 730q-73 0 -116 41.5t-52 107.5l81 13q13 -34 33.5 -51.5t53.5 -17.5
q32 0 53 17.5t33 51.5l82 -13q-9 -66 -52 -107.5t-116 -41.5z" />
    <glyph glyph-name="afii10028" unicode="&#x41a;" horiz-adv-x="678" 
d="M508 0q-11 0 -16.5 2.5t-10.5 10.5l-178 268h-97v-281h-138v663h138v-267h39q22 0 37 1.5t27 7t22.5 14.5t22.5 24l194 233l94 -80l-161 -190q-16 -19 -30 -31t-34 -25l235 -350h-144z" />
    <glyph glyph-name="afii10029" unicode="&#x41b;" horiz-adv-x="740" 
d="M232 639q4 15 11.5 19.5t21.5 4.5h407v-663h-138v543h-187l-104 -425q-16 -64 -53 -96t-88 -32q-47 0 -82 22v83l54 9q17 3 24 10.5t11 22.5z" />
    <glyph glyph-name="afii10030" unicode="&#x41c;" horiz-adv-x="851" 
d="M783 663v-663h-134v454h-2l-172 -221h-82q-9 0 -14 2t-10 9l-166 210h-2v-454h-133v663h111q11 0 15.5 -3t11.5 -12l219 -274h6l215 274q7 9 11.5 12t15.5 3h110z" />
    <glyph glyph-name="afii10031" unicode="&#x41d;" horiz-adv-x="723" 
d="M517 281h-311v-281h-138v663h138v-262h311v262h138v-663h-138v281z" />
    <glyph glyph-name="afii10032" unicode="&#x41e;" horiz-adv-x="740" 
d="M369 -10q-66 0 -126 24t-106 68t-73.5 107.5t-27.5 141.5q0 79 27.5 142t73.5 107.5t106 68.5t126 24h2q66 0 126 -24t106 -68.5t73.5 -107.5t27.5 -142q0 -78 -27.5 -141.5t-73.5 -107.5t-106 -68t-126 -24h-2zM180 331q0 -99 50.5 -153t138.5 -54h2q88 0 138.5 53.5
t50.5 153.5t-50.5 153.5t-138.5 53.5h-2q-88 0 -138.5 -53.5t-50.5 -153.5z" />
    <glyph glyph-name="afii10033" unicode="&#x41f;" horiz-adv-x="713" 
d="M68 663h577v-663h-138v543h-301v-543h-138v663z" />
    <glyph glyph-name="afii10034" unicode="&#x420;" horiz-adv-x="643" 
d="M206 0h-138v663h259q76 0 131 -15t91 -51q26 -27 41 -67t15 -91q0 -54 -16 -97.5t-48 -73.5q-30 -28 -73 -42.5t-108 -14.5h-154v-211zM396 326q17 0 26 4t16 14q11 16 18.5 42t7.5 53q0 55 -27 80q-16 15 -41 21t-61 6h-129v-220h190z" />
    <glyph glyph-name="afii10035" unicode="&#x421;" horiz-adv-x="682" 
d="M658 135q-26 -29 -59 -55.5t-71.5 -46.5t-82 -31.5t-91.5 -11.5q-72 0 -131 26t-100.5 71.5t-64 108t-22.5 135.5q0 79 26 142.5t70 108t102.5 68t123.5 23.5q105 0 177 -52.5t107 -146.5l-89 -57l-61 56q-37 34 -69.5 51t-74.5 17q-34 0 -64.5 -12.5t-53.5 -38.5
t-36.5 -65.5t-13.5 -92.5q0 -47 12.5 -86t36.5 -66.5t59 -42.5t81 -15q31 0 63.5 8t70.5 26l101 49z" />
    <glyph glyph-name="afii10036" unicode="&#x422;" horiz-adv-x="615" 
d="M376 0h-138v547h-221v116h580v-116h-221v-547z" />
    <glyph glyph-name="afii10037" unicode="&#x423;" horiz-adv-x="672" 
d="M161 663q8 0 11.5 -2t7.5 -9l111 -197q19 -34 35.5 -66.5t33.5 -70.5q15 38 29.5 70t31.5 66l97 197q5 12 20 12h134l-289 -559q-29 -57 -71.5 -85.5t-103.5 -28.5q-36 0 -70.5 7.5t-59.5 22.5l11 86l62 4q26 1 45 4.5t33 10.5t24.5 18t20.5 29l17 30l-271 461h141z" />
    <glyph glyph-name="afii10038" unicode="&#x424;" horiz-adv-x="780" 
d="M325 72q-66 5 -119 25t-91 54t-58.5 82t-20.5 108t20.5 108t58.5 82t91 54t119 25v73h130v-73q66 -5 119 -25t91 -54t58.5 -82t20.5 -108t-20.5 -108t-58.5 -82t-91 -54t-119 -25v-82h-130v82zM612 341q0 69 -35.5 108.5t-121.5 47.5v-313q88 8 122.5 47.5t34.5 109.5z
M168 341q0 -35 8 -62.5t26.5 -47t48.5 -31.5t74 -16v313q-87 -8 -122 -48t-35 -108z" />
    <glyph glyph-name="afii10039" unicode="&#x425;" horiz-adv-x="682" 
d="M418 343l259 -343h-145q-8 0 -13 2t-10 8l-176 237l-169 -238q-6 -9 -21 -9h-138l247 342l-244 321h145q10 0 14.5 -2t9.5 -9l161 -215l155 215q5 7 9.5 9t13.5 2h135z" />
    <glyph glyph-name="afii10040" unicode="&#x426;" horiz-adv-x="768" 
d="M68 0v663h138v-547h301v547h138v-547h93v-224q0 -22 -24 -22h-78l-29 130h-539z" />
    <glyph glyph-name="afii10041" unicode="&#x427;" horiz-adv-x="660" 
d="M454 255l-34 -9q-20 -5 -50 -10t-68 -5q-63 0 -108 15.5t-75 43.5q-32 30 -46.5 72.5t-14.5 96.5v204h138v-204q0 -21 4 -41.5t18.5 -36t43 -25.5t76.5 -10q18 0 41 1.5t42 4.5l18 3q15 3 15 17v291h138v-663h-138v255z" />
    <glyph glyph-name="afii10042" unicode="&#x428;" horiz-adv-x="1030" 
d="M962 0h-894v663h138v-547h240v547h138v-547h240v547h138v-663z" />
    <glyph glyph-name="afii10043" unicode="&#x429;" horiz-adv-x="1085" 
d="M68 0v663h138v-547h240v547h138v-547h240v547h138v-547h93v-224q0 -22 -24 -22h-78l-29 130h-856z" />
    <glyph glyph-name="afii10044" unicode="&#x42a;" horiz-adv-x="747" 
d="M20 663h286v-262h176q121 0 178 -51.5t57 -149.5q0 -97 -61.5 -148.5t-180.5 -51.5h-307v547h-148v116zM306 116h161q60 0 84.5 19.5t24.5 64.5q0 41 -20.5 61t-79.5 20h-170v-165z" />
    <glyph glyph-name="afii10045" unicode="&#x42b;" horiz-adv-x="887" 
d="M68 0v663h138v-262h176q121 0 178 -51.5t57 -149.5q0 -97 -61.5 -148.5t-180.5 -51.5h-307zM206 116h161q60 0 84.5 19.5t24.5 64.5q0 41 -20.5 61t-79.5 20h-170v-165zM681 663h138v-663h-138v663z" />
    <glyph glyph-name="afii10046" unicode="&#x42c;" horiz-adv-x="647" 
d="M68 0v663h138v-262h176q121 0 178 -51.5t57 -149.5q0 -97 -61.5 -148.5t-180.5 -51.5h-307zM206 116h161q60 0 84.5 19.5t24.5 64.5q0 41 -20.5 61t-79.5 20h-170v-165z" />
    <glyph glyph-name="afii10047" unicode="&#x42d;" horiz-adv-x="684" 
d="M78 198l75 -36q38 -18 79 -29t89 -11q75 0 117 42t56 114h-266v120h266q-12 70 -59 106.5t-112 36.5q-43 0 -79 -11.5t-79 -37.5l-53 -33l-69 77q36 60 107 98.5t172 38.5q67 0 126 -22.5t103.5 -66t70.5 -106t26 -141.5q0 -75 -22.5 -139t-64 -110t-101 -72t-134.5 -26
q-99 0 -173.5 33.5t-128.5 88.5z" />
    <glyph glyph-name="afii10048" unicode="&#x42e;" horiz-adv-x="1001" 
d="M68 663h138v-267h116q9 68 38.5 120t72.5 87t96.5 52.5t110.5 17.5h2q64 0 122.5 -22.5t103 -66t71 -107.5t26.5 -146q0 -83 -26.5 -146.5t-71 -106.5t-103 -65.5t-122.5 -22.5h-2q-59 0 -113.5 17.5t-98 53t-72.5 90.5t-36 130h-114v-281h-138v663zM459 331
q0 -107 48 -158.5t133 -51.5h2q85 0 133 51.5t48 158.5t-48 158.5t-133 51.5h-2q-85 0 -133 -51.5t-48 -158.5z" />
    <glyph glyph-name="afii10049" unicode="&#x42f;" horiz-adv-x="671" 
d="M186 14q-6 -11 -10.5 -12.5t-14.5 -1.5h-139l151 250q-49 31 -79.5 81t-30.5 116q0 59 18.5 100t54 67t87.5 37.5t119 11.5h261v-663h-138v223h-139q-11 0 -15.5 -1.5t-10.5 -11.5zM465 338v208h-127q-42 0 -68 -6t-42 -20q-24 -23 -24 -73q0 -27 6 -50.5t17 -40.5
q12 -18 39 -18h199z" />
    <glyph glyph-name="afii10052" unicode="&#x403;" horiz-adv-x="567" 
d="M206 0h-138v663h469v-116h-331v-547zM230 717l-41 57l183 140q10 7 16 7q8 0 16 -12l51 -76z" />
    <glyph glyph-name="afii10050" unicode="&#x490;" horiz-adv-x="568" 
d="M436 787h78q24 0 24 -22v-224h-332v-541h-138v663h341z" />
    <glyph glyph-name="afii10051" unicode="&#x402;" horiz-adv-x="748" 
d="M427 -32l54 25q52 25 70.5 60t18.5 91q0 34 -7.5 63t-25.5 49.5t-47.5 32t-73.5 11.5q-26 0 -46.5 -1.5t-40.5 -4.5q-17 -3 -17 -17v-277h-138v547h-158v116h600v-116h-304v-143q66 18 122 18q129 0 201.5 -71t72.5 -207q0 -62 -18.5 -108.5t-52 -78.5t-81 -48
t-105.5 -16z" />
    <glyph glyph-name="afii10053" unicode="&#x404;" horiz-adv-x="686" 
d="M660 112q-54 -55 -128.5 -88.5t-173.5 -33.5q-75 0 -134.5 26t-101 72t-64 110t-22.5 139q0 79 26 141.5t70.5 106t103.5 66t126 22.5q101 0 172 -38.5t107 -98.5l-69 -77l-53 33q-43 26 -79 37.5t-79 11.5q-65 0 -112 -36.5t-59 -106.5h266v-120h-266q14 -72 56 -114
t117 -42q48 0 89 11t79 29l75 36z" />
    <glyph glyph-name="afii10054" unicode="&#x405;" horiz-adv-x="592" 
d="M72 150l68 -15q57 -13 97 -18.5t74 -5.5q51 0 82.5 21t31.5 62q0 32 -24 48t-82 33l-68 20q-100 29 -153.5 74t-53.5 122q0 45 19.5 79t54 57t80.5 34.5t99 11.5q57 0 114.5 -11.5t111.5 -33.5l-21 -93l-53 6q-38 5 -77 8t-67 3q-66 0 -99 -14t-33 -46q0 -28 26.5 -43.5
t79.5 -30.5l62 -18q60 -17 101 -36.5t66 -43t36 -53t11 -67.5q0 -97 -65.5 -153.5t-186.5 -56.5q-33 0 -69 5.5t-71 15t-67.5 22.5t-58.5 27z" />
    <glyph glyph-name="uni0400" unicode="&#x400;" horiz-adv-x="611" 
d="M546 663v-116h-340v-151h307v-115h-307v-165h350v-116h-488v663h478zM172 833l51 76q7 12 16 12q6 0 16 -7l183 -140l-41 -57z" />
    <glyph glyph-name="afii10023" unicode="&#x401;" horiz-adv-x="611" 
d="M546 663v-116h-340v-151h307v-115h-307v-165h350v-116h-488v663h478zM266 746h-126v121h102q14 0 19 -5t5 -17v-99zM471 746h-126v121h102q14 0 19 -5t5 -17v-99z" />
    <glyph glyph-name="afii10055" unicode="&#x406;" horiz-adv-x="280" 
d="M71 663h138v-663h-138v663z" />
    <glyph glyph-name="afii10056" unicode="&#x407;" horiz-adv-x="280" 
d="M71 663h138v-663h-138v663zM101 746h-126v121h102q14 0 19 -5t5 -17v-99zM306 746h-126v121h102q14 0 19 -5t5 -17v-99z" />
    <glyph glyph-name="afii10057" unicode="&#x408;" horiz-adv-x="513" 
d="M51 138l58 -11q35 -7 62 -10.5t50 -3.5q52 0 72 23q18 22 18 74v453h138v-449q0 -110 -56 -167q-27 -27 -65.5 -42t-85.5 -15q-57 0 -115 17.5t-104 46.5z" />
    <glyph glyph-name="uni040D" unicode="&#x40d;" horiz-adv-x="744" 
d="M544 452q-7 -10 -18.5 -26t-26 -35t-31.5 -40t-33 -42l-237 -297q-6 -8 -10.5 -10t-14.5 -2h-105v663h134v-453q6 8 15.5 21.5t21.5 29.5t25.5 33t26.5 34l257 323q6 8 11 10t15 2h102v-663h-133zM214 833l51 76q7 12 16 12q6 0 16 -7l183 -140l-41 -57z" />
    <glyph glyph-name="afii10061" unicode="&#x40c;" horiz-adv-x="678" 
d="M508 0q-11 0 -16.5 2.5t-10.5 10.5l-178 268h-97v-281h-138v663h138v-267h39q22 0 37 1.5t27 7t22.5 14.5t22.5 24l194 233l94 -80l-161 -190q-16 -19 -30 -31t-34 -25l235 -350h-144zM267 717l-41 57l183 140q10 7 16 7q8 0 16 -12l51 -76z" />
    <glyph glyph-name="afii10058" unicode="&#x409;" horiz-adv-x="1109" 
d="M232 639q4 15 11.5 19.5t21.5 4.5h407v-262h176q121 0 178 -51.5t57 -149.5q0 -97 -61.5 -148.5t-180.5 -51.5h-307v543h-187l-104 -425q-16 -64 -53 -96t-88 -32q-47 0 -82 22v83l54 9q17 3 24 10.5t11 22.5zM672 116h161q60 0 84.5 19.5t24.5 64.5q0 41 -20.5 61
t-79.5 20h-170v-165z" />
    <glyph glyph-name="afii10059" unicode="&#x40a;" horiz-adv-x="1096" 
d="M655 663v-262h176q121 0 178 -51.5t57 -149.5q0 -97 -61.5 -148.5t-180.5 -51.5h-307v281h-311v-281h-138v663h138v-262h311v262h138zM655 116h161q60 0 84.5 19.5t24.5 64.5q0 41 -20.5 61t-79.5 20h-170v-165z" />
    <glyph glyph-name="afii10060" unicode="&#x40b;" horiz-adv-x="770" 
d="M312 0h-138v547h-158v116h600v-116h-304v-146q35 7 68 10.5t62 3.5q73 0 122 -17t79 -45q32 -30 48.5 -72t16.5 -102v-179h-138v165q0 31 -6.5 55t-24.5 40t-49 24.5t-79 8.5q-26 0 -47.5 -2t-35.5 -5q-16 -3 -16 -20v-266z" />
    <glyph glyph-name="afii10062" unicode="&#x40e;" horiz-adv-x="672" 
d="M161 663q8 0 11.5 -2t7.5 -9l111 -197q19 -34 35.5 -66.5t33.5 -70.5q15 38 29.5 70t31.5 66l97 197q5 12 20 12h134l-289 -559q-29 -57 -71.5 -85.5t-103.5 -28.5q-36 0 -70.5 7.5t-59.5 22.5l11 86l62 4q26 1 45 4.5t33 10.5t24.5 18t20.5 29l17 30l-271 461h141z
M353 730q-73 0 -116 41.5t-52 107.5l81 13q13 -34 33.5 -51.5t53.5 -17.5q32 0 53 17.5t33 51.5l82 -13q-9 -66 -52 -107.5t-116 -41.5z" />
    <glyph glyph-name="afii10145" unicode="&#x40f;" horiz-adv-x="723" 
d="M436 -156q0 -22 -24 -22h-78l-40 178h-226v663h138v-547h311v547h138v-663h-219v-156z" />
    <glyph glyph-name="uni0492" unicode="&#x492;" horiz-adv-x="629" 
d="M20 366h110v297h469v-122h-331v-175h175v-111h-175v-255h-138v255h-110v111z" />
    <glyph glyph-name="uni049A" unicode="&#x49a;" horiz-adv-x="702" 
d="M666 116v-224q0 -22 -24 -22h-78l-29 130h-17q-11 0 -16.5 2.5t-10.5 10.5l-172 268h-113v-281h-138v663h138v-267h95q13 0 20 2.5t15 10.5l226 271l94 -80l-165 -196q-16 -19 -30 -31t-34 -25l148 -219q6 -8 11 -10.5t16 -2.5h64z" />
    <glyph glyph-name="uni04A2" unicode="&#x4a2;" horiz-adv-x="778" 
d="M517 281h-311v-281h-138v663h138v-262h311v262h138v-547h93v-224q0 -22 -24 -22h-78l-29 130h-100v281z" />
    <glyph glyph-name="uni04AE" unicode="&#x4ae;" horiz-adv-x="669" 
d="M405 211v-211h-138v211l-267 452h141q8 0 11.5 -2t7.5 -9l87 -153q25 -45 49 -91.5t42 -81.5q17 35 42 81t51 94l84 150q4 7 8 9.5t12 2.5h134z" />
    <glyph glyph-name="uni04B0" unicode="&#x4b0;" horiz-adv-x="669" 
d="M405 245v-19h120v-105h-120v-121h-138v121h-120v105h120v19l-267 418h141q8 0 11.5 -2t7.5 -9l87 -142q32 -52 53 -90.5t38 -73.5q17 35 39 73.5t54 92.5l84 139q4 7 8 9.5t12 2.5h134z" />
    <glyph glyph-name="uni04BA" unicode="&#x4ba;" horiz-adv-x="650" 
d="M310 317q-26 0 -46.5 -1.5t-40.5 -4.5q-17 -3 -17 -17v-294h-138v663h138v-245q35 7 69.5 10.5t72.5 3.5q71 0 119.5 -16.5t78.5 -46.5t43 -72t13 -93v-204h-138v195q0 24 -5 46t-21 39t-46.5 27t-81.5 10z" />
    <glyph glyph-name="uni04D8" unicode="&#x4d8;" horiz-adv-x="721" 
d="M52 369q4 12 11 14.5t18 2.5h455q-11 69 -56.5 110.5t-134.5 41.5q-42 0 -79.5 -6.5t-75.5 -21.5l-74 -29l-52 91q52 45 125.5 73t161.5 28q76 0 138 -24t105.5 -67.5t67 -104t23.5 -133.5q0 -82 -26.5 -147.5t-71.5 -111.5t-105 -70.5t-127 -24.5q-69 0 -125.5 25
t-97.5 68t-63.5 100.5t-22.5 123.5q0 14 0.5 31t5.5 31zM357 124q82 0 123.5 39t54.5 108h-344q3 -31 14.5 -57.5t32 -46.5t50.5 -31.5t69 -11.5z" />
    <glyph glyph-name="uni04E8" unicode="&#x4e8;" horiz-adv-x="740" 
d="M369 -10q-66 0 -126 24t-106 68t-73.5 107.5t-27.5 141.5q0 79 27.5 142t73.5 107.5t106 68.5t126 24h2q66 0 126 -24t106 -68.5t73.5 -107.5t27.5 -142q0 -78 -27.5 -141.5t-73.5 -107.5t-106 -68t-126 -24h-2zM371 116q79 0 130 42t63 123h-389q13 -80 63.5 -122.5
t130.5 -42.5h2zM369 546q-76 0 -125.5 -38.5t-65.5 -111.5h383q-15 73 -65 111.5t-125 38.5h-2z" />
    <glyph glyph-name="afii10065" unicode="&#x430;" horiz-adv-x="551" 
d="M342 307q0 38 -18 56q-21 21 -72 21q-25 0 -55.5 -6.5t-63.5 -17.5l-41 -14l-40 70q49 38 104 59t111 21q47 0 87 -13t69 -43q23 -23 35.5 -57t12.5 -84v-198l67 -13v-69q-18 -9 -45 -15t-47 -6q-26 0 -47 11.5t-39 31.5l-26 -14q-66 -35 -125 -35q-40 0 -73 12.5
t-56.5 34.5t-36.5 52t-13 65q0 66 46 102t124 36h3q32 0 70.5 -5.5t68.5 -13.5v32zM342 190q0 10 -11 10h-140q-21 0 -29.5 -9.5t-8.5 -29.5q0 -28 20 -46t60 -18q26 0 54 6.5t42 12.5q8 3 10.5 6t2.5 11v57z" />
    <glyph glyph-name="afii10066" unicode="&#x431;" horiz-adv-x="575" 
d="M207 442q25 13 54 21.5t66 8.5q48 0 88.5 -16.5t69 -46.5t44.5 -72.5t16 -94.5t-16 -97.5t-47.5 -79.5t-78 -53.5t-107.5 -19.5h-4q-55 0 -101 16t-79.5 56.5t-52.5 108t-19 171.5q0 91 15.5 155t50.5 110q42 55 104.5 82.5t137.5 27.5q38 0 77 -7t68 -18v-70l-129 -14
q-35 -4 -60 -10t-43.5 -14.5t-31 -19.5t-22.5 -23q-20 -26 -28 -56t-10 -65zM295 359q-23 0 -48 -3.5t-43 -8.5l-20 -5q-15 -3 -15 -19v-17q0 -26 4 -60t17.5 -64t39 -51t68.5 -21q30 0 51 11t34.5 29t20 42t6.5 50q0 117 -115 117z" />
    <glyph glyph-name="afii10066.locl" horiz-adv-x="566" 
d="M155 404q-45 16 -72 48.5t-27 87.5q0 42 16.5 75t46 56t70.5 35.5t91 12.5q59 0 111 -17.5t94 -50.5l-27 -79l-65 16q-32 8 -56.5 11.5t-49.5 3.5q-45 0 -72.5 -14t-27.5 -47q0 -26 20 -41.5t66 -28.5l90 -25q41 -11 72 -27.5t52 -40.5t35 -61t14 -88q0 -56 -19 -100.5
t-52.5 -75t-80 -46.5t-100.5 -16q-53 0 -99 15.5t-79.5 45.5t-52.5 74t-19 101q0 42 10.5 72t27.5 51q12 15 31 28t52 21v4zM404 229q0 54 -30.5 84.5t-88.5 30.5t-88.5 -30.5t-30.5 -84.5t30.5 -85.5t88.5 -31.5t88.5 31.5t30.5 85.5z" />
    <glyph glyph-name="afii10067" unicode="&#x432;" horiz-adv-x="549" 
d="M327 488q75 0 117 -30t42 -93q0 -30 -11.5 -55t-38.5 -46q44 -18 63.5 -47t19.5 -76q0 -69 -41.5 -105t-122.5 -36h-297v488h269zM187 101h122q45 0 62.5 12.5t17.5 40.5q0 26 -14.5 38.5t-54.5 12.5h-133v-104zM187 294h141q19 0 25 9q8 11 8 36q0 29 -15 40.5t-53 11.5
h-106v-97z" />
    <glyph glyph-name="afii10068" unicode="&#x433;" horiz-adv-x="449" 
d="M419 387h-232v-387h-129v488h361v-101z" />
    <glyph glyph-name="afii10068.alt" horiz-adv-x="478" 
d="M76 377l-20 81q40 18 88 28t95 10q45 0 82.5 -9.5t65 -27.5t42.5 -45t15 -62q0 -32 -11 -55.5t-32 -40.5t-51 -29t-67 -21l-63 -15q-38 -9 -51.5 -18t-13.5 -28q0 -23 21.5 -35t60.5 -12q25 0 56.5 4t75.5 12l54 10l27 -79q-20 -11 -45.5 -21t-53.5 -17t-57 -11t-56 -4
q-100 0 -150.5 44.5t-50.5 116.5q0 33 9.5 56.5t29.5 40.5t51 29t73 23l65 16q29 8 45.5 15t16.5 23q0 20 -22 27t-68 7q-20 0 -49 -2t-64 -6z" />
    <glyph glyph-name="afii10069" unicode="&#x434;" horiz-adv-x="661" 
d="M631 113v-202q0 -20 -20 -20h-68l-24 109h-377l-24 -109h-68q-20 0 -20 20v202h69q11 0 15.5 4t6.5 14l78 340q2 11 7.5 14t16.5 3h335v-375h73zM243 113h186v262h-126z" />
    <glyph glyph-name="afii10069.alt" horiz-adv-x="558" 
d="M399 456q27 26 51 38t44 12q17 0 34.5 -3.5t31.5 -14.5v-73l-90 -15q-8 -2 -10 -4t2 -10q20 -38 20 -84q0 -43 -17 -79t-46.5 -61.5t-69 -39.5t-85.5 -14q-14 0 -32 3t-29 5q-8 2 -10.5 -0.5t-4.5 -7.5l-6 -14q-4 -9 -4 -14q0 -9 14 -9h143q94 0 138 -35.5t44 -102.5
q0 -42 -19.5 -76t-54 -58t-81.5 -37t-102 -13t-101 12t-79 34t-51.5 51.5t-18.5 64.5q0 32 16.5 54t45.5 39q-9 11 -14.5 21.5t-5.5 24.5q0 15 7.5 30.5t26.5 37.5l32 37q-34 26 -53 63t-19 84q0 43 17 78.5t46 61t69 40t86 14.5q78 0 135 -40zM361 302q0 44 -26.5 66.5
t-70.5 22.5q-45 0 -71 -22.5t-26 -66.5q0 -45 26 -67.5t71 -22.5q44 0 70.5 22.5t26.5 67.5zM164 -32q-8 0 -13 -2t-10 -8q-9 -12 -9 -28q0 -32 32 -52.5t98 -20.5q60 0 96.5 18.5t36.5 54.5q0 20 -12.5 29t-47.5 9h-171z" />
    <glyph glyph-name="afii10070" unicode="&#x435;" horiz-adv-x="543" 
d="M511 263q0 -11 -1 -23.5t-4 -22.5q-3 -9 -8 -11t-13 -2h-323q5 -45 37 -71.5t92 -26.5q24 0 53 6t60 17l55 19l41 -72q-44 -38 -102 -61t-119 -23q-53 0 -98.5 18.5t-79 52t-52.5 79.5t-19 101q0 58 19.5 104.5t52.5 79.5t77.5 51t94.5 18q52 0 96 -18.5t75 -50t48.5 -74
t17.5 -90.5zM383 295q-4 39 -33 63.5t-77 24.5q-49 0 -77.5 -24.5t-33.5 -63.5h221z" />
    <glyph glyph-name="afii10072" unicode="&#x436;" horiz-adv-x="857" 
d="M176 14q-5 -8 -11 -11t-17 -3h-128l173 257q-19 14 -33 28.5t-28 33.5l-89 114l94 69l111 -146q13 -17 22.5 -27t20 -15.5t23 -7t31.5 -1.5h19v183h129v-183h19q19 0 31.5 1.5t23 7t20 15.5t22.5 27l111 146l94 -69l-89 -114q-14 -19 -28 -33.5t-33 -28.5l173 -257h-128
q-11 0 -17 3t-11 11l-122 190h-66v-204h-129v204h-66z" />
    <glyph glyph-name="afii10073" unicode="&#x437;" horiz-adv-x="520" 
d="M148 294h158q12 0 18 8q8 10 8 27q0 25 -21 39.5t-69 14.5q-18 0 -45 -2.5t-56 -10.5l-58 -16l-32 76q45 29 96 47.5t111 18.5q43 0 80.5 -10.5t65 -30t43 -47t15.5 -61.5q0 -30 -12 -53t-34 -38q26 -13 45 -38.5t19 -66.5q0 -37 -17.5 -66t-47.5 -49.5t-69.5 -31.5
t-84.5 -11q-58 0 -117.5 19.5t-113.5 63.5l41 72l58 -20q63 -22 122 -22q97 0 97 55q0 20 -14.5 31t-51.5 11h-134v91z" />
    <glyph glyph-name="afii10074" unicode="&#x438;" horiz-adv-x="586" 
d="M407 183q0 32 1 62t3 71q-20 -33 -40 -60.5t-43 -54.5l-158 -192q-8 -9 -23 -9h-89v488h121v-184q0 -32 -1 -62t-3 -71q20 33 40 60.5t43 54.5l157 193q5 5 8.5 7t11.5 2h93v-488h-121v183z" />
    <glyph glyph-name="afii10075" unicode="&#x439;" horiz-adv-x="586" 
d="M407 183q0 32 1 62t3 71q-20 -33 -40 -60.5t-43 -54.5l-158 -192q-8 -9 -23 -9h-89v488h121v-184q0 -32 -1 -62t-3 -71q20 33 40 60.5t43 54.5l157 193q5 5 8.5 7t11.5 2h93v-488h-121v183zM290 555q-73 0 -116 41.5t-52 107.5l81 13q13 -34 33.5 -51.5t53.5 -17.5
q32 0 53 17.5t33 51.5l82 -13q-9 -66 -52 -107.5t-116 -41.5z" />
    <glyph glyph-name="afii10076" unicode="&#x43a;" horiz-adv-x="567" 
d="M269 204h-82v-204h-129v488h129v-183h35q19 0 31.5 1.5t23 7t20 15.5t22.5 27l111 146l94 -69l-89 -114q-14 -19 -28 -33.5t-33 -28.5l173 -257h-128q-11 0 -17 3t-11 11z" />
    <glyph glyph-name="afii10077" unicode="&#x43b;" horiz-adv-x="592" 
d="M20 88l52 10q11 2 16 7t7 16l80 350q2 11 7.5 14t16.5 3h335v-488h-129v375h-123l-62 -271q-12 -54 -41 -83t-74 -29q-52 0 -85 27v69z" />
    <glyph glyph-name="afii10078" unicode="&#x43c;" horiz-adv-x="678" 
d="M398 149h-96q-23 0 -34 17l-58 96q-12 20 -21 36.5t-18 36.5q2 -23 2.5 -40.5t0.5 -38.5v-256h-116v488h121q12 0 18 -3t11 -11l131 -217l131 217q5 8 11 11t18 3h121v-488h-118v256q0 20 1 37.5t3 41.5q-10 -20 -18.5 -35.5t-19.5 -34.5z" />
    <glyph glyph-name="afii10079" unicode="&#x43d;" horiz-adv-x="588" 
d="M401 202h-214v-202h-129v488h129v-185h214v185h129v-488h-129v202z" />
    <glyph glyph-name="afii10080" unicode="&#x43e;" horiz-adv-x="559" 
d="M529 244q0 -61 -20.5 -108t-54.5 -79t-79 -48.5t-94 -16.5h-3q-49 0 -94 16.5t-79 48.5t-54.5 79t-20.5 108q0 60 20.5 107t54.5 79.5t79 49t94 16.5h3q49 0 94 -16.5t79 -49t54.5 -79.5t20.5 -107zM397 244q0 131 -116 131h-3q-116 0 -116 -131q0 -132 116 -132h3
q116 0 116 132z" />
    <glyph glyph-name="afii10081" unicode="&#x43f;" horiz-adv-x="568" 
d="M381 375h-194v-375h-129v488h452v-488h-129v375z" />
    <glyph glyph-name="afii10081.alt" horiz-adv-x="562" 
d="M381 301q0 36 -16 52q-20 21 -75 21h-2q-26 0 -51 -4t-40 -10q-8 -3 -9 -7.5t-1 -11.5v-341h-129v488h98l16 -43l38 21q23 13 51 21.5t57 8.5q42 0 77.5 -13t61 -37t39.5 -59.5t14 -80.5v-306h-129v301z" />
    <glyph glyph-name="afii10082" unicode="&#x440;" horiz-adv-x="573" 
d="M187 38v-267h-129v717h98l18 -45l43 21q35 17 59.5 24.5t52.5 7.5q45 0 84.5 -18t68 -51t45 -79.5t16.5 -103.5t-16 -103.5t-44 -79.5t-67.5 -51t-85.5 -18q-29 0 -57.5 9t-57.5 23zM187 151q0 -14 10 -19q18 -8 46 -14.5t54 -6.5q56 0 85 28.5t29 104.5
q0 74 -28.5 102.5t-85.5 28.5q-29 0 -55.5 -6.5t-44.5 -15.5q-8 -4 -9 -7.5t-1 -11.5v-183z" />
    <glyph glyph-name="afii10083" unicode="&#x441;" horiz-adv-x="516" 
d="M497 86q-21 -19 -47 -36t-55 -30t-60.5 -20.5t-62.5 -7.5q-55 0 -99.5 18t-76 51.5t-49 80.5t-17.5 104t19.5 103t52.5 78.5t76.5 50.5t90.5 18q42 0 78.5 -12.5t65 -34.5t48.5 -52.5t29 -65.5l-85 -43l-45 44q-30 29 -51.5 39t-45.5 10q-41 0 -71 -33t-30 -100
q0 -74 30.5 -107.5t93.5 -33.5q21 0 50.5 7t59.5 19l58 23z" />
    <glyph glyph-name="afii10084" unicode="&#x442;" horiz-adv-x="529" 
d="M329 0h-129v387h-170v101h469v-101h-170v-387z" />
    <glyph glyph-name="afii10084.alt" horiz-adv-x="866" 
d="M684 307q0 36 -18 51q-20 16 -69 16h-2q-26 0 -47.5 -4t-36.5 -10q-8 -3 -9 -7.5t-1 -11.5v-341h-130v307q0 36 -18 51q-20 16 -69 16h-2q-26 0 -47.5 -4t-36.5 -10q-8 -3 -9 -7.5t-1 -11.5v-341h-129v488h98l16 -43l22 13q32 19 62 28.5t62 9.5q85 0 142 -64l36 20
q39 22 71.5 33t64.5 11q41 0 75 -14.5t59 -40.5q23 -25 35 -57.5t12 -76.5v-307h-130v307z" />
    <glyph glyph-name="afii10085" unicode="&#x443;" horiz-adv-x="532" 
d="M219 283q7 -19 15 -39.5t15.5 -40.5t13.5 -38t9 -31q8 26 20.5 64.5t28.5 80.5l73 195q4 9 7.5 11.5t12.5 2.5h118l-291 -724l-124 29l90 202l-207 493h122q9 0 12.5 -2.5t7.5 -11.5z" />
    <glyph glyph-name="afii10086" unicode="&#x444;" horiz-adv-x="879" 
d="M375 38q-17 -11 -32 -19.5t-29.5 -14.5t-30.5 -9t-35 -3q-45 0 -83 19t-66.5 52.5t-44.5 80t-16 101.5q0 56 15.5 102.5t42.5 79.5t64.5 51t81.5 18q34 0 58 -10t46 -23l29 -17v263h129v-263l29 17q22 13 46 23t58 10q44 0 81.5 -18t64.5 -51t42.5 -79.5t15.5 -102.5
q0 -55 -16 -101.5t-44.5 -80t-66.5 -52.5t-83 -19q-38 0 -65.5 12t-61.5 34v-267h-129v267zM504 152q0 -16 10 -21q17 -8 38.5 -13.5t46.5 -5.5q51 0 80.5 31t29.5 101t-28.5 101.5t-81.5 31.5q-25 0 -48 -6.5t-37 -14.5q-6 -4 -8 -7.5t-2 -11.5v-185zM375 337q0 8 -2 11.5
t-8 7.5q-14 8 -37 14.5t-48 6.5q-53 0 -81.5 -31.5t-28.5 -101.5t29.5 -101t80.5 -31q25 0 46.5 5.5t38.5 13.5q10 5 10 21v185z" />
    <glyph glyph-name="afii10087" unicode="&#x445;" horiz-adv-x="529" 
d="M389 0q-14 0 -21 10l-110 155h-1l-102 -155q-5 -6 -9 -8t-12 -2h-131l176 252l-172 236h135q9 0 13.5 -2t9.5 -9l99 -142l97 142q5 7 9 9t12 2h125l-165 -239l184 -249h-137z" />
    <glyph glyph-name="afii10088" unicode="&#x446;" horiz-adv-x="611" 
d="M58 0v488h129v-375h202v375h129v-375h73v-202q0 -20 -20 -20h-72l-24 109h-417z" />
    <glyph glyph-name="afii10089" unicode="&#x447;" horiz-adv-x="532" 
d="M323 264q14 2 18 5.5t4 11.5v207h129v-488h-129v170l-28 -13q-47 -22 -100 -22q-41 0 -75.5 12.5t-59 37t-38.5 60t-14 80.5v163h129v-157q0 -17 3 -30.5t13 -23.5t29 -15t50 -5q11 0 24 1t28 3z" />
    <glyph glyph-name="afii10090" unicode="&#x448;" horiz-adv-x="867" 
d="M369 488h129v-375h182v375h129v-488h-751v488h129v-375h182v375z" />
    <glyph glyph-name="afii10091" unicode="&#x449;" horiz-adv-x="902" 
d="M58 0v488h129v-375h182v375h129v-375h182v375h129v-375h73v-202q0 -20 -20 -20h-72l-24 109h-708z" />
    <glyph glyph-name="afii10092" unicode="&#x44a;" horiz-adv-x="598" 
d="M140 387h-120v101h249v-174h116q94 0 138.5 -40.5t44.5 -114.5q0 -78 -48 -118.5t-142 -40.5h-238v387zM269 213v-112h98q42 0 58.5 13t16.5 45q0 27 -14 40.5t-55 13.5h-104z" />
    <glyph glyph-name="afii10093" unicode="&#x44b;" horiz-adv-x="737" 
d="M58 488h129v-174h116q94 0 138.5 -40.5t44.5 -114.5q0 -78 -48 -118.5t-142 -40.5h-238v488zM187 213v-112h98q42 0 58.5 13t16.5 45q0 27 -14 40.5t-55 13.5h-104zM550 488h129v-488h-129v488z" />
    <glyph glyph-name="afii10094" unicode="&#x44c;" horiz-adv-x="516" 
d="M58 488h129v-174h116q94 0 138.5 -40.5t44.5 -114.5q0 -78 -48 -118.5t-142 -40.5h-238v488zM187 213v-112h98q42 0 58.5 13t16.5 45q0 27 -14 40.5t-55 13.5h-104z" />
    <glyph glyph-name="afii10095" unicode="&#x44d;" horiz-adv-x="540" 
d="M251 106q57 0 89 26.5t38 71.5h-202v91h201q-10 41 -41.5 64t-88.5 23q-26 0 -51 -5.5t-60 -17.5l-55 -19l-41 72q18 16 39.5 31t47.5 27t57 19t68 7q57 0 104.5 -18.5t81.5 -52t53 -79.5t19 -101v-2q0 -55 -18.5 -101t-52.5 -79.5t-80.5 -52t-101.5 -18.5
q-65 0 -120 23.5t-97 60.5l41 72l55 -19q31 -11 59.5 -17t55.5 -6z" />
    <glyph glyph-name="afii10096" unicode="&#x44e;" horiz-adv-x="789" 
d="M759 244q0 -61 -20 -108t-53.5 -79t-77.5 -48.5t-91 -16.5h-3q-43 0 -83.5 12.5t-72.5 38.5t-54 65t-29 93h-88v-201h-129v488h129v-174h93q10 46 32.5 80t54 56.5t69.5 34t78 11.5h3q47 0 91 -16.5t77.5 -49t53.5 -79.5t20 -107zM627 244q0 74 -30 105.5t-84 31.5h-3
q-54 0 -84 -31.5t-30 -105.5t30 -106t84 -32h3q54 0 84 32t30 106z" />
    <glyph glyph-name="afii10097" unicode="&#x44f;" horiz-adv-x="552" 
d="M176 13q-8 -13 -23 -13h-127l115 186q-38 20 -61.5 54t-23.5 91q0 84 53 120.5t148 36.5h237v-488h-129v164h-101zM263 388q-42 0 -61.5 -15t-19.5 -51t14 -50q5 -5 10.5 -6.5t18.5 -1.5h140v124h-102z" />
    <glyph glyph-name="afii10100" unicode="&#x453;" horiz-adv-x="449" 
d="M419 387h-232v-387h-129v488h361v-101zM173 542l-41 57l183 140q10 7 16 7q8 0 16 -12l51 -76z" />
    <glyph glyph-name="afii10098" unicode="&#x491;" horiz-adv-x="452" 
d="M187 387v-387h-129v488h246l26 121h72q20 0 20 -20v-202h-235z" />
    <glyph glyph-name="afii10099" unicode="&#x452;" horiz-adv-x="562" 
d="M210 466q26 14 53.5 22t54.5 8q42 0 77.5 -13t61 -37t39.5 -59.5t14 -80.5v-342q0 -45 -7 -78.5t-24.5 -55.5t-48 -32.5t-76.5 -10.5q-23 0 -47 4.5t-41 11.5v70l57 11q18 3 29.5 7.5t18 11t8.5 16.5t2 25v357q0 36 -16 52q-20 21 -75 21h-2q-26 0 -51 -4t-40 -10
q-8 -3 -9 -7.5t-1 -11.5v-341h-129v556h-74v68l74 13v72h129v-72h154v-81h-154v-103z" />
    <glyph glyph-name="afii10101" unicode="&#x454;" horiz-adv-x="530" 
d="M289 106q27 0 55.5 6t59.5 17l55 19l41 -72q-42 -37 -97 -60.5t-120 -23.5q-56 0 -102 18.5t-80 52t-52.5 79.5t-18.5 101v2q0 55 19 101t53 79.5t81.5 52t104.5 18.5q37 0 68 -7t57 -19t47.5 -27t39.5 -31l-41 -72l-55 19q-35 12 -60 17.5t-51 5.5q-57 0 -88.5 -23
t-41.5 -64h201v-91h-202q6 -45 38 -71.5t89 -26.5z" />
    <glyph glyph-name="afii10102" unicode="&#x455;" horiz-adv-x="478" 
d="M358 382q-35 4 -64 6t-49 2q-46 0 -68 -7t-22 -27q0 -16 16.5 -23t45.5 -15l65 -16q42 -11 73 -23t51 -29t29.5 -40.5t9.5 -56.5q0 -72 -50.5 -116.5t-150.5 -44.5q-27 0 -56 4t-57 11t-53.5 17t-45.5 21l27 79l54 -10q44 -8 75.5 -12t56.5 -4q39 0 60.5 12t21.5 35
q0 19 -13.5 28t-51.5 18l-63 15q-37 9 -67 21t-51 29t-32 40.5t-11 55.5q0 35 15 62t42.5 45t65 27.5t82.5 9.5q47 0 95 -10t88 -28l-20 -81z" />
    <glyph glyph-name="uni0450" unicode="&#x450;" horiz-adv-x="543" 
d="M511 263q0 -11 -1 -23.5t-4 -22.5q-3 -9 -8 -11t-13 -2h-323q5 -45 37 -71.5t92 -26.5q24 0 53 6t60 17l55 19l41 -72q-44 -38 -102 -61t-119 -23q-53 0 -98.5 18.5t-79 52t-52.5 79.5t-19 101q0 58 19.5 104.5t52.5 79.5t77.5 51t94.5 18q52 0 96 -18.5t75 -50t48.5 -74
t17.5 -90.5zM383 295q-4 39 -33 63.5t-77 24.5q-49 0 -77.5 -24.5t-33.5 -63.5h221zM124 658l51 76q7 12 16 12q6 0 16 -7l183 -140l-41 -57z" />
    <glyph glyph-name="afii10071" unicode="&#x451;" horiz-adv-x="543" 
d="M511 263q0 -11 -1 -23.5t-4 -22.5q-3 -9 -8 -11t-13 -2h-323q5 -45 37 -71.5t92 -26.5q24 0 53 6t60 17l55 19l41 -72q-44 -38 -102 -61t-119 -23q-53 0 -98.5 18.5t-79 52t-52.5 79.5t-19 101q0 58 19.5 104.5t52.5 79.5t77.5 51t94.5 18q52 0 96 -18.5t75 -50t48.5 -74
t17.5 -90.5zM383 295q-4 39 -33 63.5t-77 24.5q-49 0 -77.5 -24.5t-33.5 -63.5h221zM232 571h-126v121h102q14 0 19 -5t5 -17v-99zM437 571h-126v121h102q14 0 19 -5t5 -17v-99z" />
    <glyph glyph-name="afii10103" unicode="&#x456;" horiz-adv-x="249" 
d="M60 488h129v-488h-129v488zM60 693h102q16 0 21.5 -5.5t5.5 -19.5v-102h-129v127z" />
    <glyph glyph-name="afii10104" unicode="&#x457;" horiz-adv-x="249" 
d="M85 571h-126v121h102q14 0 19 -5t5 -17v-99zM290 571h-126v121h102q14 0 19 -5t5 -17v-99zM60 488h129v-488h-129v488z" />
    <glyph glyph-name="afii10105" unicode="&#x458;" horiz-adv-x="248" 
d="M188 -56q0 -45 -7 -78.5t-24.5 -55.5t-48 -32.5t-76.5 -10.5q-23 0 -47 4.5t-41 11.5v70l57 11q18 3 29.5 7.5t18 11t8.5 16.5t2 25v564h129v-544zM59 693h102q16 0 21.5 -5.5t5.5 -19.5v-102h-129v127z" />
    <glyph glyph-name="uni045D" unicode="&#x45d;" horiz-adv-x="586" 
d="M407 183q0 32 1 62t3 71q-20 -33 -40 -60.5t-43 -54.5l-158 -192q-8 -9 -23 -9h-89v488h121v-184q0 -32 -1 -62t-3 -71q20 33 40 60.5t43 54.5l157 193q5 5 8.5 7t11.5 2h93v-488h-121v183zM157 658l51 76q7 12 16 12q6 0 16 -7l183 -140l-41 -57z" />
    <glyph glyph-name="afii10109" unicode="&#x45c;" horiz-adv-x="567" 
d="M269 204h-82v-204h-129v488h129v-183h35q19 0 31.5 1.5t23 7t20 15.5t22.5 27l111 146l94 -69l-89 -114q-14 -19 -28 -33.5t-33 -28.5l173 -257h-128q-11 0 -17 3t-11 11zM207 542l-41 57l183 140q10 7 16 7q8 0 16 -12l51 -76z" />
    <glyph glyph-name="afii10106" unicode="&#x459;" horiz-adv-x="863" 
d="M534 213v-112h98q42 0 58.5 13t16.5 45q0 27 -14 40.5t-55 13.5h-104zM534 488v-174h116q94 0 138.5 -40.5t44.5 -114.5q0 -78 -48 -118.5t-142 -40.5h-238v375h-123l-62 -271q-12 -54 -41 -83t-74 -29q-52 0 -85 27v69l52 10q11 2 16 7t7 16l80 350q2 11 7.5 14t16.5 3
h335z" />
    <glyph glyph-name="afii10107" unicode="&#x45a;" horiz-adv-x="859" 
d="M401 207h-214v-207h-129v488h129v-180h214v180h129v-180h116q94 0 138.5 -39t44.5 -113q0 -78 -48 -117t-142 -39h-238v207zM530 207v-106h98q42 0 58.5 11.5t16.5 43.5q0 27 -14 39t-55 12h-104z" />
    <glyph glyph-name="afii10108" unicode="&#x45b;" horiz-adv-x="562" 
d="M210 466q26 14 53.5 22t54.5 8q42 0 77.5 -13t61 -37t39.5 -59.5t14 -80.5v-306h-129v301q0 36 -16 52q-20 21 -75 21h-2q-26 0 -51 -4t-40 -10q-8 -3 -9 -7.5t-1 -11.5v-341h-129v556h-74v68l74 13v72h129v-72h154v-81h-154v-103z" />
    <glyph glyph-name="afii10110" unicode="&#x45e;" horiz-adv-x="532" 
d="M219 283q7 -19 15 -39.5t15.5 -40.5t13.5 -38t9 -31q8 26 20.5 64.5t28.5 80.5l73 195q4 9 7.5 11.5t12.5 2.5h118l-291 -724l-124 29l90 202l-207 493h122q9 0 12.5 -2.5t7.5 -11.5zM266 555q-73 0 -116 41.5t-52 107.5l81 13q13 -34 33.5 -51.5t53.5 -17.5
q32 0 53 17.5t33 51.5l82 -13q-9 -66 -52 -107.5t-116 -41.5z" />
    <glyph glyph-name="afii10193" unicode="&#x45f;" horiz-adv-x="566" 
d="M341 -132q0 -20 -20 -20h-72l-34 152h-157v488h129v-375h192v375h129v-488h-167v-132z" />
    <glyph glyph-name="afii00208" unicode="&#x2015;" horiz-adv-x="1098" 
d="M49 189v109h1000v-109h-1000z" />
    <glyph glyph-name="uni0493" unicode="&#x493;" horiz-adv-x="499" 
d="M335 178h-98v-178h-129v178h-78v91h78v219h361v-101h-232v-118h98v-91z" />
    <glyph glyph-name="uni049B" unicode="&#x49b;" horiz-adv-x="589" 
d="M461 127q5 -8 11 -11t17 -3h70v-202q0 -20 -20 -20h-72l-24 109h-24q-11 0 -17 3t-11 11l-122 190h-82v-204h-129v488h129v-183h35q19 0 31.5 1.5t23 7t20 15.5t22.5 27l111 146l94 -69l-89 -114q-14 -19 -28 -33.5t-33 -28.5z" />
    <glyph glyph-name="uni04A3" unicode="&#x4a3;" horiz-adv-x="633" 
d="M401 202h-214v-202h-129v488h129v-185h214v185h129v-375h70v-202q0 -20 -20 -20h-72l-24 109h-83v202z" />
    <glyph glyph-name="uni04AF" unicode="&#x4af;" horiz-adv-x="552" 
d="M229 277q19 -48 32 -88t21 -73q8 33 20.5 72.5t28.5 84.5l73 201q4 9 7.5 11.5t12.5 2.5h118l-197 -490v-227h-129v227l-206 490h122q9 0 12.5 -2.5t7.5 -11.5z" />
    <glyph glyph-name="uni04B1" unicode="&#x4b1;" horiz-adv-x="552" 
d="M228 288q17 -41 30 -79.5t24 -80.5q11 41 23.5 79.5t26.5 76.5l72 190q4 9 7.5 11.5t12.5 2.5h118l-197 -474v-39h108v-91h-108v-113h-129v113h-108v91h108v39l-206 474h122q9 0 12.5 -2.5t7.5 -11.5z" />
    <glyph glyph-name="uni04BB" unicode="&#x4bb;" horiz-adv-x="562" 
d="M210 466q26 14 53.5 22t54.5 8q42 0 77.5 -13t61 -37t39.5 -59.5t14 -80.5v-306h-129v301q0 36 -16 52q-20 21 -75 21h-2q-26 0 -51 -4t-40 -10q-8 -3 -9 -7.5t-1 -11.5v-341h-129v709h129v-256z" />
    <glyph glyph-name="afii10846" unicode="&#x4d9;" horiz-adv-x="541" 
d="M29.998 224.986q0 10.999 1 23.498q1 12.5 4 22.499q3 8.99902 7.99902 10.999q5 2 12.999 2h322.98q-4.99902 44.9971 -36.9971 71.4961q-31.998 26.498 -91.9951 26.498q-23.998 0 -52.9961 -6q-28.998 -5.99902 -59.9971 -16.998l-54.9961 -18.999l-40.998 71.9951
q43.998 37.998 101.994 60.9961q57.9961 22.999 118.993 22.999q52.9961 0 98.4932 -18.499q45.498 -18.499 78.9961 -51.9971q33.4971 -33.4971 52.4961 -79.4951q18.999 -45.9971 18.999 -100.993q0 -57.9971 -19.499 -104.494t-52.4961 -79.4951
q-32.998 -32.998 -77.4961 -50.9971q-44.4971 -17.999 -94.4941 -17.999q-51.9961 0 -95.9941 18.499q-43.9971 18.499 -74.9951 49.9971t-48.4971 73.9961q-17.499 42.4971 -17.499 90.4941zM157.99 192.988q4 -38.998 32.998 -63.4961q28.998 -24.499 76.9951 -24.499
q48.9971 0 77.4951 24.499q28.499 24.498 33.498 63.4961h-220.986z" />
    <glyph glyph-name="uni04E9" unicode="&#x4e9;" horiz-adv-x="571" 
d="M541 244q0 -61 -21.5 -108t-57 -79t-81 -48.5t-94.5 -16.5h-3q-49 0 -94.5 16.5t-81 48.5t-57 79t-21.5 108q0 60 21.5 107t57 79.5t81 49t94.5 16.5h3q49 0 94.5 -16.5t81 -49t57 -79.5t21.5 -107zM287 103q51 0 84 25t43 76h-257q10 -51 43 -76t84 -25h3zM284 384
q-48 0 -80.5 -22.5t-44.5 -66.5h253q-12 44 -44.5 66.5t-80.5 22.5h-3z" />
    <glyph glyph-name="Alpha" unicode="&#x391;" horiz-adv-x="705" 
d="M494 133h-292l-44 -121q-3 -8 -6 -10t-12 -2h-127l255 663h136q9 0 12.5 -2.5t7.5 -10.5l268 -650h-131q-9 0 -12.5 2t-6.5 10zM243 244h207l-46 119q-18 46 -35 91.5t-26 75.5q-5 -15 -12 -37t-15.5 -47t-18.5 -52t-19 -53z" />
    <glyph glyph-name="Beta" unicode="&#x392;" horiz-adv-x="656" 
d="M348 663q52 0 94 -9.5t71.5 -29.5t45.5 -51t16 -74q0 -41 -17 -75.5t-45 -65.5q44 -23 74 -63t30 -101q0 -97 -61.5 -145.5t-180.5 -48.5h-307v663h280zM206 116h161q60 0 84.5 19.5t24.5 64.5q0 42 -19.5 60.5t-74.5 18.5h-176v-163zM387 388q11 0 19 3.5t14 13.5
q8 13 13 30t5 37q0 44 -23 59.5t-77 15.5h-132v-159h181z" />
    <glyph glyph-name="Gamma" unicode="&#x393;" horiz-adv-x="574" 
d="M206 0h-138v663h469v-116h-331v-547z" />
    <glyph glyph-name="Delta" unicode="&#x394;" horiz-adv-x="684" 
d="M38 80q0 7 0.5 11t2.5 10t6.5 16.5t12.5 31.5l199 514h137q9 0 12.5 -2.5t6.5 -10.5l204 -491q10 -24 15.5 -37t8 -20t3 -11t0.5 -11v-80h-608v80zM424 116q16 0 37 -0.5t37 -2.5q-17 32 -29.5 62.5t-28.5 71.5l-57 142q-17 41 -29 77.5t-20 62.5q-8 -26 -20 -61.5
t-28 -79.5l-52 -141q-13 -33 -25 -67.5t-29 -66.5q16 2 37 2.5t37 0.5h170z" />
    <glyph glyph-name="Epsilon" unicode="&#x395;" horiz-adv-x="611" 
d="M546 663v-116h-340v-151h307v-115h-307v-165h350v-116h-488v663h478z" />
    <glyph glyph-name="Zeta" unicode="&#x396;" horiz-adv-x="616" 
d="M45 547v116h520v-77q0 -11 -3 -17.5t-11 -17.5l-230 -303q-25 -33 -53 -68.5t-51 -63.5h352v-116h-521v76q0 11 2.5 17.5t10.5 18.5l230 303q29 39 57 73.5t48 58.5h-351z" />
    <glyph glyph-name="Eta" unicode="&#x397;" horiz-adv-x="723" 
d="M517 281h-311v-281h-138v663h138v-262h311v262h138v-663h-138v281z" />
    <glyph glyph-name="Theta" unicode="&#x398;" horiz-adv-x="740" 
d="M263 284v103h214v-103h-214zM369 -10q-66 0 -126 24t-106 68t-73.5 107.5t-27.5 141.5q0 79 27.5 142t73.5 107.5t106 68.5t126 24h2q66 0 126 -24t106 -68.5t73.5 -107.5t27.5 -142q0 -78 -27.5 -141.5t-73.5 -107.5t-106 -68t-126 -24h-2zM180 331q0 -99 50.5 -153
t138.5 -54h2q88 0 138.5 53.5t50.5 153.5t-50.5 153.5t-138.5 53.5h-2q-88 0 -138.5 -53.5t-50.5 -153.5z" />
    <glyph glyph-name="Iota" unicode="&#x399;" horiz-adv-x="280" 
d="M71 663h138v-663h-138v663z" />
    <glyph glyph-name="Kappa" unicode="&#x39a;" horiz-adv-x="667" 
d="M293 305q-19 -17 -43 -32t-44 -25v-248h-138v663h138v-293l348 301l78 -84l-238 -201l267 -386h-142q-11 0 -16 2.5t-11 10.5z" />
    <glyph glyph-name="Lambda" unicode="&#x39b;" horiz-adv-x="685" 
d="M390 363q-8 21 -16 44.5t-15.5 45.5t-14.5 42t-11 35q-5 -15 -12 -38.5t-15 -49.5t-17 -52.5t-17 -48.5l-114 -329q-3 -8 -6 -10t-12 -2h-127l243 663h136q9 0 12.5 -2.5t7.5 -10.5l260 -650h-131q-9 0 -12.5 2t-6.5 10z" />
    <glyph glyph-name="Mu" unicode="&#x39c;" horiz-adv-x="851" 
d="M783 663v-663h-134v454h-2l-172 -221h-82q-9 0 -14 2t-10 9l-166 210h-2v-454h-133v663h111q11 0 15.5 -3t11.5 -12l219 -274h6l215 274q7 9 11.5 12t15.5 3h110z" />
    <glyph glyph-name="Nu" unicode="&#x39d;" horiz-adv-x="744" 
d="M543 663h133v-663h-103q-10 0 -15 2t-11 10l-257 323q-13 16 -26.5 33.5t-25.5 33.5t-21.5 29.5t-15.5 21.5v-453h-133v663h104q10 0 14.5 -2t10.5 -10l237 -297q16 -21 33 -42t31.5 -40t26 -35t18.5 -26v452z" />
    <glyph glyph-name="Xi" unicode="&#x39e;" horiz-adv-x="618" 
d="M55 0v116h508v-116h-508zM97 281v115h423v-115h-423zM553 663v-116h-488v116h488z" />
    <glyph glyph-name="Omicron" unicode="&#x39f;" horiz-adv-x="740" 
d="M369 -10q-66 0 -126 24t-106 68t-73.5 107.5t-27.5 141.5q0 79 27.5 142t73.5 107.5t106 68.5t126 24h2q66 0 126 -24t106 -68.5t73.5 -107.5t27.5 -142q0 -78 -27.5 -141.5t-73.5 -107.5t-106 -68t-126 -24h-2zM180 331q0 -99 50.5 -153t138.5 -54h2q88 0 138.5 53.5
t50.5 153.5t-50.5 153.5t-138.5 53.5h-2q-88 0 -138.5 -53.5t-50.5 -153.5z" />
    <glyph glyph-name="Pi" unicode="&#x3a0;" horiz-adv-x="703" 
d="M497 543h-291v-543h-138v663h567v-663h-138v543z" />
    <glyph glyph-name="Rho" unicode="&#x3a1;" horiz-adv-x="643" 
d="M206 0h-138v663h259q76 0 131 -15t91 -51q26 -27 41 -67t15 -91q0 -54 -16 -97.5t-48 -73.5q-30 -28 -73 -42.5t-108 -14.5h-154v-211zM396 326q17 0 26 4t16 14q11 16 18.5 42t7.5 53q0 55 -27 80q-16 15 -41 21t-61 6h-129v-220h190z" />
    <glyph glyph-name="Sigma" unicode="&#x3a3;" horiz-adv-x="623" 
d="M415 378q13 -12 15.5 -19t2.5 -21v-28l-195 -194h330v-116h-521v72q0 12 2 19.5t12 17.5l229 228l-231 216q-9 8 -12 16t-3 21v73h520v-116h-329z" />
    <glyph glyph-name="Tau" unicode="&#x3a4;" horiz-adv-x="615" 
d="M376 0h-138v547h-221v116h580v-116h-221v-547z" />
    <glyph glyph-name="Upsilon" unicode="&#x3a5;" horiz-adv-x="669" 
d="M405 211v-211h-138v211l-267 452h141q8 0 11.5 -2t7.5 -9l87 -153q25 -45 49 -91.5t42 -81.5q17 35 42 81t51 94l84 150q4 7 8 9.5t12 2.5h134z" />
    <glyph glyph-name="Phi" unicode="&#x3a6;" horiz-adv-x="780" 
d="M326 35q-53 4 -104.5 19.5t-93 49t-67 88.5t-25.5 139t25 139t66 88.5t93 49t106 18.5v73h128v-73q53 -4 105 -19t93 -48.5t66.5 -88.5t25.5 -139t-25 -139t-65.5 -88.5t-92.5 -49t-107 -19.5v-74h-128v74zM600 331q0 49 -12 83t-32 55.5t-46.5 32t-55.5 13.5v-368
q30 3 56.5 13.5t46.5 31.5t31.5 54.5t11.5 84.5zM180 331q0 -50 12 -84t32 -55t46.5 -31.5t55.5 -13.5v368q-28 -3 -54.5 -13t-46.5 -31.5t-32.5 -55.5t-12.5 -84z" />
    <glyph glyph-name="Chi" unicode="&#x3a7;" horiz-adv-x="682" 
d="M418 343l259 -343h-145q-8 0 -13 2t-10 8l-176 237l-169 -238q-6 -9 -21 -9h-138l247 342l-244 321h145q10 0 14.5 -2t9.5 -9l161 -215l155 215q5 7 9.5 9t13.5 2h135z" />
    <glyph glyph-name="Psi" unicode="&#x3a8;" horiz-adv-x="760" 
d="M446 308q47 4 74.5 18.5t42 36.5t18.5 48.5t4 54.5v197h134v-199q0 -69 -19.5 -119.5t-55.5 -84t-86.5 -52t-111.5 -22.5v-186h-132v186q-62 4 -112.5 22t-86 52t-55 84.5t-19.5 119.5v199h135v-197q0 -28 4 -55t18 -48.5t41.5 -36.5t74.5 -18v355h132v-355z" />
    <glyph glyph-name="Omega" unicode="&#x3a9;" horiz-adv-x="748" 
d="M334 0h-279v111h131q-40 32 -67 64.5t-43.5 64.5t-24 64.5t-7.5 65.5q0 61 26 116.5t71 96.5t105 65.5t128 24.5q67 0 127 -24.5t105 -65.5t71 -96.5t26 -116.5q0 -35 -7.5 -66.5t-24 -62.5t-43.5 -63t-66 -67h130v-111h-279v73v13t1.5 8t3.5 6t7 8l57 65q33 38 55.5 87
t22.5 100q0 45 -15 78.5t-40.5 55.5t-59.5 33t-71 11q-39 0 -73.5 -11.5t-59.5 -34t-39.5 -56t-14.5 -76.5q0 -51 23 -101t55 -86l57 -65q4 -5 6.5 -8.5t4 -6.5t1.5 -7.5v-12.5v-73z" />
    <glyph glyph-name="Alphatonos" unicode="&#x386;" horiz-adv-x="705" 
d="M494 133h-292l-44 -121q-3 -8 -6 -10t-12 -2h-127l255 663h136q9 0 12.5 -2.5t7.5 -10.5l268 -650h-131q-9 0 -12.5 2t-6.5 10zM243 244h207l-46 119q-18 46 -35 91.5t-26 75.5q-5 -15 -12 -37t-15.5 -47t-18.5 -52t-19 -53zM91 424l-75 20l42 223q2 8 5 14t12 6
q4 0 9.5 -1t11.5 -3l86 -22z" />
    <glyph glyph-name="Epsilontonos" unicode="&#x388;" horiz-adv-x="770" 
d="M705 663v-116h-340v-151h307v-115h-307v-165h350v-116h-488v663h478zM85 424l-75 20l42 223q2 8 5 14t12 6q4 0 9.5 -1t11.5 -3l86 -22z" />
    <glyph glyph-name="Etatonos" unicode="&#x389;" horiz-adv-x="882" 
d="M676 281h-311v-281h-138v663h138v-262h311v262h138v-663h-138v281zM85 424l-75 20l42 223q2 8 5 14t12 6q4 0 9.5 -1t11.5 -3l86 -22z" />
    <glyph glyph-name="Iotatonos" unicode="&#x38a;" horiz-adv-x="439" 
d="M230 663h138v-663h-138v663zM85 424l-75 20l42 223q2 8 5 14t12 6q4 0 9.5 -1t11.5 -3l86 -22z" />
    <glyph glyph-name="Iotadieresis" unicode="&#x3aa;" horiz-adv-x="280" 
d="M71 663h138v-663h-138v663zM100 748h-126v121h102q14 0 19 -5t5 -17v-99zM305 748h-126v121h102q14 0 19 -5t5 -17v-99z" />
    <glyph glyph-name="Omicrontonos" unicode="&#x38c;" horiz-adv-x="859" 
d="M488 -10q-66 0 -126 24t-106 68t-73.5 107.5t-27.5 141.5q0 79 27.5 142t73.5 107.5t106 68.5t126 24h2q66 0 126 -24t106 -68.5t73.5 -107.5t27.5 -142q0 -78 -27.5 -141.5t-73.5 -107.5t-106 -68t-126 -24h-2zM299 331q0 -99 50.5 -153t138.5 -54h2q88 0 138.5 53.5
t50.5 153.5t-50.5 153.5t-138.5 53.5h-2q-88 0 -138.5 -53.5t-50.5 -153.5zM85 424l-75 20l42 223q2 8 5 14t12 6q4 0 9.5 -1t11.5 -3l86 -22z" />
    <glyph glyph-name="Upsilontonos" unicode="&#x38e;" horiz-adv-x="848" 
d="M85 424l-75 20l42 223q2 8 5 14t12 6q4 0 9.5 -1t11.5 -3l86 -22zM584 211v-211h-138v211l-267 452h141q8 0 11.5 -2t7.5 -9l87 -153q25 -45 49 -91.5t42 -81.5q17 35 42 81t51 94l84 150q4 7 8 9.5t12 2.5h134z" />
    <glyph glyph-name="Upsilondieresis" unicode="&#x3ab;" horiz-adv-x="669" 
d="M294 748h-126v121h102q14 0 19 -5t5 -17v-99zM499 748h-126v121h102q14 0 19 -5t5 -17v-99zM405 211v-211h-138v211l-267 452h141q8 0 11.5 -2t7.5 -9l87 -153q25 -45 49 -91.5t42 -81.5q17 35 42 81t51 94l84 150q4 7 8 9.5t12 2.5h134z" />
    <glyph glyph-name="Omegatonos" unicode="&#x38f;" horiz-adv-x="867" 
d="M453 0h-279v111h131q-40 32 -67 64.5t-43.5 64.5t-24 64.5t-7.5 65.5q0 61 26 116.5t71 96.5t105 65.5t128 24.5q67 0 127 -24.5t105 -65.5t71 -96.5t26 -116.5q0 -35 -7.5 -66.5t-24 -62.5t-43.5 -63t-66 -67h130v-111h-279v73v13t1.5 8t3.5 6t7 8l57 65q33 38 55.5 87
t22.5 100q0 45 -15 78.5t-40.5 55.5t-59.5 33t-71 11q-39 0 -73.5 -11.5t-59.5 -34t-39.5 -56t-14.5 -76.5q0 -51 23 -101t55 -86l57 -65q4 -5 6.5 -8.5t4 -6.5t1.5 -7.5v-12.5v-73zM85 424l-75 20l42 223q2 8 5 14t12 6q4 0 9.5 -1t11.5 -3l86 -22z" />
    <glyph glyph-name="tonos.cap" horiz-adv-x="416" 
d="M211 424l-75 20l42 223q2 8 5 14t12 6q4 0 9.5 -1t11.5 -3l86 -22z" />
    <glyph glyph-name="alpha" unicode="&#x3b1;" horiz-adv-x="626" 
d="M443 474q2 9 6 11.5t14 2.5h100l-61 -244l43 -149l68 -11v-69q-17 -8 -39.5 -12.5t-42.5 -4.5q-19 0 -36 5t-31.5 17t-26.5 32.5t-21 51.5q-9 -17 -21.5 -36.5t-32 -36.5t-48.5 -28t-69 -11q-48 0 -88 18t-68 51t-43.5 79t-15.5 103q0 59 18 106t48 79.5t69.5 50
t83.5 17.5q68 0 108 -31.5t63 -85.5zM372 275q-25 56 -51.5 78.5t-58.5 22.5q-28 0 -47 -11t-31 -29t-17 -42t-5 -50q0 -27 5 -51t16.5 -42t30.5 -29t48 -11q12 0 26.5 3.5t28.5 14t28.5 29.5t26.5 51q5 13 7.5 20.5t2.5 14t-2.5 13t-7.5 18.5z" />
    <glyph glyph-name="beta" unicode="&#x3b2;" horiz-adv-x="593" 
d="M187 -229h-129v713q0 110 59.5 172.5t180.5 62.5h3q51 0 93.5 -12t72.5 -35.5t47 -58t17 -79.5q0 -31 -6 -55t-15.5 -42.5t-21.5 -32.5t-24 -25q16 -7 33.5 -19t32 -30t24 -44t9.5 -61q0 -47 -14.5 -89t-43 -74t-70 -51t-95.5 -19q-30 0 -63.5 9t-65.5 25l-24 12v-267z
M383 434q6 11 12 31.5t6 49.5q0 18 -4.5 35t-16 29.5t-30.5 20t-49 7.5h-3q-63 0 -87 -34.5t-24 -90.5v-331q0 -14 10 -19q9 -4 22.5 -8t28.5 -7t30.5 -4.5t28.5 -1.5q27 0 50 5.5t39.5 18.5t25.5 35t9 55t-11.5 52.5t-32 30t-48.5 14t-61 4.5h-23v91h95q9 0 13.5 0.5t7.5 2
t5.5 5t6.5 9.5z" />
    <glyph glyph-name="uni03D0" unicode="&#x3d0;" horiz-adv-x="593" 
d="M454 407q54 -20 81.5 -69t27.5 -109q0 -47 -16.5 -90t-48 -75.5t-76 -52t-100.5 -19.5q-138 0 -204.5 88.5t-66.5 264.5v13q0 76 21 142t58 115t88.5 76.5t113.5 27.5q43 0 79.5 -13t63 -37t41.5 -57t15 -72q0 -42 -19.5 -76t-57.5 -57zM188 263q1 -29 9 -56.5t24 -49
t40 -35t57 -13.5q54 0 84.5 37t30.5 98q0 34 -14.5 58.5t-50.5 24.5q-16 0 -32.5 -5t-39.5 -14zM332 602q-62 0 -102 -56.5t-45 -168.5l128 56q49 21 70 44.5t21 57.5q0 12 -4 23.5t-12.5 21.5t-22.5 16t-33 6z" />
    <glyph glyph-name="gamma" unicode="&#x3b3;" horiz-adv-x="532" 
d="M219 277q19 -48 32 -88t21 -73q8 33 20.5 72.5t28.5 84.5l73 201q4 9 7.5 11.5t12.5 2.5h118l-197 -490v-227h-129v227l-206 490h122q9 0 12.5 -2.5t7.5 -11.5z" />
    <glyph glyph-name="delta" unicode="&#x3b4;" horiz-adv-x="559" 
d="M529 234q0 -57 -20.5 -102t-54.5 -76t-79 -47.5t-94 -16.5h-3q-49 0 -94 16.5t-79 47.5t-54.5 76t-20.5 102q0 41 9.5 72.5t25 54.5t34.5 38.5t38 25.5l28 14q-33 26 -46 58t-13 64q0 34 14 63t39 50t59.5 33t76.5 12q45 0 90 -15t82 -39l-30 -77l-47 10q-42 9 -71 9
q-36 0 -59.5 -14t-23.5 -46q0 -26 21.5 -41.5t54.5 -29t70.5 -29.5t70.5 -42t54.5 -66.5t21.5 -104.5zM397 234q0 31 -8.5 52t-26 37t-43 28.5t-58.5 27.5q-12 5 -18 4t-22 -14q-27 -23 -43 -54.5t-16 -80.5q0 -58 29 -90t87 -32h3q58 0 87 32t29 90z" />
    <glyph glyph-name="epsilon" unicode="&#x3b5;" horiz-adv-x="459" 
d="M253 384q-50 0 -71.5 -15t-21.5 -43v-2q0 -8 1 -14t3 -11q2 -6 4 -7.5t7 -1.5h134v-91h-114q-16 0 -25.5 -7t-9.5 -30v-2q0 -31 22 -42.5t66 -11.5h3q19 0 47.5 5t53.5 14l66 23l41 -72q-42 -38 -104 -61t-125 -23q-54 0 -92 11t-62 29.5t-35 43t-11 52.5q0 31 11.5 62
t41.5 59l-18 25q-14 19 -21.5 39.5t-7.5 46.5q0 31 14.5 56t41.5 43t64 27.5t82 9.5q22 0 48.5 -4t52.5 -11t50.5 -17t42.5 -22l-30 -77l-47 9q-20 4 -45.5 7t-53.5 3h-3z" />
    <glyph glyph-name="zeta" unicode="&#x3b6;" horiz-adv-x="455" 
d="M30 236q0 68 18.5 122t48 96t65.5 74t71 57l32 23h-195v101h369v-56q0 -14 -4 -21t-15 -15q-62 -45 -110 -89t-81 -89t-50 -92t-17 -99q0 -51 21.5 -78t54.5 -40.5t70.5 -19.5t70.5 -15.5t54.5 -28t21.5 -56.5q0 -36 -12.5 -71t-30.5 -73l-49 -102l-93 35l31 84
q14 38 20.5 59t6.5 33q0 15 -22 20t-55 9.5t-72 14t-72 33t-55 67t-22 117.5z" />
    <glyph glyph-name="eta" unicode="&#x3b7;" horiz-adv-x="563" 
d="M382 301q0 36 -16 52q-20 21 -75 21h-2q-26 0 -51 -4t-40 -10q-8 -3 -9 -7.5t-1 -11.5v-341h-129v488h98l16 -43l38 21q23 13 51 21.5t57 8.5q42 0 77.5 -13t61 -37t39.5 -59.5t14 -80.5v-535h-129v530z" />
    <glyph glyph-name="theta" unicode="&#x3b8;" horiz-adv-x="559" 
d="M278 604q-69 0 -94 -52t-25 -147v-4h241v4q0 95 -25 147t-94 52h-3zM280 719q73 0 121 -25.5t76.5 -72.5t40 -113.5t11.5 -148.5v-11q0 -86 -13 -152t-42 -111.5t-76.5 -69t-117.5 -23.5h-1q-70 0 -117.5 23.5t-77 69t-42 111.5t-12.5 152v11q0 82 11.5 148.5t40 113.5
t76.5 72.5t121 25.5h1zM281 105q69 0 94 52t25 147v6h-241v-6q0 -95 25 -147t94 -52h3z" />
    <glyph glyph-name="theta1" unicode="&#x3d1;" horiz-adv-x="608" 
d="M254 512q0 -62 48 -87t147 -30q-1 59 -6.5 100t-17.5 66.5t-32 37t-51 11.5q-38 0 -63 -25t-25 -73zM345 -8q-36 0 -62 6.5t-46.5 20t-37.5 35.5t-36 53l-72 120l-73 15v68q18 9 47 16t52 7q19 0 31.5 -5t24.5 -17.5t25 -35t33 -57.5l22 -39q10 -18 19 -31.5t19 -23
t21.5 -14.5t27.5 -5h3q57 0 81 47t26 152q-83 3 -142.5 15.5t-97.5 38t-56 65.5t-18 97q0 37 12.5 73t38 64t64.5 45t91 17q57 0 96 -16.5t65.5 -45.5t41.5 -67t22 -81t9 -88t2 -88q0 -91 -17 -155.5t-47 -106t-72.5 -60.5t-93.5 -19h-3z" />
    <glyph glyph-name="iota" unicode="&#x3b9;" horiz-adv-x="284" 
d="M271 20q-18 -9 -47 -16t-52 -7q-26 0 -47 8.5t-35 22.5q-30 31 -30 88v372h129v-383l82 -17v-68z" />
    <glyph glyph-name="kappa" unicode="&#x3ba;" horiz-adv-x="552" 
d="M359 285l191 -285h-128q-11 0 -15.5 2t-9.5 10l-126 190q-8 -6 -18.5 -14t-22.5 -15.5t-23 -14.5t-20 -11v-147h-129v488h129v-224l182 191q22 24 42.5 32.5t50.5 8.5q44 0 82 -19v-68l-87 -17z" />
    <glyph glyph-name="lambda" unicode="&#x3bb;" horiz-adv-x="586" 
d="M319 209q-17 46 -30 80.5t-21 60.5q-7 -26 -20 -66.5t-29 -78.5l-77 -191q-4 -9 -7.5 -11.5t-12.5 -2.5h-119l207 493l-28 68q-9 22 -19.5 34t-38.5 12q-24 0 -49 -5l-24 -5l-28 79q26 16 64.5 29.5t73.5 13.5q30 0 51 -9t37.5 -29.5t32 -54.5t35.5 -83l178 -444l88 -11
v-69q-18 -9 -45 -15t-47 -6q-32 0 -53.5 7.5t-36 21t-24.5 33.5t-19 45z" />
    <glyph glyph-name="mu" unicode="&#x3bc;" horiz-adv-x="588" 
d="M365 27q-34 -18 -60.5 -26.5t-55.5 -8.5q-35 0 -62 9v-230h-129v717h129v-302q0 -36 16 -53q11 -11 29.5 -15.5t46.5 -4.5q25 0 49.5 3.5t40.5 9.5q8 3 9 8t1 12v342h129v-387l67 -13v-69q-18 -9 -45 -15t-47 -6q-26 0 -48 12.5t-40 32.5z" />
    <glyph glyph-name="nu" unicode="&#x3bd;" horiz-adv-x="557" 
d="M281 113q24 16 45 39.5t36.5 53.5t24 64.5t8.5 72.5q0 44 -9.5 71.5t-21.5 53.5l124 28q3 -5 9.5 -15.5t13 -29t11.5 -45t5 -63.5q0 -57 -19 -109t-50 -96.5t-69 -79.5t-75 -58h-97q-13 0 -18 11l-199 477h121q10 0 13 -2.5t7 -11.5l77 -191q7 -19 16.5 -43t18 -48.5
t15.5 -46t10 -34.5z" />
    <glyph glyph-name="xi" unicode="&#x3be;" horiz-adv-x="445" 
d="M90 608v101h339v-56q0 -14 -2.5 -20.5t-16.5 -15.5q-47 -31 -83.5 -56t-62 -47.5t-39 -43.5t-13.5 -43v-2q0 -8 1 -14t3 -11q2 -6 3.5 -7.5t7.5 -1.5h135v-91h-138q-18 0 -30 -8t-19 -21t-9.5 -29t-2.5 -31q0 -38 21 -57.5t52 -29.5t68 -15.5t68 -15t52 -28t21 -55.5
q0 -36 -12.5 -71t-30.5 -73l-49 -102l-93 35l31 84q12 32 19.5 56t7.5 36q0 14 -21.5 19.5t-53.5 10t-69 11.5t-69 24.5t-53.5 49t-21.5 85.5q0 51 24 100t72 79l-16 18q-27 31 -27 72q0 25 13 48.5t35.5 45t51.5 39.5t62 31h-155z" />
    <glyph glyph-name="xi.salt" horiz-adv-x="440" 
d="M362 411v-91h-133q-35 0 -50.5 -22t-15.5 -67q0 -46 21 -69.5t52 -35.5t68 -17.5t68 -15t52 -28t21 -55.5q0 -36 -12.5 -71t-30.5 -73l-49 -102l-93 35l31 84q12 32 19.5 56t7.5 36q0 15 -21.5 20t-53.5 9t-69 11.5t-69 27t-53.5 55.5t-21.5 97q0 63 28.5 110t65.5 69
l-19 24q-25 32 -36.5 64.5t-11.5 73.5t18 75t48.5 58t71 37t85.5 13q18 0 39.5 -4t44 -11t44.5 -17t40 -22l-30 -77l-47 10q-19 4 -39 6.5t-36 2.5h-3q-49 0 -76 -25t-27 -85v-2q0 -18 2 -37.5t7 -33.5q3 -10 5 -11.5t7 -1.5h151z" />
    <glyph glyph-name="omicron" unicode="&#x3bf;" horiz-adv-x="559" 
d="M529 244q0 -61 -20.5 -108t-54.5 -79t-79 -48.5t-94 -16.5h-3q-49 0 -94 16.5t-79 48.5t-54.5 79t-20.5 108q0 60 20.5 107t54.5 79.5t79 49t94 16.5h3q49 0 94 -16.5t79 -49t54.5 -79.5t20.5 -107zM397 244q0 131 -116 131h-3q-116 0 -116 -131q0 -132 116 -132h3
q116 0 116 132z" />
    <glyph glyph-name="pi" unicode="&#x3c0;" horiz-adv-x="629" 
d="M403 387h-177v-387h-129v387h-79v101h593v-101h-79v-283l76 -17v-68q-18 -9 -44.5 -15t-48.5 -6q-57 0 -84.5 34t-27.5 93v262z" />
    <glyph glyph-name="rho" unicode="&#x3c1;" horiz-adv-x="573" 
d="M187 38v-267h-129v494q0 49 18 91.5t50 73.5t76 48.5t97 17.5h3q45 -1 88.5 -16.5t77 -46.5t54.5 -78t21 -111q0 -57 -16 -103.5t-44 -79.5t-67.5 -51t-85.5 -18q-29 0 -57.5 9t-57.5 23zM187 151q0 -14 10 -19q18 -8 46 -14.5t54 -6.5q56 0 85 28.5t29 104.5
q0 72 -27.5 101.5t-84.5 29.5q-32 0 -53.5 -10t-34.5 -26.5t-18.5 -38t-5.5 -43.5v-106z" />
    <glyph glyph-name="sigma" unicode="&#x3c3;" horiz-adv-x="617" 
d="M405 240q0 65 -31 96t-89 31h-3q-58 0 -89 -31t-31 -96q0 -63 31 -95.5t89 -32.5h3q58 0 89 32.5t31 95.5zM551 387q-15 0 -38 1t-33 4q10 -7 20.5 -21.5t18.5 -34t13 -44t5 -52.5q0 -59 -21 -105.5t-56 -78t-80.5 -48t-94.5 -16.5h-3q-49 0 -94.5 16.5t-80.5 48t-56 78
t-21 105.5q0 64 21 111t56 77.5t80.5 45t94.5 14.5h335v-101h-66z" />
    <glyph glyph-name="sigma1" unicode="&#x3c2;" horiz-adv-x="496" 
d="M293 -201l31 84q12 32 19.5 56t7.5 36q0 15 -24 20t-59.5 10t-77 15t-77 35t-59.5 70t-24 121q0 57 19.5 103t52.5 78.5t76.5 50.5t90.5 18q42 0 75.5 -11t58.5 -30t41 -45t23 -57l-85 -43l-22 22q-30 29 -51.5 39t-45.5 10q-41 0 -71 -33t-30 -100q0 -52 23.5 -79
t58.5 -40.5t76 -19t76 -14.5t58.5 -27.5t23.5 -57.5q0 -36 -12.5 -71t-30.5 -73l-49 -102z" />
    <glyph glyph-name="tau" unicode="&#x3c4;" horiz-adv-x="488" 
d="M161 387h-143v101h452v-101h-180v-224q0 -26 11 -43t41 -17q6 0 16 1t20 2.5t19 2.5t13 2l21 3l28 -73q-23 -18 -61.5 -33.5t-81.5 -15.5q-77 0 -116 45t-39 123v227z" />
    <glyph glyph-name="upsilon" unicode="&#x3c5;" horiz-adv-x="593" 
d="M316 -8q-56 0 -97 17t-67.5 47t-39 71t-12.5 89v172l-82 17v68q18 9 47 16t52 7q26 0 47 -8.5t35 -22.5q30 -32 30 -88v-141q0 -27 3.5 -49.5t13.5 -39t28.5 -25.5t48.5 -9h4q57 0 80.5 34t23.5 106q0 29 -3 61t-8 63.5t-11 60t-12 50.5h129q10 -33 18 -71q7 -32 13 -75
t6 -89q0 -131 -64 -196t-172 -65h-11z" />
    <glyph glyph-name="phi" unicode="&#x3c6;" horiz-adv-x="841" 
d="M356 334q0 8 -1 11.5t-9 7.5q-12 6 -34 14t-51 8q-28 0 -47 -10.5t-30.5 -28.5t-16.5 -41.5t-5 -50.5t5 -51t16.5 -42.5t30.5 -29t47 -10.5q26 0 50.5 8t34.5 13t10 19v183zM356 -229v267l-28 -16q-23 -13 -47 -21.5t-53 -8.5q-47 0 -83.5 18t-62 51t-39 79.5
t-13.5 103.5t14 103.5t40 79.5t63 51t82 18q28 0 51 -8t49 -23l27 -16v260h129v-260l27 16q26 15 49 23t51 8q45 0 82 -18t63 -51t40 -79.5t14 -103.5t-13.5 -103.5t-39 -79.5t-62.5 -51t-83 -18q-29 0 -53 8.5t-47 21.5l-28 16v-267h-129zM485 151q0 -14 10 -19t34.5 -13
t50.5 -8q28 0 47 10.5t30.5 29t16.5 42.5t5 51t-5 50.5t-16.5 41.5t-30.5 28.5t-47 10.5q-29 0 -51 -8t-34 -14q-8 -4 -9 -7.5t-1 -11.5v-183z" />
    <glyph glyph-name="phi1" unicode="&#x3d5;" horiz-adv-x="841" 
d="M356 28l-24 -13q-23 -12 -47 -17.5t-42 -5.5q-44 0 -82.5 16.5t-67.5 49t-46 81.5t-17 114q0 41 7.5 78.5t18.5 69t25 56t28 39.5l127 -28q-35 -42 -54.5 -99.5t-19.5 -115.5q0 -46 8.5 -74t25 -43t39 -20t51.5 -5q16 0 35.5 3.5t24.5 5.5q8 2 9 6t1 13v126q0 49 15 91.5
t43 73.5t69 48.5t94 17.5h3q45 -1 86.5 -16.5t74 -46.5t51.5 -78t19 -111q0 -57 -16.5 -103.5t-43.5 -79.5t-63 -51t-75 -18q-29 0 -56 7.5t-44 15.5l-28 13v-257h-129v257zM485 139q0 -10 1.5 -13.5t8.5 -5.5q23 -6 48 -7.5t37 -1.5q20 0 38 6.5t31.5 22t21.5 41t8 63.5
q0 36 -8 60.5t-22 40.5t-32.5 23t-39.5 7q-24 0 -41.5 -10t-29 -26.5t-16.5 -38t-5 -43.5v-118z" />
    <glyph glyph-name="chi" unicode="&#x3c7;" horiz-adv-x="594" 
d="M297 51h-1l-92 -270q-3 -7 -8 -8.5t-13 -1.5h-131l156 367l-103 250l-87 17v68q18 9 42 16t47 7q27 0 47.5 -4.5t37.5 -17t31 -35t28 -58.5l52 -160l87 256q3 8 8 9.5t13 1.5h125l-145 -353l117 -271l77 -11v-69q-18 -9 -45 -15t-47 -6q-32 0 -53.5 7t-36 20t-24.5 32
t-19 43z" />
    <glyph glyph-name="psi" unicode="&#x3c8;" horiz-adv-x="792" 
d="M18 405v68q18 9 47.5 16t52.5 7q25 0 46 -8.5t35 -22.5q13 -13 21.5 -34.5t8.5 -53.5v-97q0 -49 5.5 -80.5t20.5 -50t40.5 -25.5t65.5 -7v592h129v-592q41 0 68 8.5t43 25.5t22.5 44t6.5 63q0 28 -3 59.5t-8 62t-11 58.5t-12 50h129q10 -33 18 -70q7 -32 13 -72.5
t6 -83.5q0 -137 -69 -201.5t-203 -64.5v-225h-129v225q-71 2 -121 18t-81 50t-45 86t-14 126v112z" />
    <glyph glyph-name="omega" unicode="&#x3c9;" horiz-adv-x="837" 
d="M807 256q0 -59 -15 -107.5t-43 -83t-67.5 -54t-88.5 -19.5q-37 0 -68 10.5t-63 28.5l-44 25l-43 -25q-32 -19 -63.5 -29t-67.5 -10q-49 0 -88.5 19t-67.5 54t-43 83.5t-15 107.5q0 26 3 56t8 60.5t11.5 60.5t14.5 55h129q-6 -22 -12 -50.5t-11 -60t-8 -63.5t-3 -60
q0 -31 4.5 -57t15 -44.5t29 -29t45.5 -10.5h3q10 0 22.5 1.5t24.5 3.5t22 4.5t16 4.5q10 4 10 19v228h129v-228q0 -15 10 -19q6 -2 16 -4.5t22 -4.5t24.5 -3.5t22.5 -1.5h3q27 0 45.5 10.5t29 29t15 44.5t4.5 57q0 28 -3 60t-8 63.5t-11 60t-12 50.5h129q8 -25 14.5 -55
t11.5 -60.5t8 -60.5t3 -56z" />
    </font>
</defs>
</svg>
