<?xml version="1.0" standalone="no"?>
<!DOCTYPE svg PUBLIC "-//W3C//DTD SVG 1.1//EN" "http://www.w3.org/Graphics/SVG/1.1/DTD/svg11.dtd" >
<svg xmlns="http://www.w3.org/2000/svg" xmlns:xlink="http://www.w3.org/1999/xlink" version="1.1">
<metadata>
Created by FontForge 20161116 at Thu Jun 23 04:29:23 2016
 By Jimmy Wärting
Copyright c 2016 NAVER Corporation. All rights reserved. Font designed by Sandoll Communications Inc.
</metadata>
<defs>
<font id="NanumSquareR" horiz-adv-x="910" >
  <font-face 
    font-family="NanumSquare"
    font-weight="400"
    font-stretch="normal"
    units-per-em="1000"
    panose-1="2 11 6 0 0 1 1 1 1 1"
    ascent="800"
    descent="-200"
    x-height="513"
    cap-height="695"
    bbox="-70 -249 1161 832"
    underline-thickness="50"
    underline-position="-100"
    unicode-range="U+0020-FFE6"
  />
<missing-glyph horiz-adv-x="1000" 
d="M392 258v220h220v-220h-220z" />
    <glyph glyph-name=".notdef" horiz-adv-x="1000" 
d="M392 258v220h220v-220h-220z" />
    <glyph glyph-name="space" unicode=" " horiz-adv-x="250" 
 />
    <glyph glyph-name="exclam" unicode="!" horiz-adv-x="280" 
d="M92 44h96v-98h-96v98zM111 148l-12 566h82l-12 -566h-58z" />
    <glyph glyph-name="quotedbl" unicode="&#x22;" horiz-adv-x="373" 
d="M86 488l-10 242h78l-10 -242h-58zM229 488l-10 242h78l-10 -242h-58z" />
    <glyph glyph-name="numbersign" unicode="#" horiz-adv-x="585" 
d="M521 255v-61h-118l-31 -220h-57l31 220h-142l-30 -220h-58l31 220h-109v61h117l23 164h-109v61h118l30 215h57l-30 -215h141l30 215h58l-31 -215h110v-61h-118l-23 -164h110zM377 419h-142l-23 -164h142z" />
    <glyph glyph-name="dollar" unicode="$" horiz-adv-x="604" 
d="M277 -18q-65 3 -121.5 24t-100.5 55l36 55q48 -35 94.5 -52.5t91.5 -20.5v270q-58 13 -98 30.5t-64.5 39.5t-35.5 49t-11 59v22q0 77 57 122.5t152 51.5v64h55v-64q60 -4 106.5 -21t80.5 -40l-34 -50q-29 20 -67.5 32.5t-85.5 16.5v-256q61 -15 102 -33t66.5 -40.5
t36.5 -50t11 -62.5v-22q0 -36 -14.5 -67t-42.5 -54.5t-68 -38t-91 -18.5v-76h-55v75zM479 181q0 20 -6.5 37t-23 32t-45 27.5t-72.5 23.5v-257q70 8 108.5 40t38.5 77v20zM137 494q0 -20 7 -36t23 -29.5t43 -25t67 -21.5v243q-61 -5 -100.5 -34.5t-39.5 -79.5v-17z" />
    <glyph glyph-name="percent" unicode="%" horiz-adv-x="869" 
d="M187 -25l431 720h63l-430 -720h-64zM644 343q73 0 114 -43.5t41 -122.5v-45q0 -79 -41 -122.5t-114 -43.5t-114 43.5t-41 122.5v45q0 79 41 122.5t114 43.5zM644 17q44 0 70.5 27t26.5 90v41q0 63 -26.5 90t-70.5 27t-70.5 -27t-26.5 -90v-41q0 -63 26.5 -90t70.5 -27z
M225 703q73 0 114 -43.5t41 -122.5v-45q0 -79 -41 -122.5t-114 -43.5t-114 43.5t-41 122.5v45q0 79 41 122.5t114 43.5zM225 377q44 0 70.5 27t26.5 90v41q0 63 -26.5 90t-70.5 27t-70.5 -27t-26.5 -90v-41q0 -63 26.5 -90t70.5 -27z" />
    <glyph glyph-name="ampersand" unicode="&#x26;" horiz-adv-x="664" 
d="M607 347q0 -74 -18 -135.5t-52 -110.5l108 -127h-80l-68 80q-45 -48 -104.5 -69.5t-119.5 -21.5h-6q-45 0 -87 12t-74 34.5t-51 55.5t-19 75v24q0 34 10 62t32 52.5t57.5 48.5t87.5 50l-19 23q-12 15 -26 31.5t-26 35.5t-19.5 40t-7.5 44v18q0 24 11 48.5t33 44t54.5 32
t74.5 12.5q40 0 72 -12.5t54.5 -32t34.5 -44t12 -48.5v-19q0 -24 -7.5 -47t-25.5 -46.5t-47.5 -47.5t-73.5 -49l178 -210q23 38 35 88t12 109h65zM271 23q57 0 104.5 20t82.5 58l-195 229q-41 -22 -71 -41t-50 -38.5t-29.5 -41t-9.5 -49.5v-17q0 -24 12.5 -46t35 -38.5
t53.5 -26t67 -9.5zM190 554q0 -18 8.5 -37t21.5 -38t28.5 -38t29.5 -36q41 22 66.5 42t39 38.5t18 35.5t4.5 33v11q0 18 -8.5 33t-23.5 26t-34.5 17.5t-41.5 6.5t-41.5 -6.5t-34.5 -17.5t-23.5 -26t-8.5 -33v-11z" />
    <glyph glyph-name="quotesingle" unicode="'" horiz-adv-x="230" 
d="M86 488l-10 242h78l-10 -242h-58z" />
    <glyph glyph-name="parenleft" unicode="(" horiz-adv-x="313" 
d="M151 274q0 -114 30 -226t107 -218h-64q-75 89 -111 202t-36 247v40q0 134 36 246t111 201h64q-74 -100 -105.5 -210.5t-31.5 -231.5v-50z" />
    <glyph glyph-name="parenright" unicode=")" horiz-adv-x="313" 
d="M162 324q0 121 -31.5 231.5t-105.5 210.5h64q75 -89 111 -201t36 -246v-40q0 -134 -36 -247t-111 -202h-64q77 106 107 218t30 226v50z" />
    <glyph glyph-name="asterisk" unicode="*" horiz-adv-x="459" 
d="M76 408l-31 57l142 69l-142 68l31 57l127 -83l-6 153h66l-7 -153l128 83l30 -57l-142 -68l142 -69l-30 -57l-128 83l7 -152h-66l7 152z" />
    <glyph glyph-name="plus" unicode="+" horiz-adv-x="600" 
d="M333 568v-217h213v-64h-213v-231h-66v231h-213v64h213v217h66z" />
    <glyph glyph-name="comma" unicode="," horiz-adv-x="245" 
d="M89 50h88l-72 -225h-58z" />
    <glyph glyph-name="hyphen" unicode="-" horiz-adv-x="412" 
d="M50 366h312v-64h-312v64z" />
    <glyph glyph-name="period" unicode="." horiz-adv-x="245" 
d="M72 45h101v-100h-101v100z" />
    <glyph glyph-name="slash" unicode="/" horiz-adv-x="389" 
d="M379 759l-302 -884h-67l301 884h68z" />
    <glyph glyph-name="zero" unicode="0" horiz-adv-x="600" 
d="M545 279q0 -153 -58 -234.5t-188 -81.5q-128 0 -186 82t-58 234v112q0 151 59 233t185 82q128 0 187 -81.5t59 -233.5v-112zM473 392q0 134 -43.5 192.5t-130.5 58.5q-83 0 -127.5 -59t-44.5 -192v-114q0 -134 44.5 -193t127.5 -59q86 0 130 58.5t44 193.5v114z" />
    <glyph glyph-name="one" unicode="1" horiz-adv-x="600" 
d="M311 -26v633l-174 -106l-32 56l223 138h53v-721h-70z" />
    <glyph glyph-name="two" unicode="2" horiz-adv-x="600" 
d="M346 349q30 35 48 60t27.5 44.5t13 34.5t3.5 29v8q0 54 -35.5 85.5t-101.5 31.5q-48 0 -90 -23t-77 -86l-56 35q13 23 32 47.5t46 44.5t62.5 33t80.5 13q48 0 87 -13t66 -36.5t42 -57t15 -73.5v-10q0 -29 -10 -56.5t-26.5 -53.5t-38.5 -52t-45 -53l-224 -263h370v-64
h-458v60z" />
    <glyph glyph-name="three" unicode="3" horiz-adv-x="600" 
d="M84 594q13 22 32 42t44.5 35.5t58 25t73.5 9.5q49 0 88.5 -13t67 -36.5t42.5 -57t15 -73.5v-10q0 -21 -6 -44.5t-20 -45.5t-38 -41t-60 -31q75 -13 113.5 -59t38.5 -109v-15q0 -39 -13 -76t-41.5 -66.5t-75 -47.5t-112.5 -18q-63 0 -121.5 19.5t-109.5 60.5l35 56
q53 -38 99.5 -55t96.5 -17q47 0 80 13t53.5 33.5t30 46t9.5 50.5v13q0 41 -16.5 67.5t-41 42t-54 21.5t-55.5 6h-81v60h84q34 0 59 12.5t41.5 32.5t25 44.5t8.5 47.5v8q0 54 -37.5 85.5t-103.5 31.5q-43 0 -83 -17.5t-71 -66.5z" />
    <glyph glyph-name="four" unicode="4" horiz-adv-x="600" 
d="M470 425v-227h106v-64h-106v-160h-70v160h-361v64l350 497h80l-349 -497h280v227h70z" />
    <glyph glyph-name="five" unicode="5" horiz-adv-x="600" 
d="M475 191q0 87 -42.5 126.5t-120.5 39.5q-46 0 -82 -17t-60 -40h-66l23 395h371v-64h-309l-11 -262q24 23 65 37t86 14q53 0 93.5 -17.5t67.5 -47.5t40.5 -71.5t13.5 -89.5v-15q0 -39 -13 -77.5t-41.5 -69t-75.5 -50t-114 -19.5q-74 0 -130 21.5t-104 58.5l36 57
q52 -40 99.5 -56.5t98.5 -16.5q48 0 81.5 14.5t54.5 36.5t30 48.5t9 51.5v13z" />
    <glyph glyph-name="six" unicode="6" horiz-adv-x="600" 
d="M483 600q-34 20 -72.5 31.5t-80.5 11.5q-51 0 -86 -20.5t-58 -59.5t-35 -95.5t-16 -128.5q8 16 23.5 34t38 33t52.5 24.5t68 9.5q46 0 87.5 -15t73 -43.5t50 -70t18.5 -94.5v-24q0 -53 -18 -95.5t-49.5 -72.5t-75 -46t-93.5 -16q-51 0 -95.5 17.5t-77.5 53.5t-52 91.5
t-19 130.5v24q0 116 18.5 197t52.5 132t83 74t111 23q49 0 96.5 -13t88.5 -36zM142 207q0 -41 12 -74t34 -57t52.5 -37t67.5 -13t68 11.5t53.5 33t35 53t12.5 72.5v15q0 40 -14 71.5t-37 53t-53.5 32.5t-63.5 11q-32 0 -62 -12t-53 -33t-37.5 -50.5t-14.5 -63.5v-13z" />
    <glyph glyph-name="seven" unicode="7" horiz-adv-x="600" 
d="M253 -26h-79l293 657h-405v64h483v-54z" />
    <glyph glyph-name="eight" unicode="8" horiz-adv-x="600" 
d="M159 511q0 -29 10 -55t28.5 -45t44.5 -30t58 -11t58 11t44.5 30t28.5 45t10 55v12q0 56 -38.5 88.5t-102.5 32.5q-65 0 -103 -32.5t-38 -88.5v-12zM139 159q0 -28 11 -52t32 -42t50.5 -28.5t67.5 -10.5t68 10.5t50.5 28.5t31.5 42t11 52v12q0 32 -12 58t-33 45t-50.5 29
t-65.5 10q-35 0 -64.5 -10t-51 -28.5t-33.5 -44.5t-12 -59v-12zM68 174q0 60 36.5 105.5t95.5 63.5q-52 24 -80.5 67t-28.5 100v16q0 39 15.5 72t43.5 57t66.5 37.5t83.5 13.5t83.5 -13.5t66.5 -37.5t43.5 -57t15.5 -72v-16q0 -57 -28.5 -100t-81.5 -67q29 -9 53.5 -25
t42 -38.5t27.5 -49t10 -56.5v-17q0 -43 -16.5 -79t-47 -61.5t-73.5 -39.5t-95 -14t-95 14t-73.5 39.5t-47 61.5t-16.5 79v17z" />
    <glyph glyph-name="nine" unicode="9" horiz-adv-x="600" 
d="M115 71q34 -20 73 -32t82 -12q55 0 92 20.5t59 59.5t32 95t12 126q-8 -16 -23 -34t-37.5 -33.5t-53 -26t-68.5 -10.5q-46 0 -87.5 15.5t-73 44.5t-50 70.5t-18.5 94.5v24q0 53 18 96t49.5 73.5t75 47t93.5 16.5t94.5 -17.5t77.5 -54t52.5 -92t19.5 -130.5v-30
q0 -119 -16.5 -199.5t-49.5 -129.5t-83 -69.5t-117 -20.5q-49 0 -95 13t-87 36zM458 459q0 40 -12 74t-34 58.5t-52.5 38t-67.5 13.5t-68 -12t-53.5 -34t-35 -54.5t-12.5 -72.5v-15q0 -41 14 -72.5t37 -53t53.5 -33t63.5 -11.5q31 0 61.5 12t53.5 34t37.5 51t14.5 64v13z
" />
    <glyph glyph-name="colon" unicode=":" horiz-adv-x="305" 
d="M102 125h101v-100h-101v100zM102 567h101v-100h-101v100z" />
    <glyph glyph-name="semicolon" unicode=";" horiz-adv-x="305" 
d="M102 567h101v-100h-101v100zM119 130h88l-72 -225h-58z" />
    <glyph glyph-name="less" unicode="&#x3c;" horiz-adv-x="600" 
d="M145 317l390 -203v-73l-470 250v59l470 250v-72l-390 -205v-6z" />
    <glyph glyph-name="equal" unicode="=" horiz-adv-x="600" 
d="M74 458h452v-65h-452v65zM74 247h452v-65h-452v65z" />
    <glyph glyph-name="greater" unicode="&#x3e;" horiz-adv-x="600" 
d="M455 323l-390 205v72l470 -250v-59l-470 -250v73l390 203v6z" />
    <glyph glyph-name="question" unicode="?" horiz-adv-x="520" 
d="M188 44h96v-98h-96v98zM202 141v47q0 25 4.5 44.5t16 38.5t30 39.5t46.5 47.5q18 17 34.5 33t30 33.5t21.5 38t8 46.5v16q0 54 -36.5 85.5t-99.5 31.5q-51 0 -93 -20.5t-73 -55.5l-45 46q13 16 33 33t46.5 30.5t59 22t70.5 8.5q100 0 155 -49t55 -131v-17
q0 -37 -11.5 -65t-30 -51.5t-41.5 -44.5t-46 -43q-17 -16 -29 -29.5t-20.5 -27t-12.5 -29t-4 -34.5v-44h-68z" />
    <glyph glyph-name="at" unicode="@" horiz-adv-x="983" 
d="M753 45q-20 0 -40 5t-38 15.5t-32 26.5t-21 39h-1q-9 -24 -27 -40t-39 -26t-42.5 -14t-39.5 -4q-93 0 -138.5 52t-45.5 143v76q0 92 47.5 143.5t135.5 51.5q51 0 83.5 -18.5t49.5 -45.5v58h71v-321q0 -42 23 -60.5t55 -18.5q25 0 45.5 10.5t35.5 33t23.5 59t8.5 87.5v11
q0 85 -24.5 153t-72.5 115.5t-120.5 73t-168.5 25.5q-82 0 -149.5 -26t-115.5 -74.5t-74 -119t-26 -159.5v-17q0 -93 25.5 -166t74.5 -123.5t121 -77t164 -26.5q77 0 149.5 16t135.5 49l28 -57q-63 -34 -141.5 -52.5t-168.5 -18.5q-105 0 -189 31.5t-143 90.5t-90.5 143.5
t-31.5 189.5v19q0 95 30 176t85.5 139.5t135.5 91.5t180 33q110 0 194.5 -31.5t141.5 -87.5t86.5 -134.5t29.5 -172.5v-13q0 -42 -8 -87t-28.5 -81.5t-55.5 -60.5t-88 -24zM362 254q0 -73 30 -106t88 -33q55 0 89 30.5t34 91.5v100q0 20 -8.5 39.5t-24 35t-38.5 25t-52 9.5
q-58 0 -88 -34t-30 -106v-52z" />
    <glyph glyph-name="A" unicode="A" horiz-adv-x="658" 
d="M636 -26h-75l-80 224h-305l-82 -224h-72l268 721h79zM198 259h261l-70 195q-7 18 -13 35t-13 37.5t-15 46t-19 60.5q-10 -35 -18 -60.5t-15 -46t-13 -37.5t-13 -35z" />
    <glyph glyph-name="B" unicode="B" horiz-adv-x="615" 
d="M83 695h230q229 0 229 -176v-21q0 -24 -6 -46.5t-19.5 -41.5t-36 -33.5t-54.5 -22.5q66 -10 107.5 -50t41.5 -115v-25q0 -89 -56.5 -139.5t-174.5 -50.5h-261v721zM152 36h186q85 0 125.5 32.5t40.5 96.5v22q0 33 -9 58t-31 42t-58 25.5t-90 8.5h-164v-285zM152 634v-254
h163q75 0 116 26t41 94v18q0 64 -39.5 90t-124.5 26h-156z" />
    <glyph glyph-name="C" unicode="C" horiz-adv-x="630" 
d="M342 706q72 0 127.5 -18.5t100.5 -53.5l-36 -55q-49 35 -93 48t-99 13q-50 0 -88.5 -18.5t-64.5 -52t-39.5 -80t-13.5 -103.5v-92q0 -134 56.5 -199t156.5 -65q68 0 115.5 21.5t82.5 52.5l41 -55q-40 -36 -97 -61t-143 -25q-140 0 -211.5 87t-71.5 244v89
q0 154 72.5 238.5t204.5 84.5z" />
    <glyph glyph-name="D" unicode="D" horiz-adv-x="668" 
d="M308 695q137 0 214.5 -79.5t77.5 -229.5v-103q0 -150 -77.5 -229.5t-214.5 -79.5h-225v721h225zM153 36h156q48 0 89 15t70 46.5t45.5 78.5t16.5 112v93q0 64 -16.5 111.5t-45.5 79t-70 46.5t-89 15h-156v-597z" />
    <glyph glyph-name="E" unicode="E" horiz-adv-x="588" 
d="M517 695v-62h-364v-258h343v-62h-343v-277h371v-62h-441v721h434z" />
    <glyph glyph-name="F" unicode="F" horiz-adv-x="561" 
d="M83 -26v721h428v-62h-358v-276h337v-62h-337v-321h-70z" />
    <glyph glyph-name="G" unicode="G" horiz-adv-x="656" 
d="M345 706q76 0 132 -18.5t101 -53.5l-36 -55q-49 35 -94.5 48t-102.5 13q-52 0 -91 -18.5t-65.5 -52t-39.5 -80t-13 -103.5v-92q0 -264 223 -264q22 0 45.5 2t46 6.5t42.5 11.5t35 16v228h-170v62h238v-329q-47 -34 -107.5 -49t-132.5 -15q-149 0 -220 87t-71 244v89
q0 154 71.5 238.5t208.5 84.5z" />
    <glyph glyph-name="H" unicode="H" horiz-adv-x="677" 
d="M524 315h-371v-341h-70v721h70v-310h371v310h70v-721h-70v341z" />
    <glyph glyph-name="I" unicode="I" horiz-adv-x="236" 
d="M83 695h70v-721h-70v721z" />
    <glyph glyph-name="J" unicode="J" horiz-adv-x="453" 
d="M303 695h70v-530q0 -60 -15 -99t-40.5 -62t-58.5 -32t-70 -9q-45 0 -89.5 12t-79.5 43l34 57q32 -26 64 -36t67 -10q64 0 91 34t27 109v523z" />
    <glyph glyph-name="K" unicode="K" horiz-adv-x="644" 
d="M295 387l319 -413h-90l-279 362l-92 -95v-267h-70v721h70v-364l348 364h94z" />
    <glyph glyph-name="L" unicode="L" horiz-adv-x="534" 
d="M153 695v-659h361v-62h-431v721h70z" />
    <glyph glyph-name="M" unicode="M" horiz-adv-x="824" 
d="M188 502q-6 13 -11 22.5t-9 19.5t-8 21.5t-8 27.5v-619h-69v721h86l244 -528l245 528h83v-721h-69v619q-3 -16 -6.5 -27.5t-7.5 -21.5t-9 -19.5t-11 -22.5l-193 -408h-66z" />
    <glyph glyph-name="N" unicode="N" horiz-adv-x="681" 
d="M83 695h83l331 -564q9 -15 16 -29.5t18 -37.5v631h67v-721h-83l-332 566q-9 16 -16 29t-17 36v-631h-67v721z" />
    <glyph glyph-name="O" unicode="O" horiz-adv-x="692" 
d="M346 706q67 0 119 -22.5t88 -64.5t55 -101.5t19 -133.5v-99q0 -74 -19 -133.5t-55 -101.5t-88 -64.5t-119 -22.5t-119 22.5t-88 64.5t-55 101.5t-19 133.5v99q0 74 18.5 133.5t54.5 101.5t88.5 64.5t119.5 22.5zM346 26q97 0 153.5 67.5t56.5 197.5v87q0 130 -56.5 197.5
t-153.5 67.5t-153.5 -67.5t-56.5 -197.5v-87q0 -130 56.5 -197.5t153.5 -67.5z" />
    <glyph glyph-name="P" unicode="P" horiz-adv-x="598" 
d="M83 695h244q57 0 100.5 -15.5t72.5 -43t43.5 -65.5t14.5 -82v-21q0 -44 -15.5 -82t-45 -66.5t-72.5 -44.5t-98 -16h-174v-285h-70v721zM153 632v-310h157q93 0 135 40t42 108v18q0 64 -40.5 104t-125.5 40h-168z" />
    <glyph glyph-name="Q" unicode="Q" horiz-adv-x="692" 
d="M346 706q67 0 119 -22.5t88 -64.5t55 -101.5t19 -133.5v-99q0 -146 -69 -230l84 -84l-45 -47l-87 87q-68 -48 -164 -48q-67 0 -119 22.5t-88 64.5t-55 101.5t-19 133.5v99q0 74 18.5 133.5t54.5 101.5t88.5 64.5t119.5 22.5zM346 26q67 0 115 33l-93 94l45 47l95 -95
q23 33 36 79.5t13 106.5v87q0 129 -57.5 197t-153.5 68t-153.5 -68t-57.5 -197v-87q0 -129 57.5 -197t153.5 -68z" />
    <glyph glyph-name="R" unicode="R" horiz-adv-x="630" 
d="M360 286q-7 -1 -13.5 -1h-13.5h-180v-311h-70v721h249q54 0 96 -14.5t71.5 -41t44.5 -62.5t15 -78v-15q0 -66 -35 -113.5t-95 -69.5l145 -327h-75zM153 632v-284h158q94 0 135.5 36.5t41.5 102.5v10q0 63 -40.5 99t-125.5 36h-169z" />
    <glyph glyph-name="S" unicode="S" horiz-adv-x="606" 
d="M302 28q42 0 75.5 10t57 27.5t35.5 40t12 46.5v21q0 25 -8 45t-29 36.5t-57.5 30t-94.5 26.5q-63 14 -105.5 32.5t-68 42t-36 52t-10.5 62.5v23q0 41 17.5 74.5t49 57.5t75 37.5t94.5 13.5q73 0 125 -17.5t89 -43.5l-33 -57q-35 25 -80 39.5t-101 14.5q-33 0 -63 -8
t-52.5 -23.5t-36 -37.5t-13.5 -50v-20q0 -23 8.5 -42t28 -34t52.5 -28t82 -24q70 -16 116 -34.5t73 -42.5t38 -54t11 -69v-23q0 -39 -17 -73t-48.5 -60t-78 -41t-104.5 -15q-72 0 -134.5 21.5t-110.5 58.5l36 59q54 -39 105.5 -56.5t100.5 -17.5z" />
    <glyph glyph-name="T" unicode="T" horiz-adv-x="571" 
d="M551 695v-62h-231v-659h-70v659h-230v62h531z" />
    <glyph glyph-name="U" unicode="U" horiz-adv-x="672" 
d="M336 26q94 0 140.5 60t46.5 195v414h69v-440q0 -150 -67.5 -221t-188.5 -71q-122 0 -189 71t-67 221v440h69v-414q0 -135 46.5 -195t140.5 -60z" />
    <glyph glyph-name="V" unicode="V" horiz-adv-x="639" 
d="M22 695h77l222 -649h1l222 649h73l-258 -721h-80z" />
    <glyph glyph-name="W" unicode="W" horiz-adv-x="958" 
d="M30 695h75l162 -646h1l172 646h79l172 -646h1l163 646h73l-199 -721h-80l-171 640l-171 -640h-80z" />
    <glyph glyph-name="X" unicode="X" horiz-adv-x="641" 
d="M365 348l242 -374h-86l-201 327l-206 -327h-80l243 375l-231 346h82l196 -302l189 302h79z" />
    <glyph glyph-name="Y" unicode="Y" horiz-adv-x="602" 
d="M338 269v-295h-70v295l-248 426h79l205 -362l200 362h78z" />
    <glyph glyph-name="Z" unicode="Z" horiz-adv-x="597" 
d="M542 648l-430 -614h449v-60h-533v55l425 606h-401v60h490v-47z" />
    <glyph glyph-name="bracketleft" unicode="[" horiz-adv-x="356" 
d="M318 -170h-235v936h235v-62h-168v-812h168v-62z" />
    <glyph glyph-name="backslash" unicode="\" horiz-adv-x="947" 
d="M40 404h98l-70 291h67l64 -291h169l70 291h72l70 -291h170l66 291h64l-71 -291h98v-51h-111l-92 -379h-76l-91 379h-128l-91 -379h-76l-92 379h-110v51zM667 49h3l68 304h-145zM279 49h3l73 304h-144zM421 404h104l-52 216z" />
    <glyph glyph-name="bracketright" unicode="]" horiz-adv-x="356" 
d="M38 -108h168v812h-168v62h235v-936h-235v62z" />
    <glyph glyph-name="asciicircum" unicode="^" horiz-adv-x="524" 
d="M404 401l-142 262l-142 -262h-70l180 323h65l179 -323h-70z" />
    <glyph glyph-name="underscore" unicode="_" horiz-adv-x="480" 
d="M480 -130h-480v55h480v-55z" />
    <glyph glyph-name="grave" unicode="`" horiz-adv-x="600" 
d="M330 568l-124 141h83l105 -141h-64z" />
    <glyph glyph-name="a" unicode="a" horiz-adv-x="533" 
d="M226 -34q-77 0 -125 41t-48 113v22q0 66 48 107t142 41h152v50q0 59 -32.5 90.5t-95.5 31.5q-44 0 -84 -15.5t-75 -39.5l-33 52q38 26 84.5 45t108.5 19q91 0 142.5 -45t51.5 -127v-377h-66v66h-1q-8 -13 -23.5 -26.5t-36.5 -24.5q-46 -23 -109 -23zM395 233h-151
q-65 0 -94 -26t-29 -68v-16q0 -26 10 -44.5t26.5 -30.5t37 -17.5t41.5 -5.5q32 0 58 8t50 23q22 14 36.5 34.5t14.5 51.5v91z" />
    <glyph glyph-name="b" unicode="b" horiz-adv-x="579" 
d="M147 38v-64h-67v756h68v-293q24 41 67 63.5t94 22.5q48 0 87.5 -15.5t67.5 -45t43.5 -72.5t15.5 -98v-95q0 -55 -16 -98t-44.5 -72.5t-68 -45t-85.5 -15.5q-57 0 -98 21.5t-63 50.5h-1zM455 282q0 87 -40.5 133t-109.5 46q-28 0 -56 -10t-50.5 -29.5t-36.5 -47t-14 -63.5
v-158q0 -24 11.5 -46.5t32.5 -40.5t49.5 -29t63.5 -11q69 0 109.5 47.5t40.5 133.5v75z" />
    <glyph glyph-name="c" unicode="c" horiz-adv-x="494" 
d="M278 523q57 0 100 -13.5t77 -39.5l-31 -53q-38 26 -73 35.5t-73 9.5q-72 0 -113 -47.5t-41 -132.5v-69q0 -89 42 -137t114 -48q56 0 92.5 15.5t65.5 37.5l32 -54q-15 -11 -33 -22t-41 -19.5t-52 -14t-65 -5.5q-106 0 -165 64.5t-59 182.5v67q0 59 16.5 104.5t45.5 76
t70 46.5t91 16z" />
    <glyph glyph-name="d" unicode="d" horiz-adv-x="579" 
d="M432 45h-1q-23 -41 -68 -60t-92 -19t-86 15.5t-68 45t-45 72.5t-16 98v95q0 55 16 98t44.5 72.5t68 45t85.5 15.5q60 0 100 -23t61 -53v283h68v-756h-67v71zM124 207q0 -87 41 -134t109 -47q33 0 61.5 8.5t49.5 26t33.5 44t12.5 62.5v162q0 24 -11.5 47.5t-32.5 43
t-50 31.5t-63 12q-69 0 -109.5 -47.5t-40.5 -133.5v-75z" />
    <glyph glyph-name="e" unicode="e" horiz-adv-x="545" 
d="M423 279v9q0 85 -39 130t-110 45q-72 0 -111.5 -47.5t-39.5 -127.5v-9h300zM479 27q-32 -23 -80 -42t-116 -19q-108 0 -168 64.5t-60 182.5v67q0 115 58.5 179t160.5 64q106 0 161.5 -65.5t55.5 -179.5v-56h-368v-9q0 -90 43 -138.5t118 -48.5q54 0 95 16t70 37z" />
    <glyph glyph-name="f" unicode="f" horiz-adv-x="374" 
d="M124 455h-92v58h92v68q0 44 9 73.5t26.5 47.5t43.5 26t60 8q22 0 48.5 -3.5t42.5 -9.5l-10 -56q-36 10 -76 10q-41 0 -58.5 -22t-17.5 -77v-65h149v-58h-149v-481h-68v481z" />
    <glyph glyph-name="g" unicode="g" horiz-adv-x="579" 
d="M430 55h-1q-23 -41 -67.5 -60t-91.5 -19t-86 15.5t-68 45t-45 72.5t-16 98v85q0 55 16 98t44.5 72.5t68 45t85.5 15.5q60 0 100.5 -23t61.5 -53v66h67v-530q0 -115 -59.5 -173.5t-160.5 -58.5q-57 0 -101.5 15t-78.5 41l31 53q19 -13 36 -21.5t34.5 -14t36.5 -7.5t42 -2
q75 0 113.5 40.5t38.5 125.5v74zM123 217q0 -87 41 -134t109 -47q33 0 61.5 8.5t49.5 26t33.5 44t12.5 62.5v152q0 24 -11.5 47.5t-32.5 43t-50 31.5t-63 12q-69 0 -109.5 -47.5t-40.5 -133.5v-65z" />
    <glyph glyph-name="h" unicode="h" horiz-adv-x="582" 
d="M312 523q93 0 143.5 -50.5t50.5 -135.5v-363h-68v346q0 29 -6 54.5t-21.5 45t-42 30.5t-66.5 11q-34 0 -62.5 -12.5t-48.5 -32.5t-31.5 -44t-11.5 -48v-350h-68v756h68v-292q9 15 24 30.5t35.5 27.5t46.5 19.5t58 7.5z" />
    <glyph glyph-name="i" unicode="i" horiz-adv-x="234" 
d="M83 513h68v-539h-68v539zM80 692h74v-76h-74v76z" />
    <glyph glyph-name="j" unicode="j" horiz-adv-x="243" 
d="M89 692h74v-76h-74v76zM160 -92q0 -88 -35.5 -122.5t-103.5 -34.5q-22 0 -48.5 3.5t-42.5 9.5l10 56q36 -10 76 -10q41 0 58.5 23t17.5 78v602h68v-605z" />
    <glyph glyph-name="k" unicode="k" horiz-adv-x="540" 
d="M283 306l235 -332h-83l-200 287l-87 -84v-203h-68v756h68v-472l260 255h91z" />
    <glyph glyph-name="l" unicode="l" horiz-adv-x="228" 
d="M80 730h68v-756h-68v756z" />
    <glyph glyph-name="m" unicode="m" horiz-adv-x="878" 
d="M625 523q92 0 134.5 -50t42.5 -136v-363h-68v345q0 33 -5.5 59t-19 44.5t-37 28.5t-59.5 10q-33 0 -58 -12t-42.5 -31t-27 -43t-10.5 -47v-354h-68v345q0 33 -5.5 59t-19 44.5t-37 28.5t-59.5 10q-33 0 -59 -12.5t-43.5 -32.5t-26.5 -44t-9 -48v-350h-68v539h67v-75
q9 16 22.5 31.5t32.5 27.5t42.5 19t53.5 7q65 0 105 -25.5t58 -72.5q9 17 23.5 34.5t35 31.5t47 23t58.5 9z" />
    <glyph glyph-name="n" unicode="n" horiz-adv-x="582" 
d="M312 523q93 0 143.5 -50.5t50.5 -135.5v-363h-68v346q0 29 -6 54.5t-21.5 45t-42 30.5t-66.5 11q-34 0 -62.5 -12.5t-48.5 -32.5t-31.5 -44t-11.5 -48v-350h-68v539h67v-75q9 15 24 30.5t36 27.5t47 19.5t58 7.5z" />
    <glyph glyph-name="o" unicode="o" horiz-adv-x="568" 
d="M284 523q109 0 169 -64t60 -181v-67q0 -117 -60 -181t-169 -64t-169 64t-60 181v67q0 118 60 181.5t169 63.5zM284 26q75 0 117.5 46.5t42.5 142.5v59q0 96 -42.5 142.5t-117.5 46.5t-117.5 -46.5t-42.5 -142.5v-59q0 -96 42.5 -142.5t117.5 -46.5z" />
    <glyph glyph-name="p" unicode="p" horiz-adv-x="579" 
d="M148 38v-278h-68v753h67v-76q24 41 67.5 63.5t94.5 22.5q48 0 87.5 -15.5t67.5 -45t43.5 -72.5t15.5 -98v-95q0 -55 -16 -98t-44.5 -72.5t-68 -45t-85.5 -15.5q-57 0 -97.5 21.5t-62.5 50.5h-1zM455 282q0 87 -40.5 133t-109.5 46q-28 0 -56 -10t-50.5 -29.5t-36.5 -47
t-14 -63.5v-158q0 -24 11.5 -46.5t32.5 -40.5t49.5 -29t63.5 -11q69 0 109.5 47.5t40.5 133.5v75z" />
    <glyph glyph-name="q" unicode="q" horiz-adv-x="579" 
d="M431 45h-1q-23 -41 -67.5 -60t-91.5 -19t-86 15.5t-68 45t-45 72.5t-16 98v95q0 55 16 98t44.5 72.5t68 45t85.5 15.5q60 0 100.5 -23t61.5 -53v66h67v-753h-68v285zM124 207q0 -87 41 -134t109 -47q33 0 61.5 8.5t49.5 26t33.5 44t12.5 62.5v162q0 24 -11.5 47.5
t-32.5 43t-50 31.5t-63 12q-69 0 -109.5 -47.5t-40.5 -133.5v-75z" />
    <glyph glyph-name="r" unicode="r" horiz-adv-x="391" 
d="M358 443q-28 11 -65 11q-33 0 -60 -13t-46 -36t-29 -55t-10 -70v-306h-68v539h67v-95q9 19 22.5 38t33 34t44 24t55.5 9q23 0 41.5 -2.5t35.5 -8.5z" />
    <glyph glyph-name="s" unicode="s" horiz-adv-x="495" 
d="M251 27q66 0 100 26t34 61v10q0 41 -33.5 62t-111.5 36q-41 8 -74 19t-56 28t-36 40.5t-13 56.5v14q0 29 12 55t36 45.5t60.5 31t86.5 11.5q62 0 107 -15.5t78 -40.5l-31 -51q-34 23 -69 35t-87 12q-61 0 -93 -24.5t-32 -59.5v-11q0 -35 35.5 -55t99.5 -32
q100 -19 144.5 -54t44.5 -100v-15q0 -32 -15 -59t-41.5 -46.5t-62.5 -30t-79 -10.5q-66 0 -117.5 17.5t-89.5 45.5l33 54q37 -25 79.5 -40.5t90.5 -15.5z" />
    <glyph glyph-name="t" unicode="t" horiz-adv-x="388" 
d="M122 455h-92v58h92v139h68v-139h149v-58h-149v-328q0 -55 17.5 -77t58.5 -22q40 0 76 10l10 -56q-16 -6 -42.5 -9.5t-48.5 -3.5q-35 0 -61.5 8t-43.5 26t-25.5 47.5t-8.5 73.5v331z" />
    <glyph glyph-name="u" unicode="u" horiz-adv-x="578" 
d="M264 -34q-92 0 -140 51t-48 135v361h68v-344q0 -29 5.5 -54.5t19.5 -45t39.5 -30.5t65.5 -11q34 0 62.5 12t49 31.5t32 43.5t11.5 48v350h68v-539h-67v75q-19 -31 -60.5 -57t-105.5 -26z" />
    <glyph glyph-name="v" unicode="v" horiz-adv-x="501" 
d="M214 -26l-197 539h73l163 -469l160 469h71l-194 -539h-76z" />
    <glyph glyph-name="w" unicode="w" horiz-adv-x="754" 
d="M167 -26l-147 539h69l119 -471l132 471h77l135 -471l116 471h66l-144 -539h-79l-134 463l-131 -463h-79z" />
    <glyph glyph-name="x" unicode="x" horiz-adv-x="509" 
d="M297 253l190 -279h-79l-153 237l-158 -237h-75l192 279l-181 260h76l148 -220l147 220h74z" />
    <glyph glyph-name="y" unicode="y" horiz-adv-x="505" 
d="M87 513l167 -463l164 463h70l-280 -762l-58 21l69 193l-202 548h70z" />
    <glyph glyph-name="z" unicode="z" horiz-adv-x="488" 
d="M439 467l-329 -437h343v-56h-423v52l325 431h-305v56h389v-46z" />
    <glyph glyph-name="braceleft" unicode="{" horiz-adv-x="419" 
d="M38 343q55 1 80.5 20.5t25.5 62.5v201q0 74 33.5 106.5t110.5 32.5h93v-61h-84q-43 0 -64.5 -14.5t-21.5 -65.5v-192q0 -18 -2.5 -37t-10.5 -36t-23.5 -30.5t-41.5 -19.5q25 -6 40.5 -18.5t24 -29.5t11 -36.5t2.5 -38.5v-222q0 -26 5.5 -40.5t16.5 -22t27 -9.5t37 -2h84
v-61h-93q-77 0 -110.5 30t-33.5 103v230q0 44 -25.5 64t-80.5 21v65z" />
    <glyph glyph-name="bar" unicode="|" horiz-adv-x="281" 
d="M171 -170h-61v935h61v-935z" />
    <glyph glyph-name="braceright" unicode="}" horiz-adv-x="419" 
d="M381 278q-55 -1 -80.5 -21t-25.5 -64v-230q0 -73 -33.5 -103t-110.5 -30h-93v61h84q21 0 37 2t27 9.5t16.5 22t5.5 40.5v222q0 19 2.5 38.5t11 36.5t23.5 29.5t41 18.5q-26 6 -41.5 19.5t-23.5 30.5t-10.5 36t-2.5 37v192q0 51 -21.5 65.5t-64.5 14.5h-84v61h93
q77 0 110.5 -32.5t33.5 -106.5v-201q0 -43 25.5 -62.5t80.5 -20.5v-65z" />
    <glyph glyph-name="asciitilde" unicode="~" horiz-adv-x="600" 
d="M394 242q-36 0 -60 15.5t-44 33.5t-39.5 33.5t-45.5 15.5q-22 0 -36.5 -10.5t-23.5 -26t-13.5 -33t-6.5 -31.5h-62q4 33 15 62t28 51t41.5 35t57.5 13q36 0 60.5 -15.5t45 -33.5t39.5 -33.5t45 -15.5q22 0 36.5 9t23.5 23.5t13.5 32.5t6.5 36h62q-4 -33 -13.5 -62
t-26.5 -51t-42 -35t-61 -13z" />
    <glyph glyph-name="exclamdown" unicode="&#xa1;" horiz-adv-x="280" 
d="M188 616h-96v98h96v-98zM169 512l12 -566h-82l12 566h58z" />
    <glyph glyph-name="cent" unicode="&#xa2;" horiz-adv-x="498" 
d="M260 70q-96 6 -150.5 64t-54.5 170v66q0 55 15 97t42 70.5t65 43.5t83 18v96h55v-97q45 -4 80 -17t64 -34l-31 -52q-29 20 -56.5 30t-56.5 13v-406q42 5 72 19t55 33l32 -54q-26 -20 -63.5 -37t-95.5 -22v-97h-55v96zM122 304q0 -82 37.5 -124t100.5 -48v407
q-63 -6 -100.5 -47.5t-37.5 -119.5v-68z" />
    <glyph glyph-name="sterling" unicode="&#xa3;" horiz-adv-x="550" 
d="M62 367h86v100q0 62 17 105.5t45.5 70.5t66.5 39.5t79 12.5q44 0 80 -9t59 -23l-26 -56q-29 12 -52.5 17.5t-53.5 5.5q-31 0 -57.5 -7.5t-46 -26.5t-30.5 -52t-11 -84v-93h202v-56h-202v-94q0 -69 -13 -110t-51 -69v-2h363v-62h-454v55q47 28 66 70.5t19 115.5v96h-86v56
z" />
    <glyph glyph-name="currency" unicode="&#xa4;" 
d="M684 314q0 49 -18.5 91.5t-50.5 74.5t-75 50.5t-91 18.5q-49 0 -92 -18.5t-74.5 -50.5t-50 -74.5t-18.5 -91.5t18.5 -91.5t50 -74.5t74.5 -50.5t92 -18.5q48 0 91 18.5t75 50.5t50.5 74.5t18.5 91.5zM802 577l-113 -100q23 -35 36 -76t13 -87q0 -49 -15 -92.5t-43 -80.5
l121 -108l-36 -41l-121 109q-38 -34 -89 -55.5t-106 -21.5q-54 0 -102.5 19t-85.5 51l-117 -102l-36 41l115 101q-29 37 -46.5 82.5t-17.5 97.5q0 47 14 89.5t39 78.5l-105 95l38 41l104 -94q38 37 89.5 58.5t110.5 21.5q61 0 113 -24t92 -63l111 101z" />
    <glyph glyph-name="yen" unicode="&#xa5;" horiz-adv-x="602" 
d="M268 128h-173v56h173v72h-173v56h158l-218 376h78l191 -343h3l187 343h71l-213 -376h159v-56h-173v-72h173v-56h-173v-154h-70v154z" />
    <glyph glyph-name="section" unicode="&#xa7;" horiz-adv-x="514" 
d="M236 -155q-56 0 -94.5 11.5t-69.5 28.5v56q16 -7 32.5 -14t35 -12t40.5 -8.5t50 -3.5q69 0 101.5 27t32.5 71q0 22 -5 38t-17 27.5t-31.5 20.5t-47.5 18q-48 15 -89 28.5t-72 33t-48.5 49t-17.5 77.5q0 51 27.5 83.5t78.5 48.5q-28 20 -42.5 49.5t-14.5 74.5
q0 69 48 112.5t142 43.5q54 0 86.5 -10.5t56.5 -22.5v-55q-23 11 -58.5 20t-83.5 9q-60 0 -93 -23.5t-33 -67.5q0 -41 17 -63t65 -38q56 -18 101.5 -32t77.5 -33.5t49.5 -48.5t17.5 -76q0 -54 -28 -87t-80 -49q32 -20 47 -48.5t15 -72.5q0 -75 -51 -118.5t-145 -43.5z
M301 366q-27 8 -52.5 15.5t-51.5 16.5q-47 -9 -71.5 -35.5t-24.5 -64.5q0 -43 22.5 -67t73.5 -40q27 -8 57 -16t56 -19q50 10 75 37t25 66q0 45 -26.5 67.5t-82.5 39.5z" />
    <glyph glyph-name="dieresis" unicode="&#xa8;" horiz-adv-x="600" 
d="M345 667h66v-72h-66v72zM189 667h66v-72h-66v72z" />
    <glyph glyph-name="copyright" unicode="&#xa9;" horiz-adv-x="840" 
d="M420 -33q-78 0 -145 29t-116 79t-76.5 117t-27.5 143q0 75 27.5 142t76.5 116.5t116 78.5t145 29t145 -29t115.5 -78.5t76.5 -116.5t28 -142q0 -76 -28 -143t-76.5 -117t-115.5 -79t-145 -29zM420 11q69 0 127 24.5t100 67.5t65.5 102.5t23.5 129.5q0 69 -23.5 128
t-65.5 102t-100 67.5t-127 24.5t-127 -24.5t-100 -67.5t-65.5 -102t-23.5 -128q0 -70 23.5 -129.5t65.5 -102.5t100 -67.5t127 -24.5zM429 545q48 0 80.5 -12t58.5 -32l-32 -50q-28 20 -53 27t-54 7q-45 0 -76 -30t-31 -93v-52q0 -67 31.5 -97.5t76.5 -30.5q41 0 67.5 10.5
t49.5 27.5l31 -51q-21 -17 -56.5 -32t-91.5 -15q-84 0 -130 49t-46 138v51q0 89 48 137t127 48z" />
    <glyph glyph-name="ordfeminine" unicode="&#xaa;" horiz-adv-x="445" 
d="M194 277q-64 0 -103 33t-39 92v18q0 55 38 89.5t119 34.5h116v33q0 46 -23 69t-74 23q-37 0 -67 -12t-59 -32l-33 50q32 22 70.5 38t89.5 16q73 0 117.5 -36.5t44.5 -102.5v-306h-65v53q-6 -11 -18 -21.5t-27 -18.5q-35 -20 -87 -20zM325 488h-115q-50 0 -71 -19t-21 -53
v-11q0 -18 7 -31.5t19 -22t27 -12.5t31 -4q52 0 88 27q35 21 35 67v59z" />
    <glyph glyph-name="guillemotleft" unicode="&#xab;" 
d="M816 15l-30 -49l-482 314v45l474 323l35 -47l-438 -298zM606 12l-32 -50l-480 318v45l473 328l35 -49l-437 -302z" />
    <glyph glyph-name="logicalnot" unicode="&#xac;" 
d="M883 -155h-59v256h-797v57h856v-313z" />
    <glyph glyph-name="uni00AD" unicode="&#xad;" horiz-adv-x="412" 
d="M412 283h-412v58h412v-58z" />
    <glyph glyph-name="degree" unicode="&#xb0;" horiz-adv-x="302" 
d="M267 609q0 -24 -8.5 -45t-23.5 -37t-36.5 -25t-47.5 -9t-47.5 9t-36.5 25t-23.5 37t-8.5 45t8.5 45t23.5 37t36.5 25t47.5 9t47.5 -9t36.5 -25t23.5 -37t8.5 -45zM217 609q0 29 -17.5 49t-48.5 20t-48.5 -20t-17.5 -49t17.5 -49t48.5 -20t48.5 20t17.5 49z" />
    <glyph glyph-name="plusminus" unicode="&#xb1;" horiz-adv-x="600" 
d="M545 109v-60h-490v60h490zM267 372h-212v62h212v214h66v-214h212v-62h-212v-214h-66v214z" />
    <glyph glyph-name="uni00B2" unicode="&#xb2;" horiz-adv-x="400" 
d="M217 524q19 21 30.5 37t17.5 28.5t8 22t2 18.5v6q0 26 -22 42t-57 16q-26 0 -52 -13t-49 -54l-47 32q7 15 19 31t30 29.5t41.5 22.5t55.5 9q70 0 107 -32t37 -83v-7q0 -37 -20 -69.5t-52 -66.5l-143 -154h231v-55h-308v53z" />
    <glyph glyph-name="uni00B3" unicode="&#xb3;" horiz-adv-x="400" 
d="M60 683q19 28 50 48t83 20q63 0 100.5 -31t37.5 -83v-7q0 -28 -14.5 -58.5t-55.5 -46.5q45 -8 68.5 -37.5t23.5 -68.5v-9q0 -26 -9 -50t-28.5 -42.5t-50 -30t-73.5 -11.5q-80 0 -146 52l30 49q34 -24 60.5 -34t55.5 -10q51 0 74 22t23 54v7q0 23 -7.5 38.5t-20.5 24.5
t-31 13t-38 4h-54v55h52q43 0 60.5 24t17.5 54v6q0 30 -21.5 45.5t-53.5 15.5q-28 0 -48.5 -11t-39.5 -35z" />
    <glyph glyph-name="acute" unicode="&#xb4;" horiz-adv-x="600" 
d="M206 568l105 141h83l-124 -141h-64z" />
    <glyph glyph-name="paragraph" unicode="&#xb6;" horiz-adv-x="579" 
d="M291 352h-55q-38 0 -74 11t-63.5 33.5t-44 56.5t-16.5 80q0 37 11 70.5t37.5 58.5t69 39.5t105.5 14.5h232v-838h-50v794h-101v-794h-51v474z" />
    <glyph glyph-name="periodcentered" unicode="&#xb7;" horiz-adv-x="421" 
d="M160 353h101v-100h-101v100z" />
    <glyph glyph-name="cedilla" unicode="&#xb8;" horiz-adv-x="600" 
d="M216 -153q58 5 84 13t26 29t-21 27.5t-67 6.5v85h48v-46q44 -2 71 -17t27 -50q0 -44 -37.5 -65t-130.5 -27v44z" />
    <glyph glyph-name="uni00B9" unicode="&#xb9;" horiz-adv-x="400" 
d="M207 284v384l-108 -62l-29 50l146 86h54v-458h-63z" />
    <glyph glyph-name="ordmasculine" unicode="&#xba;" horiz-adv-x="467" 
d="M234 729q89 0 139 -52t50 -147v-54q0 -95 -50 -147t-139 -52t-139.5 52t-50.5 147v54q0 96 50.5 147.5t139.5 51.5zM234 336q57 0 90 35.5t33 109.5v44q0 73 -33 109t-90 36q-56 0 -89.5 -36t-33.5 -109v-44q0 -74 33.5 -109.5t89.5 -35.5z" />
    <glyph glyph-name="guillemotright" unicode="&#xbb;" 
d="M606 280l-482 -314l-30 49l441 288q-108 73 -219.5 149.5t-218.5 148.5l35 47l474 -323v-45zM816 280l-480 -318l-32 50l441 290q-107 74 -218.5 151.5t-218.5 150.5l35 49l473 -328v-45z" />
    <glyph glyph-name="onequarter" unicode="&#xbc;" horiz-adv-x="884" 
d="M793 210v-139h66v-55h-66v-99h-61v99h-223v48l207 311h70l-205 -304h151v139h61zM700 709h67l-523 -775h-67zM207 237v384l-108 -62l-29 50l146 86h54v-458h-63z" />
    <glyph glyph-name="onehalf" unicode="&#xbd;" horiz-adv-x="935" 
d="M700 709h67l-523 -775h-67zM207 237v384l-108 -62l-29 50l146 86h54v-458h-63zM752 157q19 21 30.5 37t17.5 28.5t8 22t2 18.5v6q0 26 -22 42t-57 16q-26 0 -52 -13t-49 -54l-47 32q7 15 19 31t30 29.5t41.5 22.5t55.5 9q70 0 107 -32t37 -83v-7q0 -37 -20 -69.5
t-52 -66.5l-143 -154h231v-55h-308v53z" />
    <glyph glyph-name="threequarters" unicode="&#xbe;" horiz-adv-x="899" 
d="M715 709h67l-523 -775h-67zM60 636q19 28 50 48t83 20q63 0 100.5 -31t37.5 -83v-7q0 -28 -14.5 -58.5t-55.5 -46.5q45 -8 68.5 -37.5t23.5 -68.5v-9q0 -26 -9 -50t-28.5 -42.5t-50 -30t-73.5 -11.5q-80 0 -146 52l30 49q34 -24 60.5 -34t55.5 -10q51 0 74 22t23 54v7
q0 23 -7.5 38.5t-20.5 24.5t-31 13t-38 4h-54v55h52q43 0 60.5 24t17.5 54v6q0 30 -21.5 45.5t-53.5 15.5q-28 0 -48.5 -11t-39.5 -35zM808 210v-139h66v-55h-66v-99h-61v99h-223v48l207 311h70l-205 -304h151v139h61z" />
    <glyph glyph-name="questiondown" unicode="&#xbf;" horiz-adv-x="520" 
d="M323 608h-96v98h96v-98zM309 511v-47q0 -25 -5 -44.5t-16 -38.5t-29.5 -39.5t-46.5 -47.5q-18 -17 -34.5 -33t-30 -33.5t-21.5 -38t-8 -46.5v-16q0 -54 36.5 -85.5t99.5 -31.5q51 0 93 20.5t73 55.5l45 -46q-14 -16 -34 -33t-46 -30.5t-58.5 -22t-70.5 -8.5
q-100 0 -155 49t-55 131v17q0 37 11.5 65t30 51.5t41.5 44.5t46 43q16 16 28.5 29.5t21 27t12.5 28.5t4 35v44h68z" />
    <glyph glyph-name="AE" unicode="&#xc6;" horiz-adv-x="979" 
d="M908 633h-341v-258h320v-62h-320v-277h348v-62h-418v224h-262l-138 -224h-81l448 721h444v-62zM273 259h224v374q-9 -20 -22.5 -44.5t-31.5 -54.5z" />
    <glyph glyph-name="Eth" unicode="&#xd0;" horiz-adv-x="680" 
d="M10 377h85v318h225q137 0 214.5 -79.5t77.5 -229.5v-103q0 -150 -77.5 -229.5t-214.5 -79.5h-225v344h-85v59zM165 377h173v-59h-173v-282h156q48 0 89 15t70 46.5t45.5 78.5t16.5 112v93q0 64 -16.5 111.5t-45.5 79t-70 46.5t-89 15h-156v-256z" />
    <glyph glyph-name="multiply" unicode="&#xd7;" horiz-adv-x="600" 
d="M257 321l-183 195l43 43l183 -196l182 192l45 -45l-183 -191l183 -193l-43 -43l-182 193l-183 -193l-45 45z" />
    <glyph glyph-name="Oslash" unicode="&#xd8;" horiz-adv-x="692" 
d="M44 1l69 84q-23 40 -35.5 90t-12.5 110v99q0 74 18.5 133.5t54.5 101.5t88.5 64.5t119.5 22.5q66 0 118 -22t88 -64l70 84l43 -38l-79 -96q41 -77 41 -186v-99q0 -74 -19 -133.5t-55 -101.5t-88 -64.5t-119 -22.5q-63 0 -112 19.5t-85 55.5l-62 -75zM346 643
q-97 0 -153.5 -67.5t-56.5 -197.5v-87q0 -86 26 -146l345 419q-56 79 -161 79zM346 26q97 0 153.5 67.5t56.5 197.5v87q0 75 -20 130l-342 -416q54 -66 152 -66z" />
    <glyph glyph-name="Thorn" unicode="&#xde;" horiz-adv-x="598" 
d="M83 695h70v-136h174q57 0 100.5 -15.5t72.5 -43t43.5 -65.5t14.5 -82v-21q0 -44 -15.5 -82t-45 -66.5t-72.5 -44.5t-98 -16h-174v-149h-70v721zM153 496v-310h157q93 0 135 40t42 108v18q0 64 -40.5 104t-125.5 40h-168z" />
    <glyph glyph-name="germandbls" unicode="&#xdf;" horiz-adv-x="564" 
d="M323 364q0 -11 1.5 -20.5t8.5 -19t22 -19.5t41 -23q30 -14 54 -28t41 -31t26.5 -39t9.5 -53v-15q0 -32 -9.5 -59.5t-29.5 -47.5t-50 -31.5t-71 -11.5q-54 0 -92.5 16t-70.5 42l34 54q32 -28 64.5 -39.5t61.5 -11.5q27 0 45 7.5t29.5 20.5t16 29t4.5 34v10q0 32 -23 52.5
t-66 40.5q-31 15 -52.5 29t-35.5 30.5t-20.5 36t-6.5 45.5v9q0 26 11 46.5t27 37.5t35 32t35 30.5t27 33t11 40.5v11q0 32 -27 52t-95 20q-71 0 -103.5 -34.5t-32.5 -111.5v-554h-68v559q0 57 15 95.5t42 62.5t64.5 34.5t82.5 10.5q51 0 86.5 -10.5t58 -28.5t32.5 -41.5
t10 -48.5v-12q0 -46 -22.5 -77t-49 -55t-49 -45.5t-22.5 -47.5v-6z" />
    <glyph glyph-name="ae" unicode="&#xe6;" horiz-adv-x="881" 
d="M815 27q-32 -23 -79 -42t-115 -19q-69 0 -118.5 27t-76.5 78q-15 -28 -37.5 -47t-53.5 -35q-46 -23 -109 -23q-77 0 -125 41t-48 113v17q0 66 48 107t142 41h152v55q0 59 -32.5 90.5t-95.5 31.5q-44 0 -84 -15.5t-75 -39.5l-33 52q38 26 84.5 45t108.5 19q61 0 105 -21.5
t67 -61.5q29 41 72.5 62t99.5 21q106 0 160.5 -65.5t54.5 -179.5v-53h-364v-12q0 -90 42 -138.5t117 -48.5q54 0 94 16t69 37zM395 228h-151q-65 0 -94 -26t-29 -68v-11q0 -26 10 -44.5t26.5 -30.5t37 -17.5t41.5 -5.5q32 0 58 8t50 23q22 14 36.5 34.5t14.5 51.5v86z
M759 282v6q0 85 -38 130t-109 45q-72 0 -110.5 -47.5t-38.5 -127.5v-6h296z" />
    <glyph glyph-name="eth" unicode="&#xf0;" horiz-adv-x="554" 
d="M134 607l100 41q-19 12 -38.5 23.5t-40.5 24.5l28 47q26 -14 55 -31t59 -37l110 46l19 -48l-82 -34q34 -29 64.5 -64.5t53.5 -79.5t37 -98t14 -119v-67q0 -117 -60 -181t-169 -64t-169 64t-60 181v62q0 118 58 181.5t163 63.5q34 0 67.5 -11t55.5 -36q-21 45 -49.5 79
t-66.5 63l-130 -54zM284 26q75 0 117.5 46.5t42.5 142.5v66q0 82 -44 129.5t-119 47.5q-74 0 -115.5 -46.5t-41.5 -142.5v-54q0 -96 42.5 -142.5t117.5 -46.5z" />
    <glyph glyph-name="divide" unicode="&#xf7;" horiz-adv-x="600" 
d="M546 351v-64h-492v64h492zM258 559h84v-82h-84v82zM258 161h84v-82h-84v82z" />
    <glyph glyph-name="oslash" unicode="&#xf8;" horiz-adv-x="568" 
d="M284 523q100 0 158 -55l48 55l39 -34l-53 -61q37 -60 37 -150v-67q0 -117 -60 -181t-169 -64q-51 0 -91.5 14.5t-69.5 41.5l-48 -56l-39 34l55 63q-36 58 -36 148v67q0 118 60 181.5t169 63.5zM284 26q75 0 117.5 46.5t42.5 142.5v59q0 56 -17 98l-260 -300
q42 -46 117 -46zM124 215q0 -57 15 -96l260 299q-42 45 -115 45q-75 0 -117.5 -46.5t-42.5 -142.5v-59z" />
    <glyph glyph-name="thorn" unicode="&#xfe;" horiz-adv-x="579" 
d="M148 38v-278h-68v970h68v-293q24 41 67 63.5t94 22.5q48 0 87.5 -15.5t67.5 -45t43.5 -72.5t15.5 -98v-95q0 -55 -16 -98t-44.5 -72.5t-68 -45t-85.5 -15.5q-57 0 -97.5 21.5t-62.5 50.5h-1zM455 282q0 87 -40.5 133t-109.5 46q-28 0 -56 -10t-50.5 -29.5t-36.5 -47
t-14 -63.5v-158q0 -24 11.5 -46.5t32.5 -40.5t49.5 -29t63.5 -11q69 0 109.5 47.5t40.5 133.5v75z" />
    <glyph glyph-name="dcroat" unicode="&#x111;" horiz-adv-x="591" 
d="M276 645h155v85h68v-85h62v-56h-62v-615h-67v71h-1q-23 -41 -68 -60t-92 -19t-86 15.5t-68 45t-45 72.5t-16 98v95q0 55 16 98t44.5 72.5t68 45t85.5 15.5q60 0 100 -23t61 -53v142h-155v56zM124 207q0 -87 41 -134t109 -47q33 0 61.5 8.5t49.5 26t33.5 44t12.5 62.5v162
q0 24 -11.5 47.5t-32.5 43t-50 31.5t-63 12q-69 0 -109.5 -47.5t-40.5 -133.5v-75z" />
    <glyph glyph-name="Hbar" unicode="&#x126;" horiz-adv-x="691" 
d="M531 297h-371v-323h-70v516h-70v59h70v146h70v-146h371v146h70v-146h70v-59h-70v-516h-70v323zM160 367h371v123h-371v-123z" />
    <glyph glyph-name="hbar" unicode="&#x127;" horiz-adv-x="600" 
d="M30 645h68v85h68v-85h149v-56h-149v-151q9 15 24 30.5t35.5 27.5t46.5 19.5t58 7.5q93 0 143.5 -50.5t50.5 -135.5v-363h-68v346q0 29 -6 54.5t-21.5 45t-42 30.5t-66.5 11q-34 0 -62.5 -12.5t-48.5 -32.5t-31.5 -44t-11.5 -48v-350h-68v615h-68v56z" />
    <glyph glyph-name="dotlessi" unicode="&#x131;" horiz-adv-x="228" 
d="M80 513h68v-539h-68v539z" />
    <glyph glyph-name="IJ" unicode="&#x132;" horiz-adv-x="689" 
d="M83 695h70v-721h-70v721zM539 695h70v-530q0 -60 -15 -99t-40.5 -62t-58.5 -32t-70 -9q-45 0 -89.5 12t-79.5 43l34 57q32 -26 64 -36t67 -10q64 0 91 34t27 109v523z" />
    <glyph glyph-name="ij" unicode="&#x133;" horiz-adv-x="474" 
d="M83 513h68v-539h-68v539zM80 692h74v-76h-74v76zM320 692h74v-76h-74v76zM391 -92q0 -88 -35.5 -122.5t-103.5 -34.5q-22 0 -48.5 3.5t-42.5 9.5l10 56q36 -10 76 -10q41 0 58.5 23t17.5 78v602h68v-605z" />
    <glyph glyph-name="kgreenlandic" unicode="&#x138;" horiz-adv-x="540" 
d="M280 291l238 -317h-83l-201 271l-86 -87v-184h-68v539h68v-271l263 271h88z" />
    <glyph glyph-name="Ldot" unicode="&#x13f;" horiz-adv-x="534" 
d="M153 695v-659h361v-62h-431v721h70zM363 411h101v-100h-101v100z" />
    <glyph glyph-name="ldot" unicode="&#x140;" horiz-adv-x="408" 
d="M80 730h68v-756h-68v756zM258 431h101v-100h-101v100z" />
    <glyph glyph-name="Lslash" unicode="&#x141;" horiz-adv-x="563" 
d="M182 695v-350l204 116l24 -47l-228 -130v-248h361v-62h-431v270l-78 -44l-24 47l102 58v390h70z" />
    <glyph glyph-name="lslash" unicode="&#x142;" horiz-adv-x="302" 
d="M10 320l107 60v350h68v-312l83 47l24 -44l-107 -60v-387h-68v348l-83 -46z" />
    <glyph glyph-name="napostrophe" unicode="&#x149;" horiz-adv-x="582" 
d="M-27 520l20 178h78l-40 -178h-58zM312 523q93 0 143.5 -50.5t50.5 -135.5v-363h-68v346q0 29 -6 54.5t-21.5 45t-42 30.5t-66.5 11q-34 0 -62.5 -12.5t-48.5 -32.5t-31.5 -44t-11.5 -48v-350h-68v539h67v-75q9 15 24 30.5t36 27.5t47 19.5t58 7.5z" />
    <glyph glyph-name="Eng" unicode="&#x14a;" horiz-adv-x="681" 
d="M83 695h83l331 -533q9 -15 16.5 -29.5t17.5 -37.5v600h67v-787q0 -88 -35 -122.5t-103 -34.5q-22 0 -48.5 3.5t-42.5 9.5l10 56q36 -10 76 -10q41 0 58.5 23t17.5 78v68l-348 561q-10 16 -16.5 29t-16.5 36v-631h-67v721z" />
    <glyph glyph-name="eng" unicode="&#x14b;" horiz-adv-x="582" 
d="M312 523q93 0 143.5 -50.5t50.5 -135.5v-429q0 -88 -35.5 -122.5t-103.5 -34.5q-22 0 -48.5 3.5t-42.5 9.5l10 56q36 -10 76 -10q41 0 58.5 23t17.5 78v409q0 29 -6 54.5t-21.5 45t-42 30.5t-66.5 11q-34 0 -62.5 -12.5t-48.5 -32.5t-31.5 -44t-11.5 -48v-350h-68v539h67
v-75q9 15 24 30.5t36 27.5t47 19.5t58 7.5z" />
    <glyph glyph-name="OE" unicode="&#x152;" horiz-adv-x="965" 
d="M894 633h-341v-258h320v-62h-320v-277h348v-62l-525 -1q-158 0 -234.5 84t-76.5 232v91q0 148 77 231.5t234 83.5h518v-62zM483 36v597h-107q-240 0 -240 -259v-79q0 -259 240 -259h107z" />
    <glyph glyph-name="oe" unicode="&#x153;" horiz-adv-x="922" 
d="M860 27q-32 -23 -78 -42t-114 -19q-67 0 -115 26.5t-75 77.5q-27 -51 -75 -77.5t-115 -26.5q-106 0 -166.5 64t-60.5 181v67q0 118 60.5 181.5t166.5 63.5q67 0 115 -26.5t75 -77.5q26 51 72 77.5t109 26.5q103 0 158 -65.5t55 -179.5v-56h-360v-9q0 -90 41 -138.5
t116 -48.5q54 0 93 16t68 37zM288 26q75 0 115.5 46.5t40.5 142.5v59q0 96 -40.5 142.5t-115.5 46.5t-116.5 -46.5t-41.5 -142.5v-59q0 -96 41.5 -142.5t116.5 -46.5zM804 279v9q0 85 -37 130t-108 45q-72 0 -109.5 -47.5t-37.5 -127.5v-9h292z" />
    <glyph glyph-name="Tbar" unicode="&#x166;" horiz-adv-x="571" 
d="M551 695v-62h-231v-264h152v-59h-152v-336h-70v336h-152v59h152v264h-230v62h531z" />
    <glyph glyph-name="tbar" unicode="&#x167;" horiz-adv-x="388" 
d="M122 513v139h68v-139h149v-58h-149v-107h149v-52h-149v-169q0 -55 17.5 -77t58.5 -22q40 0 76 10l10 -56q-16 -6 -42.5 -9.5t-48.5 -3.5q-35 0 -61.5 8t-43.5 26t-25.5 47.5t-8.5 73.5v172h-92v52h92v107h-92v58h92z" />
    <glyph glyph-name="caron" unicode="&#x2c7;" horiz-adv-x="600" 
d="M329 563h-59l-101 139h55l77 -88l74 88h56z" />
    <glyph glyph-name="uni02D0" unicode="&#x2d0;" 
d="M539 74h-168l83 94zM539 545l-85 -95l-83 95h168z" />
    <glyph glyph-name="breve" unicode="&#x2d8;" horiz-adv-x="600" 
d="M300 565q-56 0 -91.5 33.5t-38.5 89.5h52q5 -34 24.5 -53t53.5 -19q35 0 54 19t24 53h52q-2 -56 -38 -89.5t-92 -33.5z" />
    <glyph glyph-name="dotaccent" unicode="&#x2d9;" horiz-adv-x="600" 
d="M265 668h69v-73h-69v73z" />
    <glyph glyph-name="ring" unicode="&#x2da;" 
d="M455 556q-42 0 -67.5 27t-25.5 64q0 18 7 34t19 28t29 19.5t38 7.5q20 0 37 -7.5t29.5 -19.5t19.5 -28t7 -34q0 -37 -26 -64t-67 -27zM455 594q23 0 36 15t13 38q0 22 -13 36t-36 14t-36.5 -14t-13.5 -36q0 -23 13.5 -38t36.5 -15z" />
    <glyph glyph-name="ogonek" unicode="&#x2db;" horiz-adv-x="600" 
d="M325 -196q-102 0 -102 74q0 21 8.5 38.5t21 31t27.5 24t29 19.5h56q-34 -26 -57.5 -50t-23.5 -54q0 -25 14.5 -31t41.5 -6q22 0 36 6v-43q-9 -3 -22 -6t-29 -3z" />
    <glyph glyph-name="tilde" unicode="&#x2dc;" horiz-adv-x="600" 
d="M156 586q6 48 31.5 71t55.5 23q18 0 33 -6t29 -13.5t27 -13.5t25 -6q15 0 26 10t15 30h46q-5 -48 -31 -71t-56 -23q-18 0 -33 6t-29 13.5t-27 13.5t-25 6q-32 0 -40 -40h-47v0z" />
    <glyph glyph-name="hungarumlaut" unicode="&#x2dd;" horiz-adv-x="600" 
d="M219 709h72l-68 -141h-57zM363 709h72l-68 -141h-57z" />
    <glyph glyph-name="Alpha" unicode="&#x391;" horiz-adv-x="658" 
d="M636 -26h-75l-80 224h-305l-82 -224h-72l268 721h79zM198 259h261l-70 195q-7 18 -13 35t-13 37.5t-15 46t-19 60.5q-10 -35 -18 -60.5t-15 -46t-13 -37.5t-13 -35z" />
    <glyph glyph-name="Beta" unicode="&#x392;" horiz-adv-x="615" 
d="M83 695h230q229 0 229 -176v-21q0 -24 -6 -46.5t-19.5 -41.5t-36 -33.5t-54.5 -22.5q66 -10 107.5 -50t41.5 -115v-25q0 -89 -56.5 -139.5t-174.5 -50.5h-261v721zM152 36h186q85 0 125.5 32.5t40.5 96.5v22q0 33 -9 58t-31 42t-58 25.5t-90 8.5h-164v-285zM152 634v-254
h163q75 0 116 26t41 94v18q0 64 -39.5 90t-124.5 26h-156z" />
    <glyph glyph-name="Gamma" unicode="&#x393;" horiz-adv-x="514" 
d="M83 -26v721h411v-61h-341v-660h-70z" />
    <glyph glyph-name="uni0394" unicode="&#x394;" horiz-adv-x="651" 
d="M283 695h76l263 -721h-604zM321 623l-209 -584h415l-205 584h-1z" />
    <glyph glyph-name="Epsilon" unicode="&#x395;" horiz-adv-x="588" 
d="M517 695v-62h-364v-258h343v-62h-343v-277h371v-62h-441v721h434z" />
    <glyph glyph-name="Zeta" unicode="&#x396;" horiz-adv-x="597" 
d="M542 648l-430 -614h449v-60h-533v55l425 606h-401v60h490v-47z" />
    <glyph glyph-name="Eta" unicode="&#x397;" horiz-adv-x="677" 
d="M497 315h-371v-341h-70v721h70v-310h371v310h70v-721h-70v341z" />
    <glyph glyph-name="Theta" unicode="&#x398;" horiz-adv-x="692" 
d="M509 301h-326v70h326v-70zM346 706q67 0 119 -22.5t88 -64.5t55 -101.5t19 -133.5v-99q0 -74 -19 -133.5t-55 -101.5t-88 -64.5t-119 -22.5t-119 22.5t-88 64.5t-55 101.5t-19 133.5v99q0 74 18.5 133.5t54.5 101.5t88.5 64.5t119.5 22.5zM346 26q97 0 153.5 67.5
t56.5 197.5v87q0 130 -56.5 197.5t-153.5 67.5t-153.5 -67.5t-56.5 -197.5v-87q0 -130 56.5 -197.5t153.5 -67.5z" />
    <glyph glyph-name="Iota" unicode="&#x399;" horiz-adv-x="236" 
d="M83 695h70v-721h-70v721z" />
    <glyph glyph-name="Kappa" unicode="&#x39a;" horiz-adv-x="644" 
d="M295 387l319 -413h-90l-279 362l-92 -95v-267h-70v721h70v-364l348 364h94z" />
    <glyph glyph-name="Lambda" unicode="&#x39b;" horiz-adv-x="639" 
d="M617 -26h-77l-222 649h-1l-222 -649h-73l258 721h80z" />
    <glyph glyph-name="Mu" unicode="&#x39c;" horiz-adv-x="824" 
d="M188 502q-6 13 -11 22.5t-9 19.5t-8 21.5t-8 27.5v-619h-69v721h86l244 -528l245 528h83v-721h-69v619q-3 -16 -6.5 -27.5t-7.5 -21.5t-9 -19.5t-11 -22.5l-193 -408h-66z" />
    <glyph glyph-name="Nu" unicode="&#x39d;" horiz-adv-x="681" 
d="M83 695h83l331 -564q9 -15 16 -29.5t18 -37.5v631h67v-721h-83l-332 566q-9 16 -16 29t-17 36v-631h-67v721z" />
    <glyph glyph-name="Xi" unicode="&#x39e;" horiz-adv-x="563" 
d="M524 36v-62h-441v62h441zM107 375h387v-62h-387v62zM83 633v62h434v-62h-434z" />
    <glyph glyph-name="Omicron" unicode="&#x39f;" horiz-adv-x="692" 
d="M346 706q67 0 119 -22.5t88 -64.5t55 -101.5t19 -133.5v-99q0 -74 -19 -133.5t-55 -101.5t-88 -64.5t-119 -22.5t-119 22.5t-88 64.5t-55 101.5t-19 133.5v99q0 74 18.5 133.5t54.5 101.5t88.5 64.5t119.5 22.5zM346 26q97 0 153.5 67.5t56.5 197.5v87q0 130 -56.5 197.5
t-153.5 67.5t-153.5 -67.5t-56.5 -197.5v-87q0 -130 56.5 -197.5t153.5 -67.5z" />
    <glyph glyph-name="Pi" unicode="&#x3a0;" horiz-adv-x="665" 
d="M578 -26h-70v660h-355v-660h-70v721h495v-721z" />
    <glyph glyph-name="Rho" unicode="&#x3a1;" horiz-adv-x="598" 
d="M83 695h244q57 0 100.5 -15.5t72.5 -43t43.5 -65.5t14.5 -82v-21q0 -44 -15.5 -82t-45 -66.5t-72.5 -44.5t-98 -16h-174v-285h-70v721zM153 632v-310h157q93 0 135 40t42 108v18q0 64 -40.5 104t-125.5 40h-168z" />
    <glyph glyph-name="Sigma" unicode="&#x3a3;" horiz-adv-x="579" 
d="M517 695v-62h-344l207 -301l-211 -296h355v-62h-441v50l217 307l-217 317v47h434z" />
    <glyph glyph-name="Tau" unicode="&#x3a4;" horiz-adv-x="571" 
d="M551 695v-62h-231v-659h-70v659h-230v62h531z" />
    <glyph glyph-name="Upsilon" unicode="&#x3a5;" horiz-adv-x="602" 
d="M338 269v-295h-70v295l-248 426h79l205 -362l200 362h78z" />
    <glyph glyph-name="Phi" unicode="&#x3a6;" horiz-adv-x="742" 
d="M60 376q0 112 71.5 178t205.5 74v90h67v-90q134 -8 206 -74t72 -178v-53q0 -112 -72 -178t-206 -74v-97h-67v97q-134 8 -205.5 74t-71.5 178v53zM613 370q0 93 -57 141t-152 55v-433q96 7 152.5 54.5t56.5 141.5v41zM129 329q0 -93 56 -141t152 -55v433q-96 -7 -152 -55
t-56 -141v-41z" />
    <glyph glyph-name="Chi" unicode="&#x3a7;" horiz-adv-x="641" 
d="M365 348l242 -374h-86l-201 327l-206 -327h-80l243 375l-231 346h82l196 -302l189 302h79z" />
    <glyph glyph-name="Psi" unicode="&#x3a8;" horiz-adv-x="707" 
d="M317 166q-54 5 -100 25t-80 56t-53 88.5t-19 121.5v218h69v-195q0 -62 13.5 -106.5t38 -74t58 -45.5t73.5 -20v441h70v-442q40 4 74.5 19.5t59 45t38.5 74.5t14 108v195h69v-218q0 -70 -19.5 -122.5t-53.5 -88.5t-81 -56t-101 -24v-192h-70v192z" />
    <glyph glyph-name="uni03A9" unicode="&#x3a9;" horiz-adv-x="739" 
d="M25 32h178q-55 35 -82.5 102.5t-27.5 156.5v99q0 74 18 132.5t53.5 99.5t87 62.5t118.5 21.5t118.5 -21.5t86.5 -62.5t53.5 -99.5t18.5 -132.5v-99q0 -90 -27 -157t-83 -102h177v-58h-263v64q24 12 47 35.5t40 56.5t27.5 75t10.5 92v87q0 130 -54.5 194.5t-151.5 64.5
t-151.5 -64.5t-54.5 -194.5v-87q0 -100 32 -167t92 -92v-64h-263v58z" />
    <glyph glyph-name="alpha" unicode="&#x3b1;" horiz-adv-x="579" 
d="M432 45h-1q-23 -41 -68 -60t-92 -19t-86 15.5t-68 45t-45 72.5t-16 98v95q0 55 16 98t44.5 72.5t68 45t85.5 15.5q60 0 97.5 -20t63.5 -56v66h68v-539h-67v71zM124 207q0 -87 41 -134t109 -47q33 0 61.5 8.5t49.5 26t33.5 44t12.5 62.5v162q0 24 -11.5 47.5t-32.5 43
t-50 31.5t-63 12q-69 0 -109.5 -47.5t-40.5 -133.5v-75z" />
    <glyph glyph-name="beta" unicode="&#x3b2;" horiz-adv-x="573" 
d="M471 542q0 -74 -30 -114t-80 -57q31 -4 60.5 -16t52 -33t36 -51.5t13.5 -72.5v-35q0 -46 -15.5 -82.5t-43 -62t-64.5 -39t-80 -13.5q-65 0 -108.5 21t-63.5 52v-279h-68v776q0 53 16 91t43.5 62t64 35.5t76.5 11.5q50 0 86 -14t59.5 -38t34.5 -55.5t11 -65.5v-21z
M148 154q0 -22 10.5 -44.5t31.5 -41t53 -30t74 -11.5q39 0 65 13.5t42.5 34t23.5 44.5t7 46v30q0 79 -50.5 112t-144.5 30v58q43 0 71 10.5t44 30t22 46.5t6 61v17q0 52 -28 83t-94 31q-60 0 -96.5 -34t-36.5 -109v-377z" />
    <glyph glyph-name="gamma" unicode="&#x3b3;" horiz-adv-x="505" 
d="M87 513l167 -463l164 463h70l-201 -546v-207h-68v205l-202 548h70z" />
    <glyph glyph-name="delta" unicode="&#x3b4;" horiz-adv-x="568" 
d="M280 478q-72 32 -104.5 67.5t-32.5 69.5v16q0 18 9.5 36.5t29 33.5t49 25t68.5 10q49 0 84.5 -9.5t67.5 -26.5l-26 -54q-33 17 -61 23.5t-60 6.5q-45 0 -69 -14.5t-24 -37.5v-5q0 -17 9.5 -30.5t26.5 -26.5t42 -27.5t56 -34.5q37 -24 68 -48t53.5 -53t34.5 -65.5
t12 -85.5v-37q0 -117 -60 -181t-169 -64t-169 64t-60 181v32q0 63 18.5 108t49.5 73.5t72 41.5t85 12zM284 26q75 0 117.5 46.5t42.5 142.5v36q0 41 -12.5 73.5t-33.5 55.5t-49.5 35t-61.5 12q-37 0 -67 -10t-51.5 -32.5t-33 -58.5t-11.5 -87v-24q0 -96 42.5 -142.5
t117.5 -46.5z" />
    <glyph glyph-name="epsilon" unicode="&#x3b5;" horiz-adv-x="468" 
d="M400 435q-35 17 -69.5 23t-63.5 6q-62 0 -96.5 -17t-34.5 -55v-9q0 -19 9.5 -36.5t26 -30.5t40 -20.5t51.5 -7.5h67v-60h-67q-62 0 -100.5 -21.5t-38.5 -74.5v-13q0 -43 32 -67.5t104 -24.5q38 0 82 10.5t85 37.5l31 -52q-20 -15 -44 -26t-50.5 -18t-53 -10t-50.5 -3
q-105 0 -154.5 39.5t-49.5 114.5v14q0 56 37 86.5t92 40.5q-54 12 -85 43t-31 76v14q0 32 14.5 56.5t40.5 40.5t62 24t79 8q48 0 84 -8t74 -27z" />
    <glyph glyph-name="zeta" unicode="&#x3b6;" horiz-adv-x="430" 
d="M320 -128q29 21 40 36t11 32q0 11 -8.5 18.5t-22 13.5t-31 11t-34.5 10q-49 13 -90 31t-71 44.5t-47 63.5t-17 89v23q0 61 19 120.5t52.5 114t80 103t102.5 88.5h-194v60h293l6 -50q-62 -40 -115 -88t-92 -103.5t-61.5 -117.5t-22.5 -129v-19q0 -40 13 -68t36 -47.5
t54 -32.5t67 -23q36 -11 63 -20t46 -20t28.5 -26t9.5 -37q0 -23 -5 -39.5t-15 -29.5t-24.5 -25t-33.5 -26z" />
    <glyph glyph-name="eta" unicode="&#x3b7;" horiz-adv-x="582" 
d="M312 523q93 0 143.5 -50.5t50.5 -135.5v-577h-68v560q0 29 -6 54.5t-21.5 45t-42 30.5t-66.5 11q-34 0 -62.5 -12.5t-48.5 -32.5t-31.5 -44t-11.5 -48v-350h-68v539h67v-75q9 15 24 30.5t36 27.5t47 19.5t58 7.5z" />
    <glyph glyph-name="theta" unicode="&#x3b8;" horiz-adv-x="570" 
d="M285 736q55 0 96.5 -22.5t69 -64.5t41 -101.5t13.5 -133.5v-128q0 -74 -13.5 -133.5t-41 -101.5t-69 -64.5t-96.5 -22.5t-96.5 22.5t-69 64.5t-41 101.5t-13.5 133.5v128q0 74 13.5 133.5t41 101.5t68.5 64.5t97 22.5zM285 25q78 0 114.5 68.5t36.5 198.5v34h-302v-34
q0 -130 36.5 -198.5t114.5 -68.5zM436 408q0 130 -36.5 198.5t-114.5 68.5t-114.5 -68.5t-36.5 -198.5v-24h302v24z" />
    <glyph glyph-name="iota" unicode="&#x3b9;" horiz-adv-x="255" 
d="M235 -24q-14 -5 -32.5 -7.5t-29.5 -2.5q-48 0 -70.5 26.5t-22.5 81.5v439h68v-433q0 -29 10 -42.5t34 -13.5q8 0 16.5 2t15.5 4z" />
    <glyph glyph-name="kappa" unicode="&#x3ba;" horiz-adv-x="540" 
d="M280 291l238 -317h-83l-201 271l-86 -87v-184h-68v539h68v-271l263 271h88z" />
    <glyph glyph-name="lambda" unicode="&#x3bb;" horiz-adv-x="505" 
d="M87 723q15 7 30.5 10t26.5 3q36 0 55.5 -15.5t31.5 -47.5l257 -699h-72l-165 461l-162 -461h-70l198 548l-45 121q-6 17 -13 25t-21 8q-9 0 -17 -2.5t-15 -5.5z" />
    <glyph glyph-name="uni03BC" unicode="&#x3bc;" horiz-adv-x="581" 
d="M501 513v-539h-67v62q-17 -26 -54 -48t-85 -22q-57 0 -91.5 21t-54.5 51h-1v-278h-68v753h68v-345q0 -27 10 -52.5t28.5 -45t45.5 -31t62 -11.5q30 0 55 11.5t44 33.5t29.5 54t10.5 73v313h68z" />
    <glyph glyph-name="nu" unicode="&#x3bd;" horiz-adv-x="501" 
d="M214 -26l-197 539h73l163 -469l160 469h71l-194 -539h-76z" />
    <glyph glyph-name="xi" unicode="&#x3be;" horiz-adv-x="461" 
d="M117 212q0 -40 14 -66.5t38 -44.5t56 -29.5t68 -20.5t63 -18t46 -20.5t28.5 -27t9.5 -37.5q0 -23 -5 -39.5t-15 -29.5t-24.5 -25t-33.5 -26l-37 43q29 21 40 36t11 32q0 11 -8.5 19t-22 14t-31 11t-34.5 9q-49 12 -91 28t-73 41t-49 61t-18 88v16q0 42 13.5 72.5t36 51
t51.5 32t61 15.5q-26 4 -50.5 16.5t-43.5 32.5t-30.5 48t-11.5 65v19q0 34 12 63t36.5 50t61 33t85.5 12q45 0 84.5 -9t78.5 -38l-30 -50q-32 21 -63.5 28.5t-68.5 7.5q-128 0 -128 -100v-15q0 -28 11.5 -53t33 -43.5t51.5 -29t67 -10.5h51v-59h-54q-41 0 -75 -8.5t-59 -26
t-38.5 -44.5t-13.5 -63v-11z" />
    <glyph glyph-name="omicron" unicode="&#x3bf;" horiz-adv-x="568" 
d="M284 523q109 0 169 -64t60 -181v-67q0 -117 -60 -181t-169 -64t-169 64t-60 181v67q0 118 60 181.5t169 63.5zM284 26q75 0 117.5 46.5t42.5 142.5v59q0 96 -42.5 142.5t-117.5 46.5t-117.5 -46.5t-42.5 -142.5v-59q0 -96 42.5 -142.5t117.5 -46.5z" />
    <glyph glyph-name="pi" unicode="&#x3c0;" horiz-adv-x="570" 
d="M520 -24q-14 -5 -32.5 -7.5t-29.5 -2.5q-48 0 -70.5 26.5t-22.5 81.5v377h-163v-477h-65v477h-117v62h530v-62h-117v-371q0 -29 10 -42.5t34 -13.5q8 0 16.5 2t15.5 4z" />
    <glyph glyph-name="rho" unicode="&#x3c1;" horiz-adv-x="558" 
d="M279 523q109 0 166.5 -64t57.5 -181v-67q0 -117 -57.5 -181t-163.5 -64q-48 0 -90.5 17.5t-68.5 55.5v-279h-68v518q0 118 57.5 181.5t166.5 63.5zM279 26q75 0 115 46.5t40 142.5v59q0 96 -40 142.5t-115 46.5t-115 -46.5t-40 -142.5v-59q0 -96 40 -142.5t115 -46.5z
" />
    <glyph glyph-name="sigma" unicode="&#x3c3;" horiz-adv-x="564" 
d="M544 453h-110q42 -35 60.5 -79.5t18.5 -105.5v-57q0 -117 -60 -181t-169 -64t-169 64t-60 181v57q0 115 57.5 178t160.5 67h271v-60zM284 26q75 0 117.5 46.5t42.5 142.5v49q0 96 -42.5 142.5t-117.5 46.5t-117.5 -46.5t-42.5 -142.5v-49q0 -96 42.5 -142.5t117.5 -46.5z
" />
    <glyph glyph-name="tau" unicode="&#x3c4;" horiz-adv-x="538" 
d="M419 -21q-14 -5 -36.5 -9t-44.5 -4q-54 0 -84.5 28t-30.5 83v374h-207v62h506v-62h-231v-368q0 -29 15 -43t41 -14q19 0 35 4t23 6z" />
    <glyph glyph-name="upsilon" unicode="&#x3c5;" horiz-adv-x="583" 
d="M291 28q67 0 105.5 44.5t38.5 145.5v295h68v-311q0 -114 -53 -175t-159 -61t-158.5 61t-52.5 175v311h68v-295q0 -102 36 -146t107 -44z" />
    <glyph glyph-name="phi" unicode="&#x3c6;" horiz-adv-x="670" 
d="M301 -240v208q-55 4 -100.5 23.5t-78.5 51t-51.5 75.5t-18.5 98v57q0 58 21 104.5t59 79t89.5 49.5t113.5 17q61 0 113 -17.5t90 -49.5t59 -78.5t21 -104.5v-57q0 -54 -18.5 -98t-51.5 -75.5t-78.5 -51t-100.5 -23.5v-208h-68zM550 269q0 43 -13 77t-37 58.5t-57.5 39
t-73.5 18.5v-436q40 4 73.5 19t57.5 39.5t37 58.5t13 77v49zM120 220q0 -43 13 -77t37 -58.5t57.5 -39.5t73.5 -19v436q-40 -4 -73.5 -18.5t-57.5 -39t-37 -58.5t-13 -77v-49z" />
    <glyph glyph-name="chi" unicode="&#x3c7;" horiz-adv-x="541" 
d="M272 200l133 313h76l-167 -357l128 -312q7 -16 13.5 -24.5t20.5 -8.5q9 0 17 2.5t15 5.5l19 -54q-15 -7 -30.5 -10.5t-26.5 -3.5q-36 0 -56 16t-33 47l-115 290l-159 -344h-77l192 394l-113 279q-6 17 -13 25t-21 8q-9 0 -17 -2.5t-15 -5.5l-18 52q15 7 31.5 10t27.5 3
q36 0 54.5 -13.5t32.5 -49.5z" />
    <glyph glyph-name="psi" unicode="&#x3c8;" horiz-adv-x="726" 
d="M329 -240v207q-116 8 -182.5 74t-66.5 189v283h69v-279q0 -50 13 -87t36.5 -61.5t56.5 -38t74 -17.5v483h68v-483q41 4 74 17.5t56.5 38t36.5 61.5t13 87v279h69v-283q0 -62 -17.5 -109t-49.5 -80t-78 -51.5t-104 -22.5v-207h-68z" />
    <glyph glyph-name="omega" unicode="&#x3c9;" horiz-adv-x="732" 
d="M366 53q-17 -41 -53 -64t-81 -23q-34 0 -66 13t-56.5 42.5t-39.5 77.5t-15 119v29q0 73 24.5 147t62.5 131l55 -29q-16 -29 -29.5 -57t-23 -58t-15 -64t-5.5 -74v-21q0 -55 9.5 -92.5t26 -60.5t38 -33t44.5 -10q37 0 63.5 32.5t26.5 82.5v238h68v-237q0 -25 7.5 -46
t20 -36.5t29 -24.5t34.5 -9q23 0 44.5 10t37.5 33t25.5 60.5t9.5 92.5v21q0 40 -5.5 74t-15 64t-22.5 58t-29 57l54 29q38 -57 62.5 -131t24.5 -147v-29q0 -71 -14.5 -119t-39 -77.5t-56.5 -42.5t-66 -13q-45 0 -80.5 23t-52.5 64h-2z" />
    <glyph glyph-name="uni0401" unicode="&#x401;" horiz-adv-x="588" 
d="M517 695v-62h-364v-258h343v-62h-343v-277h371v-62h-441v721h434zM350 832h66v-72h-66v72zM194 832h66v-72h-66v72z" />
    <glyph glyph-name="uni0410" unicode="&#x410;" horiz-adv-x="658" 
d="M636 -26h-75l-80 224h-305l-82 -224h-72l268 721h79zM198 259h261l-70 195q-7 18 -13 35t-13 37.5t-15 46t-19 60.5q-10 -35 -18 -60.5t-15 -46t-13 -37.5t-13 -35z" />
    <glyph glyph-name="uni0411" unicode="&#x411;" horiz-adv-x="599" 
d="M153 36h185q85 0 125.5 32.5t40.5 96.5v32q0 71 -39.5 102.5t-120.5 31.5h-191v-295zM513 633h-360v-241h189q53 0 96 -11t73.5 -34t47 -60t16.5 -88v-35q0 -89 -56.5 -139.5t-174.5 -50.5h-261v721h430v-62z" />
    <glyph glyph-name="uni0412" unicode="&#x412;" horiz-adv-x="615" 
d="M83 695h230q229 0 229 -176v-21q0 -24 -6 -46.5t-19.5 -41.5t-36 -33.5t-54.5 -22.5q66 -10 107.5 -50t41.5 -115v-25q0 -89 -56.5 -139.5t-174.5 -50.5h-261v721zM152 36h186q85 0 125.5 32.5t40.5 96.5v22q0 33 -9 58t-31 42t-58 25.5t-90 8.5h-164v-285zM152 634v-254
h163q75 0 116 26t41 94v18q0 64 -39.5 90t-124.5 26h-156z" />
    <glyph glyph-name="uni0413" unicode="&#x413;" horiz-adv-x="504" 
d="M83 -26v721h411v-61h-341v-660h-70z" />
    <glyph glyph-name="uni0414" unicode="&#x414;" horiz-adv-x="652" 
d="M562 695v-660h60v-231h-70v170h-460v-170h-70v231h53q40 67 62 136t31.5 136.5t11 132.5t1.5 125v130h381zM251 565q0 -68 -2.5 -136t-12 -135.5t-28.5 -132.5t-52 -126h336v599h-241v-69z" />
    <glyph glyph-name="uni0415" unicode="&#x415;" horiz-adv-x="588" 
d="M517 695v-62h-364v-258h343v-62h-343v-277h371v-62h-441v721h434z" />
    <glyph glyph-name="uni0416" unicode="&#x416;" horiz-adv-x="893" 
d="M412 320h-24q-20 0 -35.5 -5.5t-29 -17t-27.5 -29.5t-31 -44l-163 -250h-82l194 292q25 38 45.5 57.5t44.5 28.5q-14 7 -27.5 20t-26 29.5t-23 36t-18.5 38.5l-35 80q-10 22 -19 37.5t-19 25t-22 14t-28 4.5q-8 0 -17.5 -1t-20.5 -5l-18 61q10 4 24.5 6.5t27.5 2.5
q27 0 48 -5t37.5 -17t30.5 -32.5t29 -51.5l39 -84q12 -27 24 -50t26 -40t31 -27t39 -10h26v311h69v-311h26q22 0 39 10t31 27t26 40t24 50l39 84q14 31 28.5 51.5t31 32.5t37.5 17t48 5q13 0 27.5 -2.5t24.5 -6.5l-18 -61q-11 4 -20.5 5t-17.5 1q-32 0 -50.5 -18.5
t-37.5 -62.5l-35 -80q-8 -19 -18.5 -38.5t-23 -36t-26 -29.5t-27.5 -20q24 -9 44.5 -28.5t45.5 -57.5l194 -292h-82l-163 250q-17 26 -31 44t-27.5 29.5t-29 17t-35.5 5.5h-24v-346h-69v346z" />
    <glyph glyph-name="uni0417" unicode="&#x417;" horiz-adv-x="546" 
d="M44 594q16 24 36 44.5t46.5 35.5t60 23.5t75.5 8.5q57 0 98.5 -13t69.5 -36.5t41.5 -56.5t13.5 -73v-11q0 -53 -37 -97.5t-107 -64.5q37 -4 69 -17.5t54.5 -35t35.5 -51t13 -64.5v-15q0 -39 -14 -76t-44.5 -66.5t-78.5 -47.5t-115 -18t-128.5 19.5t-112.5 60.5l35 55
q53 -38 104 -55t102 -17q47 0 81.5 13t57 34t33.5 46.5t11 50.5v13q0 43 -19.5 69.5t-48 41.5t-61 20.5t-58.5 5.5h-81v60h84q34 0 62 12.5t48.5 32.5t32 44.5t11.5 47.5v9q0 54 -36.5 85.5t-114.5 31.5q-46 0 -87.5 -17t-76.5 -67z" />
    <glyph glyph-name="uni0418" unicode="&#x418;" horiz-adv-x="681" 
d="M598 -26h-67v631q-10 -23 -17 -36t-16 -29l-332 -566h-83v721h67v-631q11 23 18 37.5t16 29.5l331 564h83v-721z" />
    <glyph glyph-name="uni0419" unicode="&#x419;" horiz-adv-x="681" 
d="M598 -26h-67v631q-10 -23 -17 -36t-16 -29l-332 -566h-83v721h67v-631q11 23 18 37.5t16 29.5l331 564h83v-721zM340 707q-56 0 -91.5 33.5t-38.5 89.5h52q5 -34 24.5 -53t53.5 -19q35 0 54 19t24 53h52q-2 -56 -38 -89.5t-92 -33.5z" />
    <glyph glyph-name="uni041A" unicode="&#x41a;" horiz-adv-x="576" 
d="M72 695h70v-311h52q22 0 39 10t31 27t26 40t24 50l39 84q14 31 28.5 51.5t31 32.5t37.5 17t48 5q13 0 27.5 -2.5t24.5 -6.5l-18 -61q-11 4 -20.5 5t-17.5 1q-32 0 -50.5 -18.5t-37.5 -62.5l-35 -80q-8 -19 -18.5 -38.5t-23 -36t-26 -29.5t-27.5 -20q24 -9 44.5 -28.5
t45.5 -57.5l194 -292h-82l-163 250q-17 26 -31 44t-27.5 29.5t-29 17t-35.5 5.5h-50v-346h-70v721z" />
    <glyph glyph-name="uni041B" unicode="&#x41b;" horiz-adv-x="688" 
d="M605 695v-721h-70v660h-261v-228q0 -41 -1 -86.5t-7 -90.5t-19.5 -87t-38.5 -76.5t-64.5 -60t-96.5 -37.5l-17 63q58 17 92.5 47t52.5 75.5t23.5 109.5t5.5 148v284h401z" />
    <glyph glyph-name="uni041C" unicode="&#x41c;" horiz-adv-x="824" 
d="M188 502q-6 13 -11 22.5t-9 19.5t-8 21.5t-8 27.5v-619h-69v721h86l244 -528l245 528h83v-721h-69v619q-3 -16 -6.5 -27.5t-7.5 -21.5t-9 -19.5t-11 -22.5l-193 -408h-66z" />
    <glyph glyph-name="uni041D" unicode="&#x41d;" horiz-adv-x="677" 
d="M497 315h-371v-341h-70v721h70v-310h371v310h70v-721h-70v341z" />
    <glyph glyph-name="uni041E" unicode="&#x41e;" horiz-adv-x="692" 
d="M346 706q67 0 119 -22.5t88 -64.5t55 -101.5t19 -133.5v-99q0 -74 -19 -133.5t-55 -101.5t-88 -64.5t-119 -22.5t-119 22.5t-88 64.5t-55 101.5t-19 133.5v99q0 74 18.5 133.5t54.5 101.5t88.5 64.5t119.5 22.5zM346 26q97 0 153.5 67.5t56.5 197.5v87q0 130 -56.5 197.5
t-153.5 67.5t-153.5 -67.5t-56.5 -197.5v-87q0 -130 56.5 -197.5t153.5 -67.5z" />
    <glyph glyph-name="uni041F" unicode="&#x41f;" horiz-adv-x="661" 
d="M578 -26h-70v660h-355v-660h-70v721h495v-721z" />
    <glyph glyph-name="uni0420" unicode="&#x420;" horiz-adv-x="598" 
d="M83 695h244q57 0 100.5 -15.5t72.5 -43t43.5 -65.5t14.5 -82v-21q0 -44 -15.5 -82t-45 -66.5t-72.5 -44.5t-98 -16h-174v-285h-70v721zM153 632v-310h157q93 0 135 40t42 108v18q0 64 -40.5 104t-125.5 40h-168z" />
    <glyph glyph-name="uni0421" unicode="&#x421;" horiz-adv-x="630" 
d="M342 706q72 0 127.5 -18.5t100.5 -53.5l-36 -55q-49 35 -93 48t-99 13q-50 0 -88.5 -18.5t-64.5 -52t-39.5 -80t-13.5 -103.5v-92q0 -134 56.5 -199t156.5 -65q68 0 115.5 21.5t82.5 52.5l41 -55q-40 -36 -97 -61t-143 -25q-140 0 -211.5 87t-71.5 244v89
q0 154 72.5 238.5t204.5 84.5z" />
    <glyph glyph-name="uni0422" unicode="&#x422;" horiz-adv-x="571" 
d="M551 695v-62h-231v-659h-70v659h-230v62h531z" />
    <glyph glyph-name="uni0423" unicode="&#x423;" horiz-adv-x="552" 
d="M91 695l197 -446l177 446h72l-301 -732l-62 21l77 191l-236 520h76z" />
    <glyph glyph-name="uni0424" unicode="&#x424;" horiz-adv-x="742" 
d="M60 376q0 112 71.5 178t205.5 74v90h67v-90q134 -8 206 -74t72 -178v-53q0 -112 -72 -178t-206 -74v-97h-67v97q-134 8 -205.5 74t-71.5 178v53zM613 370q0 93 -57 141t-152 55v-433q96 7 152.5 54.5t56.5 141.5v41zM129 329q0 -93 56 -141t152 -55v433q-96 -7 -152 -55
t-56 -141v-41z" />
    <glyph glyph-name="uni0425" unicode="&#x425;" horiz-adv-x="641" 
d="M365 348l242 -374h-86l-201 327l-206 -327h-80l243 375l-231 346h82l196 -302l189 302h79z" />
    <glyph glyph-name="uni0426" unicode="&#x426;" horiz-adv-x="658" 
d="M153 695v-660h345v660h70v-660h60v-231h-70v170h-475v721h70z" />
    <glyph glyph-name="uni0427" unicode="&#x427;" horiz-adv-x="611" 
d="M140 695v-242q0 -45 10 -75t30 -47t50.5 -24t71.5 -7q42 0 84.5 10.5t71.5 28.5v356h70v-721h-70v300q-14 -8 -34 -15t-42.5 -12t-46.5 -8t-45 -3q-36 0 -74.5 7.5t-71 30t-53.5 62.5t-21 106v253h70z" />
    <glyph glyph-name="uni0428" unicode="&#x428;" horiz-adv-x="940" 
d="M152 695v-660h283v660h69v-660h283v660h70v-721h-774v721h69z" />
    <glyph glyph-name="uni0429" unicode="&#x429;" horiz-adv-x="947" 
d="M83 695h69v-659h283v659h69v-659h283v659h70v-660h60v-231h-70v170h-764v721z" />
    <glyph glyph-name="uni042A" unicode="&#x42a;" horiz-adv-x="660" 
d="M214 35h185q85 0 125.5 34.5t40.5 98.5v35q0 71 -39.5 104t-120.5 33h-191v-305zM5 695h209v-294h189q53 0 96 -11.5t73.5 -35.5t47 -61t16.5 -88v-38q0 -89 -57 -141t-174 -52h-261v659h-139v62z" />
    <glyph glyph-name="uni042B" unicode="&#x42b;" horiz-adv-x="817" 
d="M734 695v-721h-70v721h70zM153 35h185q85 0 125.5 34.5t40.5 98.5v35q0 71 -39.5 104t-120.5 33h-191v-305zM153 695v-294h189q53 0 96 -11.5t73.5 -35.5t47 -61t16.5 -88v-38q0 -89 -57 -141t-174 -52h-261v721h70z" />
    <glyph glyph-name="uni042C" unicode="&#x42c;" horiz-adv-x="599" 
d="M153 35h185q85 0 125.5 34.5t40.5 98.5v35q0 71 -39.5 104t-120.5 33h-191v-305zM153 695v-294h189q53 0 96 -11.5t73.5 -35.5t47 -61t16.5 -88v-38q0 -89 -57 -141t-174 -52h-261v721h70z" />
    <glyph glyph-name="uni042D" unicode="&#x42d;" horiz-adv-x="630" 
d="M157 369h339v17q0 57 -14 104t-40.5 80.5t-65 52t-88.5 18.5q-55 0 -99 -13t-93 -48l-36 54q45 35 100.5 53.5t127.5 18.5q132 0 204.5 -84.5t72.5 -238.5v-89q0 -157 -71.5 -244t-211.5 -87q-86 0 -143 25t-97 61l41 54q35 -31 82.5 -52.5t115.5 -21.5q100 0 157.5 66
t57.5 199v15h-339v60z" />
    <glyph glyph-name="uni042E" unicode="&#x42e;" horiz-adv-x="907" 
d="M568 706q67 0 118 -22.5t85.5 -64.5t52.5 -101.5t18 -133.5v-99q0 -74 -18 -133.5t-52.5 -101.5t-85.5 -64.5t-118 -22.5t-118 22.5t-85.5 64.5t-52.5 101.5t-18 133.5v17h-139v-328h-72v721h72v-332h139v21q0 74 17.5 133.5t52 101.5t86 64.5t118.5 22.5zM568 26
q97 0 150 67.5t53 197.5v87q0 130 -53 197.5t-150 67.5t-150 -67.5t-53 -197.5v-87q0 -130 53 -197.5t150 -67.5z" />
    <glyph glyph-name="uni042F" unicode="&#x42f;" horiz-adv-x="632" 
d="M549 -26h-70v311h-148q-20 0 -34.5 -5.5t-26 -17t-22 -29t-22.5 -42.5l-104 -217h-82l116 234q20 39 34.5 61.5t37.5 31.5q-71 11 -113 61t-42 122v15q0 42 15 78t44.5 62.5t71.5 41t96 14.5h249v-721zM310 632q-85 0 -125.5 -36t-40.5 -99v-10q0 -66 41.5 -102.5
t135.5 -36.5h158v284h-169z" />
    <glyph glyph-name="uni0430" unicode="&#x430;" horiz-adv-x="533" 
d="M226 -34q-77 0 -125 41t-48 113v22q0 66 48 107t142 41h152v50q0 59 -32.5 90.5t-95.5 31.5q-44 0 -84 -15.5t-75 -39.5l-33 52q38 26 84.5 45t108.5 19q91 0 142.5 -45t51.5 -127v-377h-66v66h-1q-8 -13 -23.5 -26.5t-36.5 -24.5q-46 -23 -109 -23zM395 233h-151
q-65 0 -94 -26t-29 -68v-16q0 -26 10 -44.5t26.5 -30.5t37 -17.5t41.5 -5.5q32 0 58 8t50 23q22 14 36.5 34.5t14.5 51.5v91z" />
    <glyph glyph-name="uni0431" unicode="&#x431;" horiz-adv-x="545" 
d="M289 488q105 0 164.5 -64t59.5 -181v-32q0 -117 -60 -181t-169 -64t-169 64t-60 181v43q0 127 19.5 214t66 143t124 85t192.5 41l8 -63q-69 -8 -125.5 -21.5t-98.5 -40.5t-68.5 -71.5t-36.5 -113.5q28 33 71 47t82 14zM284 26q75 0 117.5 46.5t42.5 142.5v24
q0 96 -42.5 142.5t-117.5 46.5t-117.5 -46.5t-42.5 -142.5v-24q0 -96 42.5 -142.5t117.5 -46.5z" />
    <glyph glyph-name="uni0432" unicode="&#x432;" horiz-adv-x="517" 
d="M80 513h209q87 0 135 -33t48 -100v-15q0 -36 -20.5 -65.5t-69.5 -41.5q51 -8 83 -38t32 -87v-15q0 -68 -48 -106t-137 -38h-232v539zM147 34h150q64 0 97.5 20t33.5 64v14q0 48 -33 71t-115 23h-133v-192zM147 453v-167h132q28 0 51.5 3.5t39.5 12.5t25 24.5t9 39.5v13
q0 46 -33 60t-97 14h-127z" />
    <glyph glyph-name="uni0433" unicode="&#x433;" horiz-adv-x="398" 
d="M393 513v-59h-245v-480h-68v539h313z" />
    <glyph glyph-name="uni0434" unicode="&#x434;" horiz-adv-x="570" 
d="M487 513v-479h48v-197h-68v137h-379v-137h-68v197h43q33 54 50 99t25 86.5t9 83t1 89.5v121h339zM216 392q0 -54 -1.5 -98.5t-9 -85.5t-22.5 -83t-42 -91h278v419h-203v-61z" />
    <glyph glyph-name="uni0435" unicode="&#x435;" horiz-adv-x="545" 
d="M423 279v9q0 85 -39 130t-110 45q-72 0 -111.5 -47.5t-39.5 -127.5v-9h300zM479 27q-32 -23 -80 -42t-116 -19q-108 0 -168 64.5t-60 182.5v67q0 115 58.5 179t160.5 64q106 0 161.5 -65.5t55.5 -179.5v-56h-368v-9q0 -90 43 -138.5t118 -48.5q54 0 95 16t70 37z" />
    <glyph glyph-name="uni0436" unicode="&#x436;" horiz-adv-x="698" 
d="M315 226h-17q-15 0 -26.5 -3t-22 -10.5t-20.5 -20t-23 -31.5l-122 -187h-80l145 218q19 28 34.5 42t40.5 22q-24 8 -41 28.5t-30 49.5l-26 60q-14 33 -28 49.5t-38 16.5q-13 0 -28 -4l-13 55q8 3 24 5t25 2q41 0 64 -17t45 -63l29 -63q18 -40 37 -64.5t52 -24.5h19v227
h68v-227h19q33 0 52 24.5t37 64.5l29 63q22 46 45 63t64 17q9 0 25 -2t24 -5l-13 -55q-15 4 -28 4q-24 0 -38 -16.5t-28 -49.5l-26 -60q-13 -29 -30 -49.5t-41 -28.5q25 -8 40.5 -22t34.5 -42l145 -218h-80l-122 187q-13 19 -23 31.5t-20.5 20t-22 10.5t-26.5 3h-17v-252
h-68v252z" />
    <glyph glyph-name="uni0437" unicode="&#x437;" horiz-adv-x="441" 
d="M31 437q28 36 72.5 61t108.5 25q86 0 133 -36.5t47 -98.5v-8q0 -49 -30.5 -79.5t-84.5 -42.5q28 -2 53 -11t43.5 -24.5t29.5 -38.5t11 -51v-11q0 -33 -12.5 -61.5t-38 -49.5t-63 -33t-88.5 -12q-53 0 -105.5 15t-90.5 45l31 53q40 -29 81.5 -41t83.5 -12q66 0 100.5 28.5
t34.5 66.5v10q0 32 -14.5 51t-35.5 29t-45 13t-43 3h-61v58h63q51 0 82 28t31 68v6q0 35 -27 56t-84 21q-30 0 -68.5 -15t-68.5 -53z" />
    <glyph glyph-name="uni0438" unicode="&#x438;" horiz-adv-x="587" 
d="M507 -26h-67v459q-6 -17 -12.5 -28.5t-11.5 -20.5l-256 -410h-80v539h67v-459q9 20 14.5 30.5t10.5 19.5l256 409h79v-539z" />
    <glyph glyph-name="uni0439" unicode="&#x439;" horiz-adv-x="587" 
d="M507 -26h-67v459q-6 -17 -12.5 -28.5t-11.5 -20.5l-256 -410h-80v539h67v-459q9 20 14.5 30.5t10.5 19.5l256 409h79v-539zM300 565q-56 0 -91.5 33.5t-38.5 89.5h52q5 -34 24.5 -53t53.5 -19q35 0 54 19t24 53h52q-2 -56 -38 -89.5t-92 -33.5z" />
    <glyph glyph-name="uni043A" unicode="&#x43a;" horiz-adv-x="488" 
d="M78 513h68v-227h46q33 0 52 24.5t37 64.5l31 63q11 23 21.5 38.5t22.5 24.5t27 13t36 4q9 0 25.5 -2t24.5 -5l-13 -55q-15 4 -28 4q-24 0 -38 -16.5t-28 -49.5l-26 -60q-13 -29 -30 -49.5t-41 -28.5q25 -8 40.5 -22t34.5 -42l145 -218h-81l-122 187q-13 19 -23 31.5
t-20.5 20t-22 10.5t-26.5 3h-44v-252h-68v539z" />
    <glyph glyph-name="uni043B" unicode="&#x43b;" horiz-adv-x="571" 
d="M491 513v-539h-68v479h-230v-167q0 -46 -2 -98t-17.5 -98t-50 -79.5t-100.5 -42.5l-13 57q37 6 59.5 25.5t35 52t16.5 78t4 104.5v228h366z" />
    <glyph glyph-name="uni043C" unicode="&#x43c;" horiz-adv-x="683" 
d="M173 369q-9 19 -14.5 31.5t-12.5 36.5v-463h-66v539h99l164 -378l163 378h97v-539h-68v463q-3 -12 -6 -20.5t-5.5 -16t-6 -14.5t-7.5 -17l-144 -316h-51z" />
    <glyph glyph-name="uni043D" unicode="&#x43d;" horiz-adv-x="592" 
d="M148 513v-231h296v231h68v-539h-68v248h-296v-248h-68v539h68z" />
    <glyph glyph-name="uni043E" unicode="&#x43e;" horiz-adv-x="568" 
d="M284 523q109 0 169 -64t60 -181v-67q0 -117 -60 -181t-169 -64t-169 64t-60 181v67q0 118 60 181.5t169 63.5zM284 26q75 0 117.5 46.5t42.5 142.5v59q0 96 -42.5 142.5t-117.5 46.5t-117.5 -46.5t-42.5 -142.5v-59q0 -96 42.5 -142.5t117.5 -46.5z" />
    <glyph glyph-name="uni043F" unicode="&#x43f;" horiz-adv-x="569" 
d="M489 513v-539h-68v479h-273v-479h-68v539h409z" />
    <glyph glyph-name="uni0440" unicode="&#x440;" horiz-adv-x="579" 
d="M148 38v-278h-68v753h67v-76q24 41 67.5 63.5t94.5 22.5q48 0 87.5 -15.5t67.5 -45t43.5 -72.5t15.5 -98v-95q0 -55 -16 -98t-44.5 -72.5t-68 -45t-85.5 -15.5q-57 0 -97.5 21.5t-62.5 50.5h-1zM455 282q0 87 -40.5 133t-109.5 46q-28 0 -56 -10t-50.5 -29.5t-36.5 -47
t-14 -63.5v-158q0 -24 11.5 -46.5t32.5 -40.5t49.5 -29t63.5 -11q69 0 109.5 47.5t40.5 133.5v75z" />
    <glyph glyph-name="uni0441" unicode="&#x441;" horiz-adv-x="494" 
d="M278 523q57 0 100 -13.5t77 -39.5l-31 -53q-38 26 -73 35.5t-73 9.5q-72 0 -113 -47.5t-41 -132.5v-69q0 -89 42 -137t114 -48q56 0 92.5 15.5t65.5 37.5l32 -54q-15 -11 -33 -22t-41 -19.5t-52 -14t-65 -5.5q-106 0 -165 64.5t-59 182.5v67q0 59 16.5 104.5t45.5 76
t70 46.5t91 16z" />
    <glyph glyph-name="uni0442" unicode="&#x442;" horiz-adv-x="423" 
d="M411 513v-60h-166v-479h-68v479h-165v60h399z" />
    <glyph glyph-name="uni0443" unicode="&#x443;" horiz-adv-x="505" 
d="M87 513l167 -463l164 463h70l-280 -762l-58 21l69 193l-202 548h70z" />
    <glyph glyph-name="uni0444" unicode="&#x444;" horiz-adv-x="657" 
d="M358 695v-173q118 -8 182 -73t64 -174v-61q0 -109 -64 -174t-182 -73v-194h-66v194q-118 8 -182 73t-64 174v61q0 110 64 174.5t182 72.5v173h66zM537 271q0 88 -47.5 134.5t-131.5 54.5v-432q84 8 131.5 55t47.5 135v53zM113 218q0 -88 48.5 -135t130.5 -55v432
q-85 -8 -132 -54.5t-47 -134.5v-53z" />
    <glyph glyph-name="uni0445" unicode="&#x445;" horiz-adv-x="509" 
d="M297 253l190 -279h-79l-153 237l-158 -237h-75l192 279l-181 260h76l148 -220l147 220h74z" />
    <glyph glyph-name="uni0446" unicode="&#x446;" horiz-adv-x="559" 
d="M476 513v-479h48v-197h-68v137h-376v539h68v-479h260v479h68z" />
    <glyph glyph-name="uni0447" unicode="&#x447;" horiz-adv-x="517" 
d="M108 513v-177q0 -51 28.5 -80t96.5 -29q41 0 77.5 8.5t60.5 25.5v252h68v-547h-68v234q-23 -14 -61.5 -23.5t-84.5 -9.5q-37 0 -70.5 9t-59 28t-40.5 49.5t-15 73.5v186h68z" />
    <glyph glyph-name="uni0448" unicode="&#x448;" horiz-adv-x="790" 
d="M80 -26v539h68v-479h213v479h68v-479h213v479h68v-539h-630z" />
    <glyph glyph-name="uni0449" unicode="&#x449;" horiz-adv-x="793" 
d="M710 34h48v-197h-68v137h-610v539h68v-479h213v479h68v-479h213v479h68v-479z" />
    <glyph glyph-name="uni044A" unicode="&#x44a;" horiz-adv-x="537" 
d="M177 34h143q63 0 91 24t28 72v20q0 53 -27 76t-88 23h-147v-215zM5 513h172v-204h146q86 0 135 -36.5t49 -120.5v-23q0 -74 -43.5 -114.5t-139.5 -40.5h-215v480h-104v59z" />
    <glyph glyph-name="uni044B" unicode="&#x44b;" horiz-adv-x="687" 
d="M607 513v-539h-68v539h68zM148 34h143q63 0 91 24t28 72v20q0 53 -27 76t-88 23h-147v-215zM148 513v-204h146q86 0 135 -36.5t49 -120.5v-23q0 -74 -43.5 -114.5t-139.5 -40.5h-215v539h68z" />
    <glyph glyph-name="uni044C" unicode="&#x44c;" horiz-adv-x="508" 
d="M148 34h143q63 0 91 24t28 72v20q0 53 -27 76t-88 23h-147v-215zM148 513v-204h146q86 0 135 -36.5t49 -120.5v-23q0 -74 -43.5 -114.5t-139.5 -40.5h-215v539h68z" />
    <glyph glyph-name="uni044D" unicode="&#x44d;" horiz-adv-x="494" 
d="M135 278h235v4q0 85 -41 132.5t-113 47.5q-38 0 -73 -9.5t-73 -35.5l-31 53q34 26 77 39.5t100 13.5q49 0 90.5 -16t70.5 -46.5t45.5 -76t16.5 -104.5v-67q0 -118 -59 -182.5t-165 -64.5q-36 0 -65 5.5t-52 14t-41 19.5t-33 22l32 54q29 -22 65.5 -37.5t92.5 -15.5
q72 0 114 48t42 137v5h-235v60z" />
    <glyph glyph-name="uni044E" unicode="&#x44e;" horiz-adv-x="738" 
d="M464 523q108 0 163.5 -65.5t55.5 -179.5v-67q0 -114 -55.5 -179.5t-163.5 -65.5t-163.5 65.5t-55.5 179.5v5h-95v-242h-70v539h70v-239h95v4q0 115 55 180t164 65zM464 26q75 0 112.5 47.5t37.5 141.5v59q0 94 -37.5 141.5t-112.5 47.5t-112.5 -47.5t-37.5 -141.5v-59
q0 -94 37.5 -141.5t112.5 -47.5z" />
    <glyph glyph-name="uni044F" unicode="&#x44f;" horiz-adv-x="531" 
d="M451 -26h-68v226h-117q-30 0 -48.5 -13t-36.5 -51l-78 -162h-79l87 175q14 29 29.5 45.5t33.5 23.5q-54 9 -88 44t-34 93v11q0 36 14 63.5t38.5 46t58.5 28t74 9.5h214v-539zM249 453q-56 0 -92.5 -20.5t-36.5 -67.5v-7q0 -98 138 -98h125v193h-134z" />
    <glyph glyph-name="uni0451" unicode="&#x451;" horiz-adv-x="545" 
d="M423 279v9q0 85 -39 130t-110 45q-72 0 -111.5 -47.5t-39.5 -127.5v-9h300zM479 27q-32 -23 -80 -42t-116 -19q-108 0 -168 64.5t-60 182.5v67q0 115 58.5 179t160.5 64q106 0 161.5 -65.5t55.5 -179.5v-56h-368v-9q0 -90 43 -138.5t118 -48.5q54 0 95 16t70 37zM325 667
h66v-72h-66v72zM169 667h66v-72h-66v72z" />
    <glyph glyph-name="uni2010" unicode="&#x2010;" horiz-adv-x="418" 
d="M384 254h-350v73h350v-73z" />
    <glyph glyph-name="endash" unicode="&#x2013;" horiz-adv-x="412" 
d="M412 283h-412v58h412v-58z" />
    <glyph glyph-name="emdash" unicode="&#x2014;" horiz-adv-x="824" 
d="M824 283h-824v58h824v-58z" />
    <glyph glyph-name="uni2015" unicode="&#x2015;" horiz-adv-x="824" 
d="M824 283h-824v58h824v-58z" />
    <glyph glyph-name="uni2016" unicode="&#x2016;" 
d="M395 -180h-56v960h56v-960zM571 -180h-57v960h57v-960z" />
    <glyph glyph-name="quoteleft" unicode="&#x2018;" horiz-adv-x="200" 
d="M130 546h-83l70 225h55z" />
    <glyph glyph-name="quoteright" unicode="&#x2019;" horiz-adv-x="200" 
d="M70 757h83l-70 -225h-55z" />
    <glyph glyph-name="quotedblleft" unicode="&#x201c;" horiz-adv-x="350" 
d="M280 546h-83l70 225h55zM133 546h-83l70 225h55z" />
    <glyph glyph-name="quotedblright" unicode="&#x201d;" horiz-adv-x="350" 
d="M70 757h83l-70 -225h-55zM217 757h83l-70 -225h-55z" />
    <glyph glyph-name="dagger" unicode="&#x2020;" horiz-adv-x="494" 
d="M215 431h-162v58h162v204h63v-204h163v-58h-163v-522h-63v522z" />
    <glyph glyph-name="daggerdbl" unicode="&#x2021;" horiz-adv-x="494" 
d="M53 171h162v260h-162v58h162v204h63v-204h163v-58h-163v-260h163v-58h-163v-204h-63v204h-162v58z" />
    <glyph glyph-name="twodotenleader" unicode="&#x2025;" 
d="M547 353h101v-100h-101v100zM261 353h101v-100h-101v100z" />
    <glyph glyph-name="ellipsis" unicode="&#x2026;" 
d="M671 353h101v-100h-101v100zM405 353h101v-100h-101v100zM139 353h101v-100h-101v100z" />
    <glyph glyph-name="perthousand" unicode="&#x2030;" horiz-adv-x="1231" 
d="M187 -25l431 720h63l-430 -720h-64zM644 343q73 0 114 -43.5t41 -122.5v-45q0 -79 -41 -122.5t-114 -43.5t-114 43.5t-41 122.5v45q0 79 41 122.5t114 43.5zM644 17q44 0 70.5 27t26.5 90v41q0 63 -26.5 90t-70.5 27t-70.5 -27t-26.5 -90v-41q0 -63 26.5 -90t70.5 -27z
M225 703q73 0 114 -43.5t41 -122.5v-45q0 -79 -41 -122.5t-114 -43.5t-114 43.5t-41 122.5v45q0 79 41 122.5t114 43.5zM225 377q44 0 70.5 27t26.5 90v41q0 63 -26.5 90t-70.5 27t-70.5 -27t-26.5 -90v-41q0 -63 26.5 -90t70.5 -27zM1006 343q73 0 114 -43.5t41 -122.5v-45
q0 -79 -41 -122.5t-114 -43.5t-114 43.5t-41 122.5v45q0 79 41 122.5t114 43.5zM1006 17q44 0 70.5 27t26.5 90v41q0 63 -26.5 90t-70.5 27t-70.5 -27t-26.5 -90v-41q0 -63 26.5 -90t70.5 -27z" />
    <glyph glyph-name="minute" unicode="&#x2032;" horiz-adv-x="457" 
d="M317 730l-133 -242h-44l91 242h86z" />
    <glyph glyph-name="second" unicode="&#x2033;" horiz-adv-x="590" 
d="M314 730l-133 -242h-41l91 242h83zM450 730l-133 -242h-41l91 242h83z" />
    <glyph glyph-name="uni203B" unicode="&#x203b;" 
d="M816 -6l-45 -44l-320 323l-319 -323l-42 42l322 320l-320 321l41 44l319 -323l322 323l40 -42l-322 -321zM515 611q0 -28 -20 -49t-49 -21q-28 0 -49 21t-21 49t20.5 48.5t48.5 20.5t48.5 -20.5t20.5 -48.5h1zM218 311q0 -27 -20 -47.5t-49 -20.5q-27 0 -48.5 20.5
t-21.5 47.5q0 29 21 49.5t48 20.5q28 0 48.5 -20.5t20.5 -49.5h1zM831 311q0 -27 -20.5 -47t-48.5 -20q-27 0 -48 20t-21 47q0 30 20 50t48 20t49 -20t21 -50zM515 3q0 -27 -20 -47.5t-49 -20.5q-28 0 -48 20.5t-20 47.5q0 29 19.5 49.5t47.5 20.5t49 -20.5t21 -49.5z" />
    <glyph glyph-name="uni203E" unicode="&#x203e;" 
d="M905 723h-900v39h900v-39z" />
    <glyph glyph-name="uni2074" unicode="&#x2074;" horiz-adv-x="400" 
d="M309 577v-139h66v-55h-66v-99h-61v99h-223v48l207 311h70l-205 -304h151v139h61z" />
    <glyph glyph-name="uni207F" unicode="&#x207f;" horiz-adv-x="465" 
d="M412 284h-67v276q0 51 -23 80t-80 29q-24 0 -45 -8.5t-37 -23.5t-25.5 -34.5t-9.5 -41.5v-277h-66v436h64v-58q19 28 51.5 47t81.5 19q70 0 113 -39.5t43 -113.5v-291z" />
    <glyph glyph-name="uni2081" unicode="&#x2081;" horiz-adv-x="400" 
d="M207 -112v384l-108 -62l-29 50l146 86h54v-458h-63z" />
    <glyph glyph-name="uni2082" unicode="&#x2082;" horiz-adv-x="400" 
d="M217 128q19 21 30.5 37t17.5 28.5t8 22t2 18.5v6q0 26 -22 42t-57 16q-26 0 -52 -13t-49 -54l-47 32q7 15 19 31t30 29.5t41.5 22.5t55.5 9q70 0 107 -32t37 -83v-7q0 -37 -20 -69.5t-52 -66.5l-143 -154h231v-55h-308v53z" />
    <glyph glyph-name="uni2083" unicode="&#x2083;" horiz-adv-x="400" 
d="M60 289q19 28 50 48t83 20q63 0 100.5 -31t37.5 -83v-7q0 -28 -14.5 -58.5t-55.5 -46.5q45 -8 68.5 -37.5t23.5 -68.5v-9q0 -26 -9 -50t-28.5 -42.5t-50 -30t-73.5 -11.5q-80 0 -146 52l30 49q34 -24 60.5 -34t55.5 -10q51 0 74 22t23 54v7q0 23 -7.5 38.5t-20.5 24.5
t-31 13t-38 4h-54v55h52q43 0 60.5 24t17.5 54v6q0 30 -21.5 45.5t-53.5 15.5q-28 0 -48.5 -11t-39.5 -35z" />
    <glyph glyph-name="uni2084" unicode="&#x2084;" horiz-adv-x="400" 
d="M309 181v-139h66v-55h-66v-99h-61v99h-223v48l207 311h70l-205 -304h151v139h61z" />
    <glyph glyph-name="uni20A9" unicode="&#x20a9;" horiz-adv-x="947" 
d="M40 404h98l-70 291h67l64 -291h169l70 291h72l70 -291h170l66 291h64l-71 -291h98v-51h-111l-92 -379h-76l-91 379h-128l-91 -379h-76l-92 379h-110v51zM667 49h3l68 304h-145zM279 49h3l73 304h-144zM421 404h104l-52 216z" />
    <glyph glyph-name="uni2103" unicode="&#x2103;" horiz-adv-x="800" 
d="M249 622q0 -38 -26 -64t-69 -26t-69 26t-26 64t26 64t69 26t69 -26t26 -64zM528 706q72 0 127.5 -18.5t100.5 -53.5l-36 -55q-49 35 -93 48t-99 13q-50 0 -88.5 -18.5t-64.5 -52t-39.5 -80t-13.5 -103.5v-92q0 -134 56.5 -199t156.5 -65q68 0 115.5 21.5t82.5 52.5
l41 -55q-40 -36 -97 -61t-143 -25q-140 0 -211.5 87t-71.5 244v89q0 154 72.5 238.5t204.5 84.5zM105 622q0 -23 13 -37.5t36 -14.5t36 14.5t13 37.5t-13 37.5t-36 14.5t-36 -14.5t-13 -37.5z" />
    <glyph glyph-name="uni2109" unicode="&#x2109;" horiz-adv-x="800" 
d="M313 -26v721h428v-62h-358v-276h337v-62h-337v-321h-70zM249 622q0 -38 -26 -64t-69 -26t-69 26t-26 64t26 64t69 26t69 -26t26 -64zM105 622q0 -23 13 -37.5t36 -14.5t36 14.5t13 37.5t-13 37.5t-36 14.5t-36 -14.5t-13 -37.5z" />
    <glyph glyph-name="uni2113" unicode="&#x2113;" 
d="M482 -34q-26 0 -48 6.5t-39 21t-26.5 36.5t-9.5 53v433q0 38 5.5 72.5t19.5 60.5t37 41.5t59 15.5q37 0 61 -15.5t37 -41.5t18 -60.5t5 -72.5v-90q0 -127 -45 -201t-127 -110v-19q0 -67 58 -67q44 0 73 30l34 -48q-17 -22 -47 -33.5t-65 -11.5zM429 186q42 18 72 77.5
t30 161.5v77q0 27 -1.5 52t-7 44t-15.5 30.5t-27 11.5t-27.5 -11.5t-15.5 -30.5t-6.5 -44t-1.5 -52v-316z" />
    <glyph glyph-name="uni2116" unicode="&#x2116;" 
d="M78 695h85l209 -539q6 -17 12 -42t9 -50v631h67v-721h-85l-210 539q-6 16 -12 41t-8 47v-627h-67v721zM682 511q81 0 122.5 -49t41.5 -137v-41q0 -88 -41.5 -137t-122.5 -49t-122.5 49t-41.5 137v41q0 89 41.5 137.5t122.5 48.5zM682 156q100 0 100 134v29
q0 133 -100 133q-51 0 -74.5 -32.5t-23.5 -100.5v-29q0 -68 23.5 -101t74.5 -33zM540 38h285v-64h-285v64z" />
    <glyph glyph-name="uni2121" unicode="&#x2121;" horiz-adv-x="1054" 
d="M690 513v-62h-218v-166h197v-62h-197v-187h225v-62h-295v539h288zM461 695v-62h-192v-659h-69v659h-190v62h451zM836 513v-477h208v-62h-278v539h70z" />
    <glyph glyph-name="trademark" unicode="&#x2122;" horiz-adv-x="741" 
d="M333 695h79l93 -199h2l88 199h81v-326h-55v261h-3l-89 -196h-49l-93 196h-2v-261h-52v326zM130 645h-103v50h264v-50h-103v-276h-58v276z" />
    <glyph glyph-name="Omega" unicode="&#x2126;" 
d="M90 32h198q-27 16 -51 42t-41.5 59.5t-27.5 73.5t-10 84v99q0 74 21 132.5t60 99.5t94 62.5t122 21.5t121.5 -21.5t93.5 -62.5t60.5 -99.5t21.5 -132.5v-99q0 -45 -10 -85t-27.5 -73t-41 -59t-51.5 -42h197v-58h-283v64q24 12 50 35t47 55.5t34.5 74t13.5 91.5v90
q0 64 -16.5 113t-46.5 81t-71.5 48.5t-91.5 16.5t-91.5 -16.5t-71.5 -48.5t-46.5 -81t-16.5 -113v-90q0 -50 11 -91.5t30.5 -74t46 -55.5t56.5 -35v-64h-283v58z" />
    <glyph glyph-name="uni212B" unicode="&#x212b;" horiz-adv-x="658" 
d="M22 -26l256 690q-20 12 -31 32.5t-11 44.5q0 18 7 34t19 28t29 19.5t38 7.5q20 0 37 -7.5t29.5 -19.5t19.5 -28t7 -34q0 -24 -11.5 -44t-30.5 -32l256 -691h-75l-80 224h-305l-82 -224h-72zM198 259h261l-70 195q-7 18 -13 35t-13 37.5t-15 46t-19 60.5
q-10 -35 -18 -60.5t-15 -46t-13 -37.5t-13 -35zM329 688q23 0 36 15t13 38q0 22 -13 36t-36 14t-36.5 -14t-13.5 -36q0 -23 13.5 -38t36.5 -15z" />
    <glyph glyph-name="onethird" unicode="&#x2153;" horiz-adv-x="920" 
d="M700 709h67l-523 -775h-67zM207 237v384l-108 -62l-29 50l146 86h54v-458h-63zM580 316q19 28 50 48t83 20q63 0 100.5 -31t37.5 -83v-7q0 -28 -14.5 -58.5t-55.5 -46.5q45 -8 68.5 -37.5t23.5 -68.5v-9q0 -26 -9 -50t-28.5 -42.5t-50 -30t-73.5 -11.5q-80 0 -146 52
l30 49q34 -24 60.5 -34t55.5 -10q51 0 74 22t23 54v7q0 23 -7.5 38.5t-20.5 24.5t-31 13t-38 4h-54v55h52q43 0 60.5 24t17.5 54v6q0 30 -21.5 45.5t-53.5 15.5q-28 0 -48.5 -11t-39.5 -35z" />
    <glyph glyph-name="twothirds" unicode="&#x2154;" horiz-adv-x="958" 
d="M738 709h67l-523 -775h-67zM211 477q19 21 30.5 37t17.5 28.5t8 22t2 18.5v6q0 26 -22 42t-57 16q-26 0 -52 -13t-49 -54l-47 32q7 15 19 31t30 29.5t41.5 22.5t55.5 9q70 0 107 -32t37 -83v-7q0 -37 -20 -69.5t-52 -66.5l-143 -154h231v-55h-308v53zM618 316
q19 28 50 48t83 20q63 0 100.5 -31t37.5 -83v-7q0 -28 -14.5 -58.5t-55.5 -46.5q45 -8 68.5 -37.5t23.5 -68.5v-9q0 -26 -9 -50t-28.5 -42.5t-50 -30t-73.5 -11.5q-80 0 -146 52l30 49q34 -24 60.5 -34t55.5 -10q51 0 74 22t23 54v7q0 23 -7.5 38.5t-20.5 24.5t-31 13t-38 4
h-54v55h52q43 0 60.5 24t17.5 54v6q0 30 -21.5 45.5t-53.5 15.5q-28 0 -48.5 -11t-39.5 -35z" />
    <glyph glyph-name="oneeighth" unicode="&#x215b;" horiz-adv-x="931" 
d="M700 709h67l-523 -775h-67zM645 257q0 -34 21 -55.5t56 -21.5t56.5 21.5t21.5 55.5v6q0 32 -21.5 50t-56.5 18t-56 -18t-21 -50v-6zM633 37q0 -31 24 -52t66 -21t65 21t23 52v8q0 36 -25 57t-63 21t-64 -21t-26 -57v-8zM571 46q0 38 23 67t59 40q-34 16 -51 43.5
t-17 60.5v10q0 25 9.5 46.5t27.5 37.5t43 25t57 9q63 0 100.5 -34t37.5 -84v-10q0 -33 -17.5 -60.5t-51.5 -43.5q36 -11 59.5 -40t23.5 -67v-11q0 -56 -41 -91t-111 -35t-110.5 35t-40.5 91v11zM207 237v384l-108 -62l-29 50l146 86h54v-458h-63z" />
    <glyph glyph-name="threeeighths" unicode="&#x215c;" horiz-adv-x="946" 
d="M715 709h67l-523 -775h-67zM660 257q0 -34 21 -55.5t56 -21.5t56.5 21.5t21.5 55.5v6q0 32 -21.5 50t-56.5 18t-56 -18t-21 -50v-6zM648 37q0 -31 24 -52t66 -21t65 21t23 52v8q0 36 -25 57t-63 21t-64 -21t-26 -57v-8zM586 46q0 38 23 67t59 40q-34 16 -51 43.5
t-17 60.5v10q0 25 9.5 46.5t27.5 37.5t43 25t57 9q63 0 100.5 -34t37.5 -84v-10q0 -33 -17.5 -60.5t-51.5 -43.5q36 -11 59.5 -40t23.5 -67v-11q0 -56 -41 -91t-111 -35t-110.5 35t-40.5 91v11zM60 636q19 28 50 48t83 20q63 0 100.5 -31t37.5 -83v-7q0 -28 -14.5 -58.5
t-55.5 -46.5q45 -8 68.5 -37.5t23.5 -68.5v-9q0 -26 -9 -50t-28.5 -42.5t-50 -30t-73.5 -11.5q-80 0 -146 52l30 49q34 -24 60.5 -34t55.5 -10q51 0 74 22t23 54v7q0 23 -7.5 38.5t-20.5 24.5t-31 13t-38 4h-54v55h52q43 0 60.5 24t17.5 54v6q0 30 -21.5 45.5t-53.5 15.5
q-28 0 -48.5 -11t-39.5 -35z" />
    <glyph glyph-name="fiveeighths" unicode="&#x215d;" horiz-adv-x="933" 
d="M702 709h67l-523 -775h-67zM647 257q0 -34 21 -55.5t56 -21.5t56.5 21.5t21.5 55.5v6q0 32 -21.5 50t-56.5 18t-56 -18t-21 -50v-6zM635 37q0 -31 24 -52t66 -21t65 21t23 52v8q0 36 -25 57t-63 21t-64 -21t-26 -57v-8zM573 46q0 38 23 67t59 40q-34 16 -51 43.5
t-17 60.5v10q0 25 9.5 46.5t27.5 37.5t43 25t57 9q63 0 100.5 -34t37.5 -84v-10q0 -33 -17.5 -60.5t-51.5 -43.5q36 -11 59.5 -40t23.5 -67v-11q0 -56 -41 -91t-111 -35t-110.5 35t-40.5 91v11zM354 376q0 -25 -8.5 -51t-27.5 -47.5t-49 -35t-72 -13.5q-48 0 -84.5 14
t-69.5 39l31 49q32 -26 62.5 -35.5t60.5 -9.5q28 0 46 8t28.5 20.5t14.5 28.5t4 32v8q0 45 -20.5 66.5t-65.5 21.5q-29 0 -51.5 -10.5t-37.5 -25.5h-45l15 260h240v-57h-183l-8 -138q15 13 37 19t48 6q33 0 58.5 -11t42.5 -29.5t25.5 -44t8.5 -54.5v-10z" />
    <glyph glyph-name="seveneighths" unicode="&#x215e;" horiz-adv-x="855" 
d="M624 709h67l-523 -775h-67zM569 257q0 -34 21 -55.5t56 -21.5t56.5 21.5t21.5 55.5v6q0 32 -21.5 50t-56.5 18t-56 -18t-21 -50v-6zM557 37q0 -31 24 -52t66 -21t65 21t23 52v8q0 36 -25 57t-63 21t-64 -21t-26 -57v-8zM495 46q0 38 23 67t59 40q-34 16 -51 43.5
t-17 60.5v10q0 25 9.5 46.5t27.5 37.5t43 25t57 9q63 0 100.5 -34t37.5 -84v-10q0 -33 -17.5 -60.5t-51.5 -43.5q36 -11 59.5 -40t23.5 -67v-11q0 -56 -41 -91t-111 -35t-110.5 35t-40.5 91v11zM168 237h-65l181 404h-244v54h311v-48z" />
    <glyph glyph-name="uni2160" unicode="&#x2160;" 
d="M420 695h70v-721h-70v721z" />
    <glyph glyph-name="uni2161" unicode="&#x2161;" 
d="M299 695h70v-721h-70v721zM541 695h70v-721h-70v721z" />
    <glyph glyph-name="uni2162" unicode="&#x2162;" 
d="M185 695h70v-721h-70v721zM655 695h70v-721h-70v721zM420 695h70v-721h-70v721z" />
    <glyph glyph-name="uni2163" unicode="&#x2163;" 
d="M327 695h77l172 -640h1l172 640h73l-207 -721h-82zM189 695h70v-721h-70v721z" />
    <glyph glyph-name="uni2164" unicode="&#x2164;" 
d="M157 695h77l222 -649h1l222 649h73l-258 -721h-80z" />
    <glyph glyph-name="uni2165" unicode="&#x2165;" 
d="M88 695h77l172 -643h1l172 643h73l-207 -721h-82zM651 695h70v-721h-70v721z" />
    <glyph glyph-name="uni2166" unicode="&#x2166;" 
d="M39 695h77l154 -638h1l150 638h73l-182 -721h-88zM553 695h70v-721h-70v721zM733 695h70v-721h-70v721z" />
    <glyph glyph-name="uni2167" unicode="&#x2167;" 
d="M44 695h75l106 -635h1l102 635h71l-132 -721h-88zM450 695h68v-721h-68v721zM611 695h68v-721h-68v721zM767 695h68v-721h-68v721z" />
    <glyph glyph-name="uni2168" unicode="&#x2168;" 
d="M632 348l199 -374h-84l-163 327l-168 -327h-78l200 375l-188 346h80l158 -302l151 302h77zM201 695h70v-721h-70v721z" />
    <glyph glyph-name="uni2169" unicode="&#x2169;" 
d="M499 348l242 -374h-86l-201 327l-206 -327h-80l243 375l-231 346h82l196 -302l189 302h79z" />
    <glyph glyph-name="uni2170" unicode="&#x2170;" 
d="M421 513h68v-539h-68v539zM418 692h74v-76h-74v76z" />
    <glyph glyph-name="uni2171" unicode="&#x2171;" 
d="M293 513h68v-539h-68v539zM290 692h74v-76h-74v76zM548 513h68v-539h-68v539zM545 692h74v-76h-74v76z" />
    <glyph glyph-name="uni2172" unicode="&#x2172;" 
d="M192 513h68v-539h-68v539zM189 692h74v-76h-74v76zM421 513h68v-539h-68v539zM418 692h74v-76h-74v76zM649 513h68v-539h-68v539zM646 692h74v-76h-74v76z" />
    <glyph glyph-name="uni2173" unicode="&#x2173;" 
d="M225 513h68v-539h-68v539zM222 692h74v-76h-74v76zM517 -26l-156 539h72l125 -467l120 467h70l-153 -539h-78z" />
    <glyph glyph-name="uni2174" unicode="&#x2174;" 
d="M418 -26l-197 539h73l163 -469l160 469h71l-194 -539h-76z" />
    <glyph glyph-name="uni2175" unicode="&#x2175;" 
d="M617 513h68v-539h-68v539zM614 692h74v-76h-74v76zM318 -26l-156 539h72l125 -467l120 467h70l-153 -539h-78z" />
    <glyph glyph-name="uni2176" unicode="&#x2176;" 
d="M542 513h68v-539h-68v539zM539 692h74v-76h-74v76zM243 -26l-152 539h72l121 -467l116 467h70l-149 -539h-78zM724 513h68v-539h-68v539zM721 692h74v-76h-74v76z" />
    <glyph glyph-name="uni2177" unicode="&#x2177;" 
d="M470 513h68v-539h-68v539zM467 692h74v-76h-74v76zM201 -26l-142 539h71l112 -467l107 467h69l-139 -539h-78zM620 513h68v-539h-68v539zM617 692h74v-76h-74v76zM770 513h68v-539h-68v539zM767 692h74v-76h-74v76z" />
    <glyph glyph-name="uni2178" unicode="&#x2178;" 
d="M234 513h68v-539h-68v539zM231 692h74v-76h-74v76zM612 253l160 -279h-78l-125 233l-127 -233h-75l162 279l-151 260h75l120 -216l116 216h74z" />
    <glyph glyph-name="uni2179" unicode="&#x2179;" 
d="M497 253l190 -279h-79l-153 237l-158 -237h-75l192 279l-181 260h76l148 -220l147 220h74z" />
    <glyph glyph-name="arrowleft" unicode="&#x2190;" 
d="M805 314h-553l75 -126l-15 -17l-208 173l208 173l15 -17l-75 -127h553v-59z" />
    <glyph glyph-name="arrowup" unicode="&#x2191;" 
d="M426 0v553l-127 -75l-17 15l173 208l173 -208l-17 -15l-127 75v-553h-58z" />
    <glyph glyph-name="arrowright" unicode="&#x2192;" 
d="M104 373h553l-75 127l15 17l208 -173l-208 -173l-15 17l75 126h-553v59z" />
    <glyph glyph-name="arrowdown" unicode="&#x2193;" 
d="M484 687v-552l127 74l17 -15l-173 -208l-173 208l17 15l127 -74v552h58z" />
    <glyph glyph-name="arrowboth" unicode="&#x2194;" 
d="M282 188l-15 -17l-208 173l208 173l15 -17l-75 -127h496l-75 127l15 17l208 -173l-208 -173l-15 17l75 126h-496z" />
    <glyph glyph-name="arrowupdn" unicode="&#x2195;" 
d="M484 553v-418l127 74l17 -15l-173 -208l-173 208l17 15l127 -74v418l-127 -75l-17 15l173 208l173 -208l-17 -15z" />
    <glyph glyph-name="uni2196" unicode="&#x2196;" 
d="M767 -11l-582 581l-36 -142l-23 -1l-25 269l269 -25l-1 -23l-142 -36l581 -581z" />
    <glyph glyph-name="uni2197" unicode="&#x2197;" 
d="M101 31l581 581l-142 36l-1 23l269 25l-25 -269l-23 1l-36 142l-582 -581z" />
    <glyph glyph-name="uni2198" unicode="&#x2198;" 
d="M142 698l582 -581l37 142l23 2l25 -270l-270 25l2 23l142 37l-582 581z" />
    <glyph glyph-name="uni2199" unicode="&#x2199;" 
d="M809 657l-582 -581l142 -37l2 -23l-270 -25l25 270l23 -2l37 -142l582 581z" />
    <glyph glyph-name="arrowdblright" unicode="&#x21d2;" 
d="M905 300l-256 -258l-33 32l115 114h-726v44h769l69 68q-17 18 -34.5 34.5t-34.5 34.5h-769v44h725l-114 112l33 32z" />
    <glyph glyph-name="arrowdblboth" unicode="&#x21d4;" 
d="M906 300l-256 -258l-33 32l115 114h-555l115 -114l-33 -32l-256 258l256 257l33 -32l-114 -112h553l-114 112l33 32zM844 300q-17 18 -34.5 34.5t-34.5 34.5h-641q-18 -19 -34 -34t-35 -35l69 -68h641z" />
    <glyph glyph-name="universal" unicode="&#x2200;" 
d="M148 695h75l80 -224h305l82 224h72l-268 -721h-79zM455 36q10 35 18 60.5t15 46t13 37.5t13 35l71 195h-260l70 -195q7 -18 13 -35t13 -37.5t15 -46t19 -60.5z" />
    <glyph glyph-name="partialdiff" unicode="&#x2202;" horiz-adv-x="516" 
d="M61 672q26 19 66 36t100 17q48 0 94 -22.5t81 -66.5t56.5 -110t21.5 -153q0 -96 -22 -168t-58 -120t-83.5 -72t-98.5 -24q-49 0 -85 17t-59.5 45.5t-35 65.5t-11.5 78q0 51 17 95t46.5 77t69 52t84.5 19q32 0 59.5 -8.5t49 -21.5t37 -29.5t24.5 -31.5h1q1 9 1 19v19
q0 72 -17.5 125.5t-45.5 88.5t-62 52t-68 17q-50 0 -84 -13t-55 -28zM225 45q36 0 67 19t54.5 51.5t38.5 74.5t21 89q-8 21 -22.5 39.5t-34.5 32.5t-44.5 22.5t-52.5 8.5q-32 0 -60.5 -14t-50 -38.5t-34 -58.5t-12.5 -73q0 -72 36 -112.5t94 -40.5z" />
    <glyph glyph-name="existential" unicode="&#x2203;" 
d="M675 695v-721h-441v62h371v277h-343v62h343v258h-364v62h434z" />
    <glyph glyph-name="gradient" unicode="&#x2207;" 
d="M746 545h-582l291 -467zM845 596l-390 -618l-390 618h780z" />
    <glyph glyph-name="element" unicode="&#x2208;" 
d="M795 298h-617q4 -34 18.5 -62.5t40.5 -49.5t64.5 -32.5t91.5 -11.5h404v-60h-399q-74 0 -128 19.5t-89 53t-52 78.5t-17 96q0 48 16 90.5t50 74t87.5 50t127.5 18.5h404v-60h-404q-53 0 -91.5 -11.5t-64 -31t-40 -45.5t-18.5 -56h616v-60z" />
    <glyph glyph-name="suchthat" unicode="&#x220b;" 
d="M114 358h615q-5 30 -19 56t-39.5 45.5t-63.5 31t-91 11.5h-404v60h404q74 0 127.5 -18.5t87.5 -50t50 -74t16 -90.5q0 -51 -17 -96t-52 -78.5t-89 -53t-128 -19.5h-399v60h404q53 0 91.5 11.5t64.5 32.5t40 49.5t18 62.5h-616v60z" />
    <glyph glyph-name="product" unicode="&#x220f;" horiz-adv-x="637" 
d="M491 -26h-70v660h-205v-660h-70v660h-116v61h577v-61h-116v-660z" />
    <glyph glyph-name="summation" unicode="&#x2211;" horiz-adv-x="579" 
d="M517 695v-62h-344l207 -301l-211 -296h355v-62h-441v50l217 307l-217 317v47h434z" />
    <glyph glyph-name="radical" unicode="&#x221a;" horiz-adv-x="550" 
d="M337 -123h-51l-161 433l-73 -32l-17 41l126 52l129 -360q5 -14 10 -30t7 -28h1q2 12 5.5 28t7.5 30l192 789h55z" />
    <glyph glyph-name="proportional" unicode="&#x221d;" 
d="M301 192q31 0 55.5 11t43.5 29t33.5 40t25.5 43q-11 21 -26 43t-34.5 40t-43.5 29.5t-54 11.5q-55 0 -87.5 -34.5t-32.5 -88.5q0 -57 31 -90.5t89 -33.5zM761 409q-20 14 -40.5 23t-40.5 9q-54 0 -89.5 -33t-67.5 -93q32 -61 67.5 -93.5t89.5 -32.5q17 0 39 6t40 16
l21 -56q-50 -28 -100 -28q-32 0 -60 10.5t-52 28.5t-43.5 41t-34.5 47q-13 -22 -30 -44.5t-39.5 -40.5t-52 -29.5t-68.5 -11.5q-34 0 -67 12t-59.5 35.5t-43 58.5t-16.5 82q0 45 16 80t42 58.5t59 36t68 12.5q38 0 67.5 -11.5t52.5 -30t40 -41.5t31 -45q15 26 34 49
t42.5 40.5t52 28t61.5 10.5q29 0 58 -11.5t57 -31.5z" />
    <glyph glyph-name="infinity" unicode="&#x221e;" horiz-adv-x="600" 
d="M452 162q-28 0 -50 10t-40 26t-33 35t-29 37q-17 -21 -33 -40.5t-34.5 -34.5t-41 -24t-51.5 -9q-60 0 -96.5 39.5t-36.5 102.5q0 28 10.5 54t29 45t44.5 30.5t57 11.5q28 0 50 -10t40 -26t33 -34.5t29 -36.5q15 19 31 38t34.5 34.5t41.5 25t53 9.5q61 0 97 -39t36 -102
q0 -29 -10.5 -54.5t-29 -45t-44.5 -31t-57 -11.5zM454 212q39 0 63 27.5t24 64.5q0 40 -23 66t-62 26q-20 0 -36 -8t-30.5 -21t-28 -29.5t-27.5 -33.5q12 -14 24 -30.5t26 -30t31 -22.5t39 -9zM144 212q19 0 35.5 8t31.5 21t29 29.5t27 33.5q-12 14 -24.5 30.5t-26.5 30
t-31 22.5t-38 9q-40 0 -63.5 -27.5t-23.5 -64.5q0 -40 22.5 -66t61.5 -26z" />
    <glyph glyph-name="angle" unicode="&#x2220;" 
d="M760 0h-610v45l472 550l51 -42l-424 -490h511v-63z" />
    <glyph glyph-name="logicaland" unicode="&#x2227;" 
d="M776 22l-54 -26l-267 514q-66 -127 -134 -257t-133 -257l-54 26l294 569h54z" />
    <glyph glyph-name="logicalor" unicode="&#x2228;" 
d="M776 571l-294 -568h-54l-294 568l54 27l267 -515q66 127 134 257t133 258z" />
    <glyph glyph-name="intersection" unicode="&#x2229;" 
d="M455 635q52 0 96.5 -17t77 -52t51 -89t18.5 -128v-399h-64v404q0 58 -13 100t-37 69.5t-57 40.5t-72 13t-72 -13t-57 -40.5t-37 -69.5t-13 -100v-404h-64v399q0 74 18.5 128t51 89t77 52t96.5 17z" />
    <glyph glyph-name="union" unicode="&#x222a;" 
d="M275 635v-404q0 -60 14 -101.5t38 -68t56 -38.5t68 -12q39 0 73 12.5t58.5 39.5t38.5 68.5t14 99.5v404h64v-399q0 -74 -20 -128t-54 -89t-80 -52t-97 -17q-48 0 -91 16t-75.5 50t-51.5 87.5t-19 127.5v404h64z" />
    <glyph glyph-name="integral" unicode="&#x222b;" horiz-adv-x="303" 
d="M281 736q-6 2 -13 3t-15 1q-13 0 -25 -4.5t-21 -15.5q-8 -10 -13.5 -23t-9 -31.5t-5 -44t-1.5 -59.5q0 -54 1.5 -115t4 -124t4 -124.5t1.5 -115.5q0 -77 -14 -121.5t-33 -67.5q-15 -19 -36.5 -29.5t-47.5 -10.5q-16 0 -29.5 3t-19.5 7l10 47q7 -2 15.5 -3.5t19.5 -1.5
q26 0 45 20q6 8 11.5 19.5t9.5 29.5t6.5 44.5t2.5 64.5q0 55 -1.5 117t-4 125.5t-4 125t-1.5 114.5q0 74 13 118.5t39 71.5q32 35 81 35q25 0 41 -7z" />
    <glyph glyph-name="uni222C" unicode="&#x222c;" horiz-adv-x="521" 
d="M281 736q-6 2 -13 3t-15 1q-13 0 -25 -4.5t-21 -15.5q-8 -10 -13.5 -23t-9 -31.5t-5 -44t-1.5 -59.5q0 -54 1.5 -115t4 -124t4 -124.5t1.5 -115.5q0 -77 -14 -121.5t-33 -67.5q-15 -19 -36.5 -29.5t-47.5 -10.5q-16 0 -29.5 3t-19.5 7l10 47q7 -2 15.5 -3.5t19.5 -1.5
q26 0 45 20q6 8 11.5 19.5t9.5 29.5t6.5 44.5t2.5 64.5q0 55 -1.5 117t-4 125.5t-4 125t-1.5 114.5q0 74 13 118.5t39 71.5q32 35 81 35q25 0 41 -7zM499 736q-6 2 -13 3t-15 1q-13 0 -25 -4.5t-21 -15.5q-8 -10 -13.5 -23t-9 -31.5t-5 -44t-1.5 -59.5q0 -54 1.5 -115
t4 -124t4 -124.5t1.5 -115.5q0 -77 -14 -121.5t-33 -67.5q-15 -19 -36.5 -29.5t-47.5 -10.5q-16 0 -29.5 3t-19.5 7l10 47q7 -2 15.5 -3.5t19.5 -1.5q26 0 45 20q6 8 11.5 19.5t9.5 29.5t6.5 44.5t2.5 64.5q0 55 -1.5 117t-4 125.5t-4 125t-1.5 114.5q0 74 13 118.5t39 71.5
q32 35 81 35q25 0 41 -7z" />
    <glyph glyph-name="uni222E" unicode="&#x222e;" 
d="M617 628q-8 19 -20.5 29.5t-29.5 10.5q-22 0 -42 -58.5t-32 -165.5q27 -3 50 -14t40 -29t26 -43.5t6 -58.5q-3 -32 -15.5 -57t-31.5 -43t-43.5 -29t-50.5 -15q-14 -110 -43 -181q-16 -38 -39.5 -62t-53.5 -24q-61 0 -92 59l44 26q9 -19 21.5 -30t29.5 -11q22 0 42.5 58
t31.5 166q-25 4 -46.5 15t-37 29t-23.5 43t-5 56q3 30 14.5 54t29 42t40 29.5t46.5 16.5q14 112 44 185q16 38 39.5 62t53.5 24q62 0 94 -63zM566 299q4 42 -16.5 74.5t-59.5 40.5q-5 -53 -6 -114q-1 -31 -2.5 -59.5t-4.5 -55.5q37 9 61 39t28 75zM430 410
q-32 -12 -53 -40.5t-25 -70.5q-4 -44 14 -73.5t52 -39.5q4 52 6 114q1 57 6 110z" />
    <glyph glyph-name="therefore" unicode="&#x2234;" horiz-adv-x="600" 
d="M547 121q0 -24 -17 -40.5t-40 -16.5q-24 0 -40.5 16.5t-16.5 40.5q0 23 16.5 39.5t40.5 16.5q23 0 40 -16.5t17 -39.5zM167 121q0 -24 -17 -40.5t-40 -16.5q-24 0 -40.5 16.5t-16.5 40.5q0 23 16.5 39.5t40.5 16.5q23 0 40 -16.5t17 -39.5zM356 516q0 -24 -16 -41
t-40 -17t-41 17t-17 41q0 23 17 39.5t41 16.5t40 -16.5t16 -39.5z" />
    <glyph glyph-name="uni2235" unicode="&#x2235;" horiz-adv-x="586" 
d="M49 505q0 24 16.5 40.5t40.5 16.5q23 0 40 -16.5t17 -40.5t-17 -40t-40 -16q-24 0 -40.5 16t-16.5 40zM429 505q0 24 16.5 40.5t40.5 16.5q23 0 40 -16.5t17 -40.5t-17 -40t-40 -16q-24 0 -40.5 16t-16.5 40zM239 110q0 23 16.5 40.5t40.5 17.5q23 0 40 -17.5t17 -40.5
t-17 -39.5t-40 -16.5q-24 0 -40.5 16.5t-16.5 39.5z" />
    <glyph glyph-name="uni2236" unicode="&#x2236;" 
d="M539 74h-168l83 94zM539 545l-85 -95l-83 95h168z" />
    <glyph glyph-name="similar" unicode="&#x223c;" 
d="M742 339q-11 -18 -28 -35t-37 -30t-42 -21t-44 -8q-43 0 -73.5 9t-62.5 26q-26 14 -61 27.5t-75 13.5q-37 0 -64 -17.5t-46 -45.5l-41 27q11 18 28 35t37 30t42 21t44 8q43 0 73.5 -9t62.5 -26t64 -29t72 -12q37 0 64 17.5t46 45.5z" />
    <glyph glyph-name="uni223D" unicode="&#x223d;" 
d="M829 316q0 -38 -13.5 -72t-37.5 -60t-57.5 -41.5t-73.5 -15.5q-32 0 -62.5 11.5t-59.5 32.5l33 49q22 -17 43 -24t46 -7q26 0 47.5 9.5t37.5 27t24.5 40.5t8.5 50q0 24 -8.5 46.5t-24 40t-37 28t-47.5 10.5q-55 0 -91.5 -35t-70.5 -99q-12 -23 -30 -54t-44.5 -59
t-63.5 -47t-87 -19q-33 0 -65.5 12t-58 35.5t-41 58.5t-15.5 82q0 45 15 80t40 58.5t57.5 36t66.5 12.5t65 -12t59 -30l-32 -50q-21 12 -42.5 20t-42.5 8q-55 0 -88 -34.5t-33 -88.5q0 -56 31.5 -90t88.5 -34q37 0 65 16.5t49 40.5t36 51.5t26 48.5q15 30 34.5 58t44.5 49
t56 34t69 13q40 0 73.5 -15.5t58 -41.5t38 -59.5t13.5 -70.5z" />
    <glyph glyph-name="uni2252" unicode="&#x2252;" horiz-adv-x="600" 
d="M55 261h492v-57h-492v57zM55 422h492v-56h-492v56zM145 535q0 26 18.5 44.5t44.5 18.5t44.5 -18.5t18.5 -44.5t-18.5 -44.5t-44.5 -18.5t-44.5 18.5t-18.5 44.5zM339 89q0 26 18.5 45t44.5 19t44.5 -19t18.5 -45t-18.5 -44.5t-44.5 -18.5t-44.5 18.5t-18.5 44.5z" />
    <glyph glyph-name="notequal" unicode="&#x2260;" horiz-adv-x="600" 
d="M74 458h279l88 134h60l-88 -134h113v-65h-155l-96 -146h251v-65h-293l-86 -132h-60l86 132h-99v65h141l96 146h-237v65z" />
    <glyph glyph-name="equivalence" unicode="&#x2261;" horiz-adv-x="600" 
d="M55 145v51h493v-51h-493zM55 437v51h493v-51h-493zM55 291v51h493v-51h-493z" />
    <glyph glyph-name="lessequal" unicode="&#x2264;" horiz-adv-x="600" 
d="M65 366v52l470 198v-61l-392 -165l392 -160v-64zM535 105v-56h-470v56h470z" />
    <glyph glyph-name="greaterequal" unicode="&#x2265;" horiz-adv-x="600" 
d="M65 166v64l392 160l-392 165v61l470 -198v-52zM535 105v-56h-470v56h470z" />
    <glyph glyph-name="uni226A" unicode="&#x226a;" 
d="M816 15l-30 -49l-482 314v45l474 323l35 -47l-438 -298zM606 12l-32 -50l-480 318v45l473 328l35 -49l-437 -302z" />
    <glyph glyph-name="uni226B" unicode="&#x226b;" 
d="M606 280l-482 -314l-30 49l441 288q-108 73 -219.5 149.5t-218.5 148.5l35 47l474 -323v-45zM816 280l-480 -318l-32 50l441 290q-107 74 -218.5 151.5t-218.5 150.5l35 49l473 -328v-45z" />
    <glyph glyph-name="propersubset" unicode="&#x2282;" 
d="M797 492h-404q-60 0 -101 -14t-66.5 -38t-37 -56t-11.5 -68q0 -39 12 -73t38 -58.5t67 -38.5t99 -14h404v-60h-399q-74 0 -128 19.5t-89 53t-52 78.5t-17 96q0 48 16 90.5t50 74t87.5 50t127.5 18.5h404v-60z" />
    <glyph glyph-name="propersuperset" unicode="&#x2283;" 
d="M112 562h404q74 0 127.5 -18.5t87.5 -50t50 -74t16 -90.5q0 -51 -17 -96t-52 -78.5t-89 -53t-128 -19.5h-399v60h404q58 0 99 14t67 38.5t38 58.5t12 73q0 36 -11.5 68t-37 56t-66.5 38t-101 14h-404v60z" />
    <glyph glyph-name="reflexsubset" unicode="&#x2286;" 
d="M797 562h-404q-60 0 -101 -13t-66.5 -35.5t-37 -53t-11.5 -64.5q0 -38 12 -70t38 -55t67 -36t99 -13h404v-60h-399q-74 0 -128 18t-89 50t-52 75.5t-17 93.5q0 47 16 87.5t50 70.5t87.5 47.5t127.5 17.5h404v-60zM795 2h-646v60h646v-60z" />
    <glyph glyph-name="reflexsuperset" unicode="&#x2287;" 
d="M112 622h404q74 0 127.5 -17.5t87.5 -47.5t50 -70.5t16 -87.5q0 -50 -17 -93.5t-52 -75.5t-89 -50t-128 -18h-399v60h404q58 0 99 13t67 36t38 55t12 70q0 34 -11.5 64.5t-37 53t-66.5 35.5t-101 13h-404v60zM114 62h646v-60h-646v60z" />
    <glyph glyph-name="uni2299" unicode="&#x2299;" 
d="M610 299q0 -32 -12 -60.5t-33 -49.5t-49.5 -33t-60.5 -12t-60 12t-49 33t-33.5 49.5t-12.5 60.5t12.5 60.5t33.5 49.5t49 33t60 12t60.5 -12t49.5 -33t33 -49.5t12 -60.5zM806 299q0 72 -28 136t-75.5 111.5t-111.5 75.5t-136 28t-135.5 -28t-111.5 -75.5t-75.5 -111.5
t-27.5 -136t27.5 -135.5t75.5 -111.5t111.5 -75.5t135.5 -27.5t136 27.5t111.5 75.5t75.5 111.5t28 135.5zM845 299q0 -81 -30.5 -152t-83.5 -124t-124 -83.5t-152 -30.5q-80 0 -151 30.5t-124 83.5t-84 124t-31 152t31 152t84 124t124 83.5t151 30.5q81 0 152 -30.5
t124 -83.5t83.5 -124t30.5 -152z" />
    <glyph glyph-name="perpendicular" unicode="&#x22a5;" 
d="M774 0h-638v65h286v509h66v-509h286v-65z" />
    <glyph glyph-name="uni22EF" unicode="&#x22ef;" 
d="M671 353h101v-100h-101v100zM405 353h101v-100h-101v100zM139 353h101v-100h-101v100z" />
    <glyph glyph-name="uni2312" unicode="&#x2312;" 
d="M649 575q-13 23 -31.5 43.5t-42.5 36t-53.5 24.5t-65.5 9q-72 0 -120.5 -33.5t-74.5 -79.5h-67q39 72 102 116.5t158 44.5q97 0 159.5 -44.5t101.5 -116.5h-66z" />
    <glyph glyph-name="uni2460" unicode="&#x2460;" 
d="M832 306q0 82 -28.5 152t-78.5 121t-119 79.5t-151 28.5t-151 -28.5t-119.5 -79.5t-78.5 -121t-28 -152q0 -83 28 -152.5t78.5 -120.5t119.5 -79.5t151 -28.5t151 28.5t119 79.5t78.5 120.5t28.5 152.5zM888 306q0 -94 -32.5 -173.5t-90.5 -137.5t-137.5 -90.5
t-172.5 -32.5q-94 0 -173.5 32.5t-137 90.5t-90 137.5t-32.5 173.5q0 93 32.5 172.5t90 137.5t137 91t173.5 33q93 0 172.5 -33t137.5 -91t90.5 -137.5t32.5 -172.5zM444 41v448l-126 -74l-31 52l169 100h52v-526h-64z" />
    <glyph glyph-name="uni2461" unicode="&#x2461;" 
d="M832 306q0 82 -28.5 152t-78.5 121t-119 79.5t-151 28.5t-151 -28.5t-119.5 -79.5t-78.5 -121t-28 -152q0 -83 28 -152.5t78.5 -120.5t119.5 -79.5t151 -28.5t151 28.5t119 79.5t78.5 120.5t28.5 152.5zM888 306q0 -94 -32.5 -173.5t-90.5 -137.5t-137.5 -90.5
t-172.5 -32.5q-94 0 -173.5 32.5t-137 90.5t-90 137.5t-32.5 173.5q0 93 32.5 172.5t90 137.5t137 91t173.5 33q93 0 172.5 -33t137.5 -91t90.5 -137.5t32.5 -172.5zM485 319q22 25 35 43t20 32.5t9 25.5t2 21v6q0 34 -25 53.5t-68 19.5q-31 0 -61 -16t-56 -62l-51 33
q9 17 23 35.5t34 33.5t47 25t63 10q77 0 118.5 -36.5t41.5 -95.5v-7q0 -43 -24 -81t-59 -76l-164 -180h266v-58h-347v55z" />
    <glyph glyph-name="uni2462" unicode="&#x2462;" 
d="M832 306q0 82 -28.5 152t-78.5 121t-119 79.5t-151 28.5t-151 -28.5t-119.5 -79.5t-78.5 -121t-28 -152q0 -83 28 -152.5t78.5 -120.5t119.5 -79.5t151 -28.5t151 28.5t119 79.5t78.5 120.5t28.5 152.5zM888 306q0 -94 -32.5 -173.5t-90.5 -137.5t-137.5 -90.5
t-172.5 -32.5q-94 0 -173.5 32.5t-137 90.5t-90 137.5t-32.5 173.5q0 93 32.5 172.5t90 137.5t137 91t173.5 33q93 0 172.5 -33t137.5 -91t90.5 -137.5t32.5 -172.5zM300 500q22 32 57.5 55.5t95.5 23.5q72 0 115 -35.5t43 -95.5v-7q0 -16 -4 -33t-14 -33t-26 -30t-41 -23
q54 -10 81 -43t27 -78v-11q0 -29 -10.5 -56.5t-32.5 -49t-56.5 -34.5t-82.5 -13q-95 0 -169 58l33 53q38 -28 69.5 -39.5t66.5 -11.5q61 0 88.5 28t27.5 64v9q0 27 -9.5 45t-25.5 28.5t-36 15t-42 4.5h-63v57h62q25 0 42 8t28 21t16 30t5 34v6q0 35 -26 54t-66 19
q-32 0 -57.5 -12t-47.5 -43z" />
    <glyph glyph-name="uni2463" unicode="&#x2463;" 
d="M832 306q0 82 -28.5 152t-78.5 121t-119 79.5t-151 28.5t-151 -28.5t-119.5 -79.5t-78.5 -121t-28 -152q0 -83 28 -152.5t78.5 -120.5t119.5 -79.5t151 -28.5t151 28.5t119 79.5t78.5 120.5t28.5 152.5zM888 306q0 -94 -32.5 -173.5t-90.5 -137.5t-137.5 -90.5
t-172.5 -32.5q-94 0 -173.5 32.5t-137 90.5t-90 137.5t-32.5 173.5q0 93 32.5 172.5t90 137.5t137 91t173.5 33q93 0 172.5 -33t137.5 -91t90.5 -137.5t32.5 -172.5zM562 381v-163h76v-57h-76v-114h-65v114h-262v52l249 360h73l-246 -355h186v163h65z" />
    <glyph glyph-name="uni2464" unicode="&#x2464;" 
d="M832 306q0 82 -28.5 152t-78.5 121t-119 79.5t-151 28.5t-151 -28.5t-119.5 -79.5t-78.5 -121t-28 -152q0 -83 28 -152.5t78.5 -120.5t119.5 -79.5t151 -28.5t151 28.5t119 79.5t78.5 120.5t28.5 152.5zM888 306q0 -94 -32.5 -173.5t-90.5 -137.5t-137.5 -90.5
t-172.5 -32.5q-94 0 -173.5 32.5t-137 90.5t-90 137.5t-32.5 173.5q0 93 32.5 172.5t90 137.5t137 91t173.5 33q93 0 172.5 -33t137.5 -91t90.5 -137.5t32.5 -172.5zM577 202q0 57 -28.5 83.5t-81.5 26.5q-33 0 -59.5 -12.5t-43.5 -29.5h-54l17 294h281v-57h-221l-8 -173
q17 14 45.5 24t60.5 10q38 0 67.5 -13t49.5 -35t30 -52t10 -64v-10q0 -29 -10 -58t-31.5 -52.5t-56 -38.5t-83.5 -15q-54 0 -97 14.5t-80 43.5l34 53q38 -29 72.5 -40t71.5 -11q31 0 52.5 9.5t35.5 24.5t20.5 33.5t6.5 36.5v8z" />
    <glyph glyph-name="uni2465" unicode="&#x2465;" 
d="M832 306q0 82 -28.5 152t-78.5 121t-119 79.5t-151 28.5t-151 -28.5t-119.5 -79.5t-78.5 -121t-28 -152q0 -83 28 -152.5t78.5 -120.5t119.5 -79.5t151 -28.5t151 28.5t119 79.5t78.5 120.5t28.5 152.5zM888 306q0 -94 -32.5 -173.5t-90.5 -137.5t-137.5 -90.5
t-172.5 -32.5q-94 0 -173.5 32.5t-137 90.5t-90 137.5t-32.5 173.5q0 93 32.5 172.5t90 137.5t137 91t173.5 33q93 0 172.5 -33t137.5 -91t90.5 -137.5t32.5 -172.5zM583 487q-25 14 -53.5 22.5t-59.5 8.5q-60 0 -93 -45t-38 -149q13 23 46.5 43.5t81.5 20.5
q34 0 64.5 -11.5t53 -33.5t35.5 -52.5t13 -69.5v-16q0 -38 -13 -69.5t-36.5 -53.5t-56 -34t-71.5 -12q-85 0 -133.5 54t-48.5 162v24q0 86 14.5 144t41 93t63 50t81.5 15q35 0 70.5 -9t65.5 -26zM343 213q0 -54 30 -85.5t81 -31.5t82 29t31 83v10q0 55 -32 83t-80 28
q-24 0 -44.5 -8t-35.5 -22.5t-23.5 -34t-8.5 -41.5v-10z" />
    <glyph glyph-name="uni2466" unicode="&#x2466;" 
d="M832 306q0 82 -28.5 152t-78.5 121t-119 79.5t-151 28.5t-151 -28.5t-119.5 -79.5t-78.5 -121t-28 -152q0 -83 28 -152.5t78.5 -120.5t119.5 -79.5t151 -28.5t151 28.5t119 79.5t78.5 120.5t28.5 152.5zM888 306q0 -94 -32.5 -173.5t-90.5 -137.5t-137.5 -90.5
t-172.5 -32.5q-94 0 -173.5 32.5t-137 90.5t-90 137.5t-32.5 173.5q0 93 32.5 172.5t90 137.5t137 91t173.5 33q93 0 172.5 -33t137.5 -91t90.5 -137.5t32.5 -172.5zM435 29h-73l210 469h-289v57h362v-50z" />
    <glyph glyph-name="uni2467" unicode="&#x2467;" 
d="M832 306q0 82 -28.5 152t-78.5 121t-119 79.5t-151 28.5t-151 -28.5t-119.5 -79.5t-78.5 -121t-28 -152q0 -83 28 -152.5t78.5 -120.5t119.5 -79.5t151 -28.5t151 28.5t119 79.5t78.5 120.5t28.5 152.5zM888 306q0 -94 -32.5 -173.5t-90.5 -137.5t-137.5 -90.5
t-172.5 -32.5q-94 0 -173.5 32.5t-137 90.5t-90 137.5t-32.5 173.5q0 93 32.5 172.5t90 137.5t137 91t173.5 33q93 0 172.5 -33t137.5 -91t90.5 -137.5t32.5 -172.5zM362 426q0 -41 26.5 -65.5t65.5 -24.5q41 0 67 24.5t26 65.5v8q0 38 -25.5 60t-67.5 22t-67 -22t-25 -60
v-8zM348 179q0 -38 28.5 -63t78.5 -25t78 25t28 63v8q0 44 -30 68t-76 24q-45 0 -76 -23.5t-31 -68.5v-8zM280 188q0 44 27 77t66 45q-38 17 -57 49.5t-19 68.5v11q0 28 10.5 52.5t31 43t49.5 29t66 10.5t66.5 -10.5t50 -29t31.5 -43t11 -52.5v-11q0 -36 -19.5 -67.5
t-57.5 -50.5q40 -12 66.5 -45t26.5 -77v-12q0 -63 -47 -103.5t-128 -40.5q-40 0 -72.5 10.5t-55 30t-34.5 45.5t-12 58v12z" />
    <glyph glyph-name="uni2468" unicode="&#x2468;" 
d="M832 306q0 82 -28.5 152t-78.5 121t-119 79.5t-151 28.5t-151 -28.5t-119.5 -79.5t-78.5 -121t-28 -152q0 -83 28 -152.5t78.5 -120.5t119.5 -79.5t151 -28.5t151 28.5t119 79.5t78.5 120.5t28.5 152.5zM888 306q0 -94 -32.5 -173.5t-90.5 -137.5t-137.5 -90.5
t-172.5 -32.5q-94 0 -173.5 32.5t-137 90.5t-90 137.5t-32.5 173.5q0 93 32.5 172.5t90 137.5t137 91t173.5 33q93 0 172.5 -33t137.5 -91t90.5 -137.5t32.5 -172.5zM334 128q24 -14 52.5 -23t60.5 -9q63 0 95.5 44t34.5 147q-12 -23 -46 -43.5t-81 -20.5q-35 0 -65 11.5
t-52.5 33t-35.5 52t-13 69.5v17q0 38 13 69.5t36.5 54t56 35t71.5 12.5q84 0 133 -53t49 -161v-25q0 -87 -13 -145t-38 -93t-62.5 -50t-86.5 -15q-35 0 -70.5 9.5t-64.5 26.5zM574 399q0 54 -29.5 86.5t-80.5 32.5q-52 0 -83 -30t-31 -84v-11q0 -54 32 -83t80 -29
q24 0 44.5 8.5t35.5 22.5t23.5 33.5t8.5 42.5v11z" />
    <glyph glyph-name="uni2469" unicode="&#x2469;" 
d="M832 306q0 82 -28.5 152t-78.5 121t-119 79.5t-151 28.5t-151 -28.5t-119.5 -79.5t-78.5 -121t-28 -152q0 -83 28 -152.5t78.5 -120.5t119.5 -79.5t151 -28.5t151 28.5t119 79.5t78.5 120.5t28.5 152.5zM888 306q0 -94 -32.5 -173.5t-90.5 -137.5t-137.5 -90.5
t-172.5 -32.5q-94 0 -173.5 32.5t-137 90.5t-90 137.5t-32.5 173.5q0 93 32.5 172.5t90 137.5t137 91t173.5 33q93 0 172.5 -33t137.5 -91t90.5 -137.5t32.5 -172.5zM300 41v452l-116 -73l-31 48l159 99h50v-526h-62zM712 264q0 -112 -34.5 -171.5t-106.5 -59.5t-107 59.5
t-35 171.5v81q0 112 36 171t106 59q72 0 106.5 -59t34.5 -171v-81zM646 346q0 48 -5.5 80.5t-15 52t-23.5 28t-31 8.5q-16 0 -30 -8.5t-24 -28t-15.5 -52t-5.5 -80.5v-83q0 -49 5.5 -81.5t15.5 -52t24 -27.5t30 -8q17 0 31 8t23.5 27.5t15 52t5.5 81.5v83z" />
    <glyph glyph-name="uni246A" unicode="&#x246a;" 
d="M832 306q0 82 -28.5 152t-78.5 121t-119 79.5t-151 28.5t-151 -28.5t-119.5 -79.5t-78.5 -121t-28 -152q0 -83 28 -152.5t78.5 -120.5t119.5 -79.5t151 -28.5t151 28.5t119 79.5t78.5 120.5t28.5 152.5zM888 306q0 -94 -32.5 -173.5t-90.5 -137.5t-137.5 -90.5
t-172.5 -32.5q-94 0 -173.5 32.5t-137 90.5t-90 137.5t-32.5 173.5q0 93 32.5 172.5t90 137.5t137 91t173.5 33q93 0 172.5 -33t137.5 -91t90.5 -137.5t32.5 -172.5zM326 41v449l-106 -70l-31 48l149 99h50v-526h-62zM588 41v449l-106 -70l-31 48l149 99h50v-526h-62z" />
    <glyph glyph-name="uni246B" unicode="&#x246b;" 
d="M832 306q0 82 -28.5 152t-78.5 121t-119 79.5t-151 28.5t-151 -28.5t-119.5 -79.5t-78.5 -121t-28 -152q0 -83 28 -152.5t78.5 -120.5t119.5 -79.5t151 -28.5t151 28.5t119 79.5t78.5 120.5t28.5 152.5zM888 306q0 -94 -32.5 -173.5t-90.5 -137.5t-137.5 -90.5
t-172.5 -32.5q-94 0 -173.5 32.5t-137 90.5t-90 137.5t-32.5 173.5q0 93 32.5 172.5t90 137.5t137 91t173.5 33q93 0 172.5 -33t137.5 -91t90.5 -137.5t32.5 -172.5zM576 315q29 38 37.5 66t8.5 56v6q0 13 -3.5 26t-11.5 23.5t-22.5 17t-35.5 6.5q-28 0 -51 -13.5t-45 -56.5
l-51 33q9 17 20.5 34.5t29 31t41 22t55.5 8.5q34 0 60 -10.5t44 -28.5t27 -42t9 -51v-7q0 -43 -16.5 -79t-48.5 -78l-137 -180h221v-58h-298v55zM290 41v449l-106 -70l-31 48l149 99h50v-526h-62z" />
    <glyph glyph-name="uni246C" unicode="&#x246c;" 
d="M832 306q0 82 -28.5 152t-78.5 121t-119 79.5t-151 28.5t-151 -28.5t-119.5 -79.5t-78.5 -121t-28 -152q0 -83 28 -152.5t78.5 -120.5t119.5 -79.5t151 -28.5t151 28.5t119 79.5t78.5 120.5t28.5 152.5zM888 306q0 -94 -32.5 -173.5t-90.5 -137.5t-137.5 -90.5
t-172.5 -32.5q-94 0 -173.5 32.5t-137 90.5t-90 137.5t-32.5 173.5q0 93 32.5 172.5t90 137.5t137 91t173.5 33q93 0 172.5 -33t137.5 -91t90.5 -137.5t32.5 -172.5zM410 496q22 32 55 55.5t84 23.5q72 0 109 -37t37 -94v-7q0 -16 -4 -33t-14 -33t-26 -30t-41 -23
q54 -10 81 -43t27 -78v-11q0 -29 -9.5 -56.5t-30.5 -49t-53.5 -34.5t-78.5 -13q-47 0 -83 14.5t-70 43.5l33 53q34 -28 61 -39.5t59 -11.5q55 0 80.5 28t25.5 64v9q0 27 -8.5 45t-23 28.5t-34 15t-41.5 4.5h-49v57h48q25 0 41 8t26 21t14 30t4 34v6q0 32 -19 52.5t-61 20.5
q-24 0 -46.5 -12t-44.5 -43zM290 41v449l-106 -70l-31 48l149 99h50v-526h-62z" />
    <glyph glyph-name="uni246D" unicode="&#x246d;" 
d="M832 306q0 82 -28.5 152t-78.5 121t-119 79.5t-151 28.5t-151 -28.5t-119.5 -79.5t-78.5 -121t-28 -152q0 -83 28 -152.5t78.5 -120.5t119.5 -79.5t151 -28.5t151 28.5t119 79.5t78.5 120.5t28.5 152.5zM888 306q0 -94 -32.5 -173.5t-90.5 -137.5t-137.5 -90.5
t-172.5 -32.5q-94 0 -173.5 32.5t-137 90.5t-90 137.5t-32.5 173.5q0 93 32.5 172.5t90 137.5t137 91t173.5 33q93 0 172.5 -33t137.5 -91t90.5 -137.5t32.5 -172.5zM671 375v-163h73v-57h-73v-114h-63v114h-209v52l179 360h71l-176 -355h135v163h63zM290 41v449l-106 -70
l-31 48l149 99h50v-526h-62z" />
    <glyph glyph-name="uni246E" unicode="&#x246e;" 
d="M832 306q0 82 -28.5 152t-78.5 121t-119 79.5t-151 28.5t-151 -28.5t-119.5 -79.5t-78.5 -121t-28 -152q0 -83 28 -152.5t78.5 -120.5t119.5 -79.5t151 -28.5t151 28.5t119 79.5t78.5 120.5t28.5 152.5zM888 306q0 -94 -32.5 -173.5t-90.5 -137.5t-137.5 -90.5
t-172.5 -32.5q-94 0 -173.5 32.5t-137 90.5t-90 137.5t-32.5 173.5q0 93 32.5 172.5t90 137.5t137 91t173.5 33q93 0 172.5 -33t137.5 -91t90.5 -137.5t32.5 -172.5zM290 41v449l-106 -70l-31 48l149 99h50v-526h-62zM654 204q0 55 -20.5 82t-67.5 27q-23 0 -47 -11.5
t-41 -31.5h-52l17 294h241v-56h-183l-8 -174q13 12 34 23t51 11q66 0 103 -42.5t37 -119.5v-10q0 -29 -8.5 -58.5t-28 -53.5t-51 -39t-77.5 -15q-50 0 -84.5 15.5t-68.5 42.5l34 52q33 -29 59 -40t61 -11q26 0 45 9t31 24t18 34.5t6 39.5v8z" />
    <glyph glyph-name="uni2474" unicode="&#x2474;" 
d="M198 684q-32 -47 -52.5 -93.5t-32.5 -91.5t-16.5 -87.5t-4.5 -79.5v-46q0 -36 4 -77.5t15.5 -87.5t32 -94.5t54.5 -98.5h-61q-32 42 -53.5 89t-34.5 94t-18.5 93t-5.5 87v36q0 40 5.5 85t18.5 91.5t34.5 92.5t53.5 88h61zM773 684q32 -42 53.5 -88t34.5 -92.5t18.5 -91.5
t5.5 -85v-36q0 -41 -5.5 -87t-18.5 -93t-34.5 -94t-53.5 -89h-61q34 50 54.5 98.5t32 94.5t15.5 87.5t4 77.5v46q0 37 -5 79.5t-17 87.5t-32.5 91.5t-51.5 93.5h61zM467 15v495l-136 -82l-32 54l182 110h54v-577h-68z" />
    <glyph glyph-name="uni2475" unicode="&#x2475;" 
d="M198 684q-32 -47 -52.5 -93.5t-32.5 -91.5t-16.5 -87.5t-4.5 -79.5v-46q0 -36 4 -77.5t15.5 -87.5t32 -94.5t54.5 -98.5h-61q-32 42 -53.5 89t-34.5 94t-18.5 93t-5.5 87v36q0 40 5.5 85t18.5 91.5t34.5 92.5t53.5 88h61zM773 684q32 -42 53.5 -88t34.5 -92.5t18.5 -91.5
t5.5 -85v-36q0 -41 -5.5 -87t-18.5 -93t-34.5 -94t-53.5 -89h-61q34 50 54.5 98.5t32 94.5t15.5 87.5t4 77.5v46q0 37 -5 79.5t-17 87.5t-32.5 91.5t-51.5 93.5h61zM495 315q24 27 38.5 47.5t22 36t10 27.5t2.5 24v6q0 38 -27.5 60.5t-76.5 22.5q-35 0 -68.5 -17.5
t-61.5 -67.5l-52 33q10 19 25 39t37 36.5t51 27.5t67 11q83 0 128.5 -40t45.5 -105v-8q0 -47 -27 -88t-65 -84l-180 -201h293v-60h-377v57z" />
    <glyph glyph-name="uni2476" unicode="&#x2476;" 
d="M198 684q-32 -47 -52.5 -93.5t-32.5 -91.5t-16.5 -87.5t-4.5 -79.5v-46q0 -36 4 -77.5t15.5 -87.5t32 -94.5t54.5 -98.5h-61q-32 42 -53.5 89t-34.5 94t-18.5 93t-5.5 87v36q0 40 5.5 85t18.5 91.5t34.5 92.5t53.5 88h61zM773 684q32 -42 53.5 -88t34.5 -92.5t18.5 -91.5
t5.5 -85v-36q0 -41 -5.5 -87t-18.5 -93t-34.5 -94t-53.5 -89h-61q34 50 54.5 98.5t32 94.5t15.5 87.5t4 77.5v46q0 37 -5 79.5t-17 87.5t-32.5 91.5t-51.5 93.5h61zM294 512q23 35 62.5 61.5t104.5 26.5q80 0 126.5 -39.5t46.5 -104.5v-8q0 -17 -4.5 -36t-15.5 -36.5
t-29 -33t-46 -25.5q59 -10 89 -46t30 -87v-12q0 -32 -11 -62t-34.5 -53t-61 -37.5t-90.5 -14.5q-51 0 -97.5 16t-87.5 48l33 54q42 -31 77.5 -43.5t74.5 -12.5q34 0 59 9t40.5 23.5t23 33t7.5 38.5v10q0 31 -11 51t-29 32t-40.5 16.5t-45.5 4.5h-68v59h68q27 0 46 9t31.5 24
t18 33.5t5.5 37.5v6q0 41 -29 63t-75 22q-35 0 -64 -14t-53 -49z" />
    <glyph glyph-name="uni2477" unicode="&#x2477;" 
d="M198 684q-32 -47 -52.5 -93.5t-32.5 -91.5t-16.5 -87.5t-4.5 -79.5v-46q0 -36 4 -77.5t15.5 -87.5t32 -94.5t54.5 -98.5h-61q-32 42 -53.5 89t-34.5 94t-18.5 93t-5.5 87v36q0 40 5.5 85t18.5 91.5t34.5 92.5t53.5 88h61zM773 684q32 -42 53.5 -88t34.5 -92.5t18.5 -91.5
t5.5 -85v-36q0 -41 -5.5 -87t-18.5 -93t-34.5 -94t-53.5 -89h-61q34 50 54.5 98.5t32 94.5t15.5 87.5t4 77.5v46q0 37 -5 79.5t-17 87.5t-32.5 91.5t-51.5 93.5h61zM595 379v-179h83v-59h-83v-126h-67v126h-288v55l275 396h76l-273 -392h210v179h67z" />
    <glyph glyph-name="uni2478" unicode="&#x2478;" 
d="M198 684q-32 -47 -52.5 -93.5t-32.5 -91.5t-16.5 -87.5t-4.5 -79.5v-46q0 -36 4 -77.5t15.5 -87.5t32 -94.5t54.5 -98.5h-61q-32 42 -53.5 89t-34.5 94t-18.5 93t-5.5 87v36q0 40 5.5 85t18.5 91.5t34.5 92.5t53.5 88h61zM773 684q32 -42 53.5 -88t34.5 -92.5t18.5 -91.5
t5.5 -85v-36q0 -41 -5.5 -87t-18.5 -93t-34.5 -94t-53.5 -89h-61q34 50 54.5 98.5t32 94.5t15.5 87.5t4 77.5v46q0 37 -5 79.5t-17 87.5t-32.5 91.5t-51.5 93.5h61zM666 182q0 -32 -10.5 -63.5t-34 -57t-61 -41.5t-91.5 -16q-60 0 -106.5 16.5t-85.5 47.5l34 55
q42 -33 80 -45t78 -12q35 0 60 10.5t40.5 27t22.5 37t7 40.5v10q0 63 -32 93.5t-91 30.5q-37 0 -65 -13.5t-48 -32.5h-57l19 321h304v-60h-244l-8 -195q19 17 50 27.5t67 10.5q42 0 74 -14t54 -38t33 -57t11 -70v-12z" />
    <glyph glyph-name="uni2479" unicode="&#x2479;" 
d="M198 684q-32 -47 -52.5 -93.5t-32.5 -91.5t-16.5 -87.5t-4.5 -79.5v-46q0 -36 4 -77.5t15.5 -87.5t32 -94.5t54.5 -98.5h-61q-32 42 -53.5 89t-34.5 94t-18.5 93t-5.5 87v36q0 40 5.5 85t18.5 91.5t34.5 92.5t53.5 88h61zM773 684q32 -42 53.5 -88t34.5 -92.5t18.5 -91.5
t5.5 -85v-36q0 -41 -5.5 -87t-18.5 -93t-34.5 -94t-53.5 -89h-61q34 50 54.5 98.5t32 94.5t15.5 87.5t4 77.5v46q0 37 -5 79.5t-17 87.5t-32.5 91.5t-51.5 93.5h61zM609 503q-27 15 -58.5 24.5t-65.5 9.5q-69 0 -105.5 -53.5t-41.5 -168.5q7 13 20 26t31 23.5t41 17t50 6.5
q38 0 71 -12.5t58 -35.5t39 -57t14 -76v-18q0 -42 -14.5 -76t-40 -58.5t-61 -37.5t-77.5 -13q-90 0 -143.5 59t-53.5 177v24q0 94 15.5 158t44 103.5t68.5 56.5t89 17q39 0 77.5 -10.5t70.5 -29.5zM342 199q0 -61 34 -97.5t91 -36.5q58 0 93 33t35 94v11q0 31 -10 54.5
t-27 39.5t-40 24t-49 8t-49 -9t-40.5 -25t-27.5 -38t-10 -48v-10z" />
    <glyph glyph-name="uni247A" unicode="&#x247a;" 
d="M198 684q-32 -47 -52.5 -93.5t-32.5 -91.5t-16.5 -87.5t-4.5 -79.5v-46q0 -36 4 -77.5t15.5 -87.5t32 -94.5t54.5 -98.5h-61q-32 42 -53.5 89t-34.5 94t-18.5 93t-5.5 87v36q0 40 5.5 85t18.5 91.5t34.5 92.5t53.5 88h61zM773 684q32 -42 53.5 -88t34.5 -92.5t18.5 -91.5
t5.5 -85v-36q0 -41 -5.5 -87t-18.5 -93t-34.5 -94t-53.5 -89h-61q34 50 54.5 98.5t32 94.5t15.5 87.5t4 77.5v46q0 37 -5 79.5t-17 87.5t-32.5 91.5t-51.5 93.5h61zM437 5h-75l232 517h-319v60h393v-52z" />
    <glyph glyph-name="uni247B" unicode="&#x247b;" 
d="M198 684q-32 -47 -52.5 -93.5t-32.5 -91.5t-16.5 -87.5t-4.5 -79.5v-46q0 -36 4 -77.5t15.5 -87.5t32 -94.5t54.5 -98.5h-61q-32 42 -53.5 89t-34.5 94t-18.5 93t-5.5 87v36q0 40 5.5 85t18.5 91.5t34.5 92.5t53.5 88h61zM773 684q32 -42 53.5 -88t34.5 -92.5t18.5 -91.5
t5.5 -85v-36q0 -41 -5.5 -87t-18.5 -93t-34.5 -94t-53.5 -89h-61q34 50 54.5 98.5t32 94.5t15.5 87.5t4 77.5v46q0 37 -5 79.5t-17 87.5t-32.5 91.5t-51.5 93.5h61zM353 438q0 -45 29 -74t75 -29q47 0 76 29t29 74v9q0 42 -28.5 67t-76.5 25q-47 0 -75.5 -25t-28.5 -67v-9z
M337 163q0 -42 32 -70t89 -28q56 0 87.5 28t31.5 70v10q0 49 -33.5 77t-85.5 28t-86.5 -27.5t-34.5 -77.5v-10zM268 175q0 48 29 84t74 49q-42 20 -63.5 54.5t-21.5 76.5v12q0 31 12 58t34 47t54 31.5t71 11.5t70.5 -11.5t54 -31.5t35 -47t12.5 -58v-12q0 -42 -22 -76.5
t-64 -54.5q45 -13 74.5 -49t29.5 -84v-14q0 -35 -13.5 -63.5t-38 -49.5t-60 -32.5t-78.5 -11.5q-44 0 -78.5 11.5t-59.5 32.5t-38 49.5t-13 63.5v14z" />
    <glyph glyph-name="uni247C" unicode="&#x247c;" 
d="M198 684q-32 -47 -52.5 -93.5t-32.5 -91.5t-16.5 -87.5t-4.5 -79.5v-46q0 -36 4 -77.5t15.5 -87.5t32 -94.5t54.5 -98.5h-61q-32 42 -53.5 89t-34.5 94t-18.5 93t-5.5 87v36q0 40 5.5 85t18.5 91.5t34.5 92.5t53.5 88h61zM773 684q32 -42 53.5 -88t34.5 -92.5t18.5 -91.5
t5.5 -85v-36q0 -41 -5.5 -87t-18.5 -93t-34.5 -94t-53.5 -89h-61q34 50 54.5 98.5t32 94.5t15.5 87.5t4 77.5v46q0 37 -5 79.5t-17 87.5t-32.5 91.5t-51.5 93.5h61zM321 101q27 -16 58 -25.5t66 -9.5q75 0 109.5 53t37.5 166q-7 -13 -19.5 -26t-30.5 -23.5t-41.5 -17.5
t-50.5 -7q-38 0 -71 12.5t-57.5 35.5t-39 57t-14.5 76v19q0 42 14.5 76.5t40 59.5t61 38.5t77.5 13.5q44 0 80.5 -14.5t62.5 -44t40.5 -74t14.5 -103.5v-26q0 -95 -14 -159t-41 -102.5t-68 -55t-95 -16.5q-39 0 -77 10.5t-70 29.5zM588 402q0 61 -34 98t-91 37t-92.5 -34
t-35.5 -95v-11q0 -31 10 -54.5t27.5 -39.5t40 -24.5t48.5 -8.5t49 9.5t40.5 25.5t27.5 38t10 48v11z" />
    <glyph glyph-name="uni247D" unicode="&#x247d;" 
d="M198 684q-32 -47 -52.5 -93.5t-32.5 -91.5t-16.5 -87.5t-4.5 -79.5v-46q0 -36 4 -77.5t15.5 -87.5t32 -94.5t54.5 -98.5h-61q-32 42 -53.5 89t-34.5 94t-18.5 93t-5.5 87v36q0 40 5.5 85t18.5 91.5t34.5 92.5t53.5 88h61zM773 684q32 -42 53.5 -88t34.5 -92.5t18.5 -91.5
t5.5 -85v-36q0 -41 -5.5 -87t-18.5 -93t-34.5 -94t-53.5 -89h-61q34 50 54.5 98.5t32 94.5t15.5 87.5t4 77.5v46q0 37 -5 79.5t-17 87.5t-32.5 91.5t-51.5 93.5h61zM291 15v492l-104 -76l-33 49l150 112h52v-577h-65zM722 258q0 -61 -7.5 -108t-24.5 -79.5t-46 -49
t-71 -16.5q-84 0 -116.5 65.5t-32.5 187.5v90q0 121 33.5 186.5t115.5 65.5q83 0 116 -65.5t33 -186.5v-90zM654 348q0 53 -5 89.5t-14.5 58.5t-25 31.5t-36.5 9.5q-20 0 -35 -9.5t-25 -32t-15 -58.5t-5 -89v-91q0 -53 5 -89.5t15 -59t25 -32t35 -9.5q21 0 36.5 9.5t25 32
t14.5 58.5t5 90v91z" />
    <glyph glyph-name="uni247E" unicode="&#x247e;" 
d="M198 684q-32 -47 -52.5 -93.5t-32.5 -91.5t-16.5 -87.5t-4.5 -79.5v-46q0 -36 4 -77.5t15.5 -87.5t32 -94.5t54.5 -98.5h-61q-32 42 -53.5 89t-34.5 94t-18.5 93t-5.5 87v36q0 40 5.5 85t18.5 91.5t34.5 92.5t53.5 88h61zM773 684q32 -42 53.5 -88t34.5 -92.5t18.5 -91.5
t5.5 -85v-36q0 -41 -5.5 -87t-18.5 -93t-34.5 -94t-53.5 -89h-61q34 50 54.5 98.5t32 94.5t15.5 87.5t4 77.5v46q0 37 -5 79.5t-17 87.5t-32.5 91.5t-51.5 93.5h61zM319 15v496l-114 -80l-33 49l160 112h52v-577h-65zM603 15v496l-114 -80l-33 49l160 112h52v-577h-65z" />
    <glyph glyph-name="uni247F" unicode="&#x247f;" 
d="M198 684q-32 -47 -52.5 -93.5t-32.5 -91.5t-16.5 -87.5t-4.5 -79.5v-46q0 -36 4 -77.5t15.5 -87.5t32 -94.5t54.5 -98.5h-61q-32 42 -53.5 89t-34.5 94t-18.5 93t-5.5 87v36q0 40 5.5 85t18.5 91.5t34.5 92.5t53.5 88h61zM773 684q32 -42 53.5 -88t34.5 -92.5t18.5 -91.5
t5.5 -85v-36q0 -41 -5.5 -87t-18.5 -93t-34.5 -94t-53.5 -89h-61q34 50 54.5 98.5t32 94.5t15.5 87.5t4 77.5v46q0 37 -5 79.5t-17 87.5t-32.5 91.5t-51.5 93.5h61zM291 15v492l-104 -76l-33 49l150 112h52v-577h-65zM603 320q18 24 28.5 42t16 33.5t7 29.5t1.5 30v6
q0 37 -22.5 57.5t-60.5 20.5q-13 0 -27 -3.5t-28 -13t-28 -26t-27 -42.5l-52 33q10 19 24.5 39.5t34.5 37t45 27t57 10.5q35 0 63.5 -11t48 -30t30 -44.5t10.5 -54.5v-8q0 -24 -4.5 -44.5t-13.5 -41t-22.5 -41.5t-31.5 -45l-153 -207h235v-59h-315v56z" />
    <glyph glyph-name="uni2480" unicode="&#x2480;" 
d="M198 684q-32 -47 -52.5 -93.5t-32.5 -91.5t-16.5 -87.5t-4.5 -79.5v-46q0 -36 4 -77.5t15.5 -87.5t32 -94.5t54.5 -98.5h-61q-32 42 -53.5 89t-34.5 94t-18.5 93t-5.5 87v36q0 40 5.5 85t18.5 91.5t34.5 92.5t53.5 88h61zM773 684q32 -42 53.5 -88t34.5 -92.5t18.5 -91.5
t5.5 -85v-36q0 -41 -5.5 -87t-18.5 -93t-34.5 -94t-53.5 -89h-61q34 50 54.5 98.5t32 94.5t15.5 87.5t4 77.5v46q0 37 -5 79.5t-17 87.5t-32.5 91.5t-51.5 93.5h61zM291 15v492l-104 -76l-33 49l150 112h52v-577h-65zM418 515q20 33 55 59t87 26q72 0 109 -40t37 -104v-8
q0 -17 -3 -36t-12 -36.5t-25.5 -33t-44.5 -25.5q59 -10 84 -46.5t25 -87.5v-11q0 -32 -8 -62t-27.5 -53t-52 -37.5t-81.5 -14.5q-51 0 -88.5 17.5t-70.5 46.5l35 52q32 -32 64.5 -43t58.5 -11q29 0 49 9t32 23.5t17.5 33t5.5 38.5v9q0 31 -9 51t-24 32t-35 17t-43 5h-58v59
h58q27 0 44 9t26 24t12.5 33.5t3.5 37.5v6q0 41 -18.5 63.5t-60.5 22.5q-23 0 -46.5 -12.5t-44.5 -47.5z" />
    <glyph glyph-name="uni2481" unicode="&#x2481;" 
d="M198 684q-32 -47 -52.5 -93.5t-32.5 -91.5t-16.5 -87.5t-4.5 -79.5v-46q0 -36 4 -77.5t15.5 -87.5t32 -94.5t54.5 -98.5h-61q-32 42 -53.5 89t-34.5 94t-18.5 93t-5.5 87v36q0 40 5.5 85t18.5 91.5t34.5 92.5t53.5 88h61zM773 684q32 -42 53.5 -88t34.5 -92.5t18.5 -91.5
t5.5 -85v-36q0 -41 -5.5 -87t-18.5 -93t-34.5 -94t-53.5 -89h-61q34 50 54.5 98.5t32 94.5t15.5 87.5t4 77.5v46q0 37 -5 79.5t-17 87.5t-32.5 91.5t-51.5 93.5h61zM291 15v492l-104 -76l-33 49l150 112h52v-577h-65zM684 379v-181h72v-57h-72v-126h-66v126h-222v53l200 398
h67l-198 -394h153v181h66z" />
    <glyph glyph-name="uni2482" unicode="&#x2482;" 
d="M198 684q-32 -47 -52.5 -93.5t-32.5 -91.5t-16.5 -87.5t-4.5 -79.5v-46q0 -36 4 -77.5t15.5 -87.5t32 -94.5t54.5 -98.5h-61q-32 42 -53.5 89t-34.5 94t-18.5 93t-5.5 87v36q0 40 5.5 85t18.5 91.5t34.5 92.5t53.5 88h61zM773 684q32 -42 53.5 -88t34.5 -92.5t18.5 -91.5
t5.5 -85v-36q0 -41 -5.5 -87t-18.5 -93t-34.5 -94t-53.5 -89h-61q34 50 54.5 98.5t32 94.5t15.5 87.5t4 77.5v46q0 37 -5 79.5t-17 87.5t-32.5 91.5t-51.5 93.5h61zM291 15v492l-104 -76l-33 49l150 112h52v-577h-65zM730 188q0 -84 -40.5 -134t-126.5 -50q-49 0 -86 16.5
t-71 48.5l37 53q32 -32 59.5 -44.5t60.5 -12.5q54 0 77 32.5t23 89.5v7q0 66 -23 93.5t-68 27.5q-32 0 -52.5 -14.5t-31.5 -31.5h-57l19 321h245v-59h-186l-9 -196q15 17 38.5 27.5t49.5 10.5q36 0 63 -13.5t44.5 -37t26 -56t8.5 -69.5v-9z" />
    <glyph glyph-name="uni249C" unicode="&#x249c;" 
d="M426 78q-66 0 -105.5 33.5t-39.5 93.5v19q0 56 39 91t121 35h119v34q0 47 -24 70.5t-75 23.5q-38 0 -69 -12.5t-60 -32.5l-34 51q32 22 71.5 38.5t92.5 16.5q75 0 120 -37.5t45 -104.5v-312h-66v54q-14 -23 -46 -41q-37 -20 -89 -20zM198 684q-32 -47 -52.5 -93.5
t-32.5 -91.5t-16.5 -87.5t-4.5 -79.5v-46q0 -36 4 -77.5t15.5 -87.5t32 -94.5t54.5 -98.5h-61q-32 42 -53.5 89t-34.5 94t-18.5 93t-5.5 87v36q0 40 5.5 85t18.5 91.5t34.5 92.5t53.5 88h61zM773 684q32 -42 53.5 -88t34.5 -92.5t18.5 -91.5t5.5 -85v-36q0 -41 -5.5 -87
t-18.5 -93t-34.5 -94t-53.5 -89h-61q34 50 54.5 98.5t32 94.5t15.5 87.5t4 77.5v46q0 37 -5 79.5t-17 87.5t-32.5 91.5t-51.5 93.5h61zM560 293h-118q-51 0 -72.5 -19.5t-21.5 -53.5v-12q0 -38 26.5 -54.5t59.5 -16.5q28 0 49.5 6.5t40.5 20.5q17 11 26.5 27.5t9.5 41.5v60z
" />
    <glyph glyph-name="uni249D" unicode="&#x249d;" 
d="M198 684q-32 -47 -52.5 -93.5t-32.5 -91.5t-16.5 -87.5t-4.5 -79.5v-46q0 -36 4 -77.5t15.5 -87.5t32 -94.5t54.5 -98.5h-61q-32 42 -53.5 89t-34.5 94t-18.5 93t-5.5 87v36q0 40 5.5 85t18.5 91.5t34.5 92.5t53.5 88h61zM773 684q32 -42 53.5 -88t34.5 -92.5t18.5 -91.5
t5.5 -85v-36q0 -41 -5.5 -87t-18.5 -93t-34.5 -94t-53.5 -89h-61q34 50 54.5 98.5t32 94.5t15.5 87.5t4 77.5v46q0 37 -5 79.5t-17 87.5t-32.5 91.5t-51.5 93.5h61zM366 402q21 33 56 49.5t75 16.5q82 0 128.5 -49.5t46.5 -140.5v-79q0 -46 -13 -81.5t-36.5 -60t-56 -37
t-71.5 -12.5q-49 0 -80.5 18t-48.5 41h-1v-53h-66v620h67v-232zM366 168q0 -19 9 -37t25.5 -32.5t39 -23t49.5 -8.5q54 0 85 37t31 105v58q0 67 -31 103.5t-85 36.5q-23 0 -45.5 -8t-39.5 -23t-27.5 -37t-10.5 -50v-121z" />
    <glyph glyph-name="uni249E" unicode="&#x249e;" 
d="M198 684q-32 -47 -52.5 -93.5t-32.5 -91.5t-16.5 -87.5t-4.5 -79.5v-46q0 -36 4 -77.5t15.5 -87.5t32 -94.5t54.5 -98.5h-61q-32 42 -53.5 89t-34.5 94t-18.5 93t-5.5 87v36q0 40 5.5 85t18.5 91.5t34.5 92.5t53.5 88h61zM773 684q32 -42 53.5 -88t34.5 -92.5t18.5 -91.5
t5.5 -85v-36q0 -41 -5.5 -87t-18.5 -93t-34.5 -94t-53.5 -89h-61q34 50 54.5 98.5t32 94.5t15.5 87.5t4 77.5v46q0 37 -5 79.5t-17 87.5t-32.5 91.5t-51.5 93.5h61zM466 538q51 0 86.5 -13t63.5 -34l-32 -52q-31 23 -58.5 30.5t-59.5 7.5q-52 0 -86 -35t-34 -104v-56
q0 -73 35 -108.5t87 -35.5q45 0 74.5 12.5t53.5 30.5l32 -53q-24 -19 -62.5 -35t-98.5 -16q-91 0 -140.5 53.5t-49.5 150.5v56q0 97 52 149t137 52z" />
    <glyph glyph-name="uni249F" unicode="&#x249f;" 
d="M561 72q-20 -33 -55.5 -48t-76.5 -15q-81 0 -128 49.5t-47 140.5v79q0 45 13 80.5t36.5 60t56 37.5t71.5 13q50 0 81.5 -18.5t47.5 -40.5v225h67v-620h-66v57zM560 306q0 19 -9 37.5t-25.5 33t-39 23.5t-49.5 9q-54 0 -85 -37.5t-31 -103.5v-58q0 -69 31 -105.5t85 -36.5
q51 0 87 29.5t36 85.5v123zM198 684q-32 -47 -52.5 -93.5t-32.5 -91.5t-16.5 -87.5t-4.5 -79.5v-46q0 -36 4 -77.5t15.5 -87.5t32 -94.5t54.5 -98.5h-61q-32 42 -53.5 89t-34.5 94t-18.5 93t-5.5 87v36q0 40 5.5 85t18.5 91.5t34.5 92.5t53.5 88h61zM773 684
q32 -42 53.5 -88t34.5 -92.5t18.5 -91.5t5.5 -85v-36q0 -41 -5.5 -87t-18.5 -93t-34.5 -94t-53.5 -89h-61q34 50 54.5 98.5t32 94.5t15.5 87.5t4 77.5v46q0 37 -5 79.5t-17 87.5t-32.5 91.5t-51.5 93.5h61z" />
    <glyph glyph-name="uni24A0" unicode="&#x24a0;" 
d="M198 684q-32 -47 -52.5 -93.5t-32.5 -91.5t-16.5 -87.5t-4.5 -79.5v-46q0 -36 4 -77.5t15.5 -87.5t32 -94.5t54.5 -98.5h-61q-32 42 -53.5 89t-34.5 94t-18.5 93t-5.5 87v36q0 40 5.5 85t18.5 91.5t34.5 92.5t53.5 88h61zM773 684q32 -42 53.5 -88t34.5 -92.5t18.5 -91.5
t5.5 -85v-36q0 -41 -5.5 -87t-18.5 -93t-34.5 -94t-53.5 -89h-61q34 50 54.5 98.5t32 94.5t15.5 87.5t4 77.5v46q0 37 -5 79.5t-17 87.5t-32.5 91.5t-51.5 93.5h61zM460 478q-55 0 -87 -35t-32 -94v-10h235v12q0 60 -30.5 93.5t-85.5 33.5zM633 127q-29 -20 -69 -35t-99 -15
q-43 0 -78 13t-60.5 38.5t-39.5 64t-14 89.5v53q0 49 13.5 86.5t38.5 63.5t59 39.5t76 13.5q86 0 134 -53.5t48 -147.5v-54h-301v-5q0 -69 35 -105t92 -36q44 0 76.5 12t58.5 29z" />
    <glyph glyph-name="uni24A1" unicode="&#x24a1;" 
d="M198 684q-32 -47 -52.5 -93.5t-32.5 -91.5t-16.5 -87.5t-4.5 -79.5v-46q0 -36 4 -77.5t15.5 -87.5t32 -94.5t54.5 -98.5h-61q-32 42 -53.5 89t-34.5 94t-18.5 93t-5.5 87v36q0 40 5.5 85t18.5 91.5t34.5 92.5t53.5 88h61zM773 684q32 -42 53.5 -88t34.5 -92.5t18.5 -91.5
t5.5 -85v-36q0 -41 -5.5 -87t-18.5 -93t-34.5 -94t-53.5 -89h-61q34 50 54.5 98.5t32 94.5t15.5 87.5t4 77.5v46q0 37 -5 79.5t-17 87.5t-32.5 91.5t-51.5 93.5h61zM406 387h-75v59h75v53q0 70 31 99.5t91 29.5q20 0 42 -3t35 -8l-10 -55q-15 5 -30.5 6.5t-30.5 1.5
q-29 0 -45 -15t-16 -59v-50h120v-59h-120v-383h-67v383z" />
    <glyph glyph-name="uni24A2" unicode="&#x24a2;" 
d="M198 684q-32 -47 -52.5 -93.5t-32.5 -91.5t-16.5 -87.5t-4.5 -79.5v-46q0 -36 4 -77.5t15.5 -87.5t32 -94.5t54.5 -98.5h-61q-32 42 -53.5 89t-34.5 94t-18.5 93t-5.5 87v36q0 40 5.5 85t18.5 91.5t34.5 92.5t53.5 88h61zM773 684q32 -42 53.5 -88t34.5 -92.5t18.5 -91.5
t5.5 -85v-36q0 -41 -5.5 -87t-18.5 -93t-34.5 -94t-53.5 -89h-61q34 50 54.5 98.5t32 94.5t15.5 87.5t4 77.5v46q0 37 -5 79.5t-17 87.5t-32.5 91.5t-51.5 93.5h61zM638 166q0 -94 -49.5 -141.5t-140.5 -47.5q-47 0 -84 12.5t-65 34.5l31 53q51 -38 119 -38q60 0 90.5 30.5
t30.5 95.5v58q-19 -32 -54.5 -47t-75.5 -15q-81 0 -128 49.5t-47 141.5v70q0 45 13 80.5t36.5 60t56 37.5t70.5 13q51 0 82.5 -18t47.5 -41v51h67v-439zM571 451q0 18 -9.5 36.5t-26 33t-39 23.5t-49.5 9q-54 0 -84.5 -37t-30.5 -104v-50q0 -68 31 -105t84 -37q25 0 48 7.5
t39.5 22t26.5 36t10 49.5v116z" />
    <glyph glyph-name="uni24A3" unicode="&#x24a3;" 
d="M198 684q-32 -47 -52.5 -93.5t-32.5 -91.5t-16.5 -87.5t-4.5 -79.5v-46q0 -36 4 -77.5t15.5 -87.5t32 -94.5t54.5 -98.5h-61q-32 42 -53.5 89t-34.5 94t-18.5 93t-5.5 87v36q0 40 5.5 85t18.5 91.5t34.5 92.5t53.5 88h61zM773 684q32 -42 53.5 -88t34.5 -92.5t18.5 -91.5
t5.5 -85v-36q0 -41 -5.5 -87t-18.5 -93t-34.5 -94t-53.5 -89h-61q34 50 54.5 98.5t32 94.5t15.5 87.5t4 77.5v46q0 37 -5 79.5t-17 87.5t-32.5 91.5t-51.5 93.5h61zM656 4h-68v281q0 52 -23.5 82t-81.5 30q-24 0 -45.5 -8.5t-38 -23.5t-26 -35.5t-9.5 -43.5v-282h-68v620h68
v-233q17 28 51 47t82 19q72 0 115.5 -40.5t43.5 -115.5v-297z" />
    <glyph glyph-name="uni24A4" unicode="&#x24a4;" 
d="M198 684q-32 -47 -52.5 -93.5t-32.5 -91.5t-16.5 -87.5t-4.5 -79.5v-46q0 -36 4 -77.5t15.5 -87.5t32 -94.5t54.5 -98.5h-61q-32 42 -53.5 89t-34.5 94t-18.5 93t-5.5 87v36q0 40 5.5 85t18.5 91.5t34.5 92.5t53.5 88h61zM773 684q32 -42 53.5 -88t34.5 -92.5t18.5 -91.5
t5.5 -85v-36q0 -41 -5.5 -87t-18.5 -93t-34.5 -94t-53.5 -89h-61q34 50 54.5 98.5t32 94.5t15.5 87.5t4 77.5v46q0 37 -5 79.5t-17 87.5t-32.5 91.5t-51.5 93.5h61zM489 449v-445h-68v445h68zM491 602v-74h-72v74h72z" />
    <glyph glyph-name="uni24A5" unicode="&#x24a5;" 
d="M198 684q-32 -47 -52.5 -93.5t-32.5 -91.5t-16.5 -87.5t-4.5 -79.5v-46q0 -36 4 -77.5t15.5 -87.5t32 -94.5t54.5 -98.5h-61q-32 42 -53.5 89t-34.5 94t-18.5 93t-5.5 87v36q0 40 5.5 85t18.5 91.5t34.5 92.5t53.5 88h61zM773 684q32 -42 53.5 -88t34.5 -92.5t18.5 -91.5
t5.5 -85v-36q0 -41 -5.5 -87t-18.5 -93t-34.5 -94t-53.5 -89h-61q34 50 54.5 98.5t32 94.5t15.5 87.5t4 77.5v46q0 37 -5 79.5t-17 87.5t-32.5 91.5t-51.5 93.5h61zM525 602v-74h-72v74h72zM522 120q0 -70 -31 -100t-91 -30q-19 0 -41 3t-36 8l11 55q15 -5 30 -6.5t30 -1.5
q28 0 44.5 15.5t16.5 59.5v326h67v-329z" />
    <glyph glyph-name="uni24A6" unicode="&#x24a6;" 
d="M198 684q-32 -47 -52.5 -93.5t-32.5 -91.5t-16.5 -87.5t-4.5 -79.5v-46q0 -36 4 -77.5t15.5 -87.5t32 -94.5t54.5 -98.5h-61q-32 42 -53.5 89t-34.5 94t-18.5 93t-5.5 87v36q0 40 5.5 85t18.5 91.5t34.5 92.5t53.5 88h61zM773 684q32 -42 53.5 -88t34.5 -92.5t18.5 -91.5
t5.5 -85v-36q0 -41 -5.5 -87t-18.5 -93t-34.5 -94t-53.5 -89h-61q34 50 54.5 98.5t32 94.5t15.5 87.5t4 77.5v46q0 37 -5 79.5t-17 87.5t-32.5 91.5t-51.5 93.5h61zM485 275l190 -271h-83l-154 224l-67 -66v-158h-67v620h67v-381l203 206h88z" />
    <glyph glyph-name="uni24A7" unicode="&#x24a7;" 
d="M198 684q-32 -47 -52.5 -93.5t-32.5 -91.5t-16.5 -87.5t-4.5 -79.5v-46q0 -36 4 -77.5t15.5 -87.5t32 -94.5t54.5 -98.5h-61q-32 42 -53.5 89t-34.5 94t-18.5 93t-5.5 87v36q0 40 5.5 85t18.5 91.5t34.5 92.5t53.5 88h61zM773 684q32 -42 53.5 -88t34.5 -92.5t18.5 -91.5
t5.5 -85v-36q0 -41 -5.5 -87t-18.5 -93t-34.5 -94t-53.5 -89h-61q34 50 54.5 98.5t32 94.5t15.5 87.5t4 77.5v46q0 37 -5 79.5t-17 87.5t-32.5 91.5t-51.5 93.5h61zM489 624v-620h-68v620h68z" />
    <glyph glyph-name="uni24A8" unicode="&#x24a8;" 
d="M740 85h-66v275q0 57 -15.5 87t-62.5 30q-44 0 -69.5 -30t-25.5 -78v-284h-67v275q0 56 -15.5 86.5t-61.5 30.5q-45 0 -70.5 -30.5t-25.5 -76.5v-285h-66v445h66v-61q13 26 39.5 47.5t68.5 21.5q46 0 73 -20t43 -58q16 30 44.5 54t78.5 24q69 0 100.5 -41.5t31.5 -115.5
v-296zM198 684q-32 -47 -52.5 -93.5t-32.5 -91.5t-16.5 -87.5t-4.5 -79.5v-46q0 -36 4 -77.5t15.5 -87.5t32 -94.5t54.5 -98.5h-61q-32 42 -53.5 89t-34.5 94t-18.5 93t-5.5 87v36q0 40 5.5 85t18.5 91.5t34.5 92.5t53.5 88h61zM773 684q32 -42 53.5 -88t34.5 -92.5
t18.5 -91.5t5.5 -85v-36q0 -41 -5.5 -87t-18.5 -93t-34.5 -94t-53.5 -89h-61q34 50 54.5 98.5t32 94.5t15.5 87.5t4 77.5v46q0 37 -5 79.5t-17 87.5t-32.5 91.5t-51.5 93.5h61z" />
    <glyph glyph-name="uni24A9" unicode="&#x24a9;" 
d="M198 684q-32 -47 -52.5 -93.5t-32.5 -91.5t-16.5 -87.5t-4.5 -79.5v-46q0 -36 4 -77.5t15.5 -87.5t32 -94.5t54.5 -98.5h-61q-32 42 -53.5 89t-34.5 94t-18.5 93t-5.5 87v36q0 40 5.5 85t18.5 91.5t34.5 92.5t53.5 88h61zM773 684q32 -42 53.5 -88t34.5 -92.5t18.5 -91.5
t5.5 -85v-36q0 -41 -5.5 -87t-18.5 -93t-34.5 -94t-53.5 -89h-61q34 50 54.5 98.5t32 94.5t15.5 87.5t4 77.5v46q0 37 -5 79.5t-17 87.5t-32.5 91.5t-51.5 93.5h61zM645 85h-68v281q0 52 -23.5 82t-81.5 30q-24 0 -45.5 -9t-38 -24t-26 -35t-9.5 -43v-282h-68v445h66v-59
q19 28 52 47.5t83 19.5q72 0 115.5 -40.5t43.5 -115.5v-297z" />
    <glyph glyph-name="uni24AA" unicode="&#x24aa;" 
d="M198 684q-32 -47 -52.5 -93.5t-32.5 -91.5t-16.5 -87.5t-4.5 -79.5v-46q0 -36 4 -77.5t15.5 -87.5t32 -94.5t54.5 -98.5h-61q-32 42 -53.5 89t-34.5 94t-18.5 93t-5.5 87v36q0 40 5.5 85t18.5 91.5t34.5 92.5t53.5 88h61zM773 684q32 -42 53.5 -88t34.5 -92.5t18.5 -91.5
t5.5 -85v-36q0 -41 -5.5 -87t-18.5 -93t-34.5 -94t-53.5 -89h-61q34 50 54.5 98.5t32 94.5t15.5 87.5t4 77.5v46q0 37 -5 79.5t-17 87.5t-32.5 91.5t-51.5 93.5h61zM456 538q91 0 142 -53t51 -150v-55q0 -97 -51 -150t-142 -53t-142.5 53t-51.5 150v55q0 97 51.5 150
t142.5 53zM456 137q57 0 91 36.5t34 111.5v45q0 75 -34 111.5t-91 36.5t-91.5 -36.5t-34.5 -111.5v-45q0 -75 34.5 -111.5t91.5 -36.5z" />
    <glyph glyph-name="uni24AB" unicode="&#x24ab;" 
d="M198 684q-32 -47 -52.5 -93.5t-32.5 -91.5t-16.5 -87.5t-4.5 -79.5v-46q0 -36 4 -77.5t15.5 -87.5t32 -94.5t54.5 -98.5h-61q-32 42 -53.5 89t-34.5 94t-18.5 93t-5.5 87v36q0 40 5.5 85t18.5 91.5t34.5 92.5t53.5 88h61zM773 684q32 -42 53.5 -88t34.5 -92.5t18.5 -91.5
t5.5 -85v-36q0 -41 -5.5 -87t-18.5 -93t-34.5 -94t-53.5 -89h-61q34 50 54.5 98.5t32 94.5t15.5 87.5t4 77.5v46q0 37 -5 79.5t-17 87.5t-32.5 91.5t-51.5 93.5h61zM371 533q20 34 55 50.5t77 16.5q82 0 128.5 -50t46.5 -140v-79q0 -46 -13 -81.5t-37 -60t-56.5 -37
t-71.5 -12.5q-49 0 -80 18t-48 39v-226h-67v621h66v-59zM372 300q0 -18 9 -36.5t25.5 -32.5t39 -23t49.5 -9q54 0 85 37t31 105v58q0 67 -31 103.5t-85 36.5q-23 0 -45.5 -8t-39.5 -23t-27.5 -37t-10.5 -50v-121z" />
    <glyph glyph-name="uni24AC" unicode="&#x24ac;" 
d="M198 684q-32 -47 -52.5 -93.5t-32.5 -91.5t-16.5 -87.5t-4.5 -79.5v-46q0 -36 4 -77.5t15.5 -87.5t32 -94.5t54.5 -98.5h-61q-32 42 -53.5 89t-34.5 94t-18.5 93t-5.5 87v36q0 40 5.5 85t18.5 91.5t34.5 92.5t53.5 88h61zM773 684q32 -42 53.5 -88t34.5 -92.5t18.5 -91.5
t5.5 -85v-36q0 -41 -5.5 -87t-18.5 -93t-34.5 -94t-53.5 -89h-61q34 50 54.5 98.5t32 94.5t15.5 87.5t4 77.5v46q0 37 -5 79.5t-17 87.5t-32.5 91.5t-51.5 93.5h61zM562 -29v230q-20 -32 -55.5 -46.5t-75.5 -14.5q-81 0 -128 49.5t-47 140.5v79q0 45 13 80.5t36.5 60
t56 37.5t71.5 13q50 0 81.5 -18.5t47.5 -40.5v51h67v-621h-67zM562 438q0 18 -9 36.5t-25.5 33t-39 23.5t-49.5 9q-54 0 -85 -37t-31 -104v-58q0 -68 31 -105t85 -37q51 0 87 29.5t36 85.5v124z" />
    <glyph glyph-name="uni24AD" unicode="&#x24ad;" 
d="M638 529q-6 -17 -11 -33.5t-10 -33.5q-21 10 -54 10q-50 0 -82.5 -36.5t-32.5 -94.5v-256h-67v445h66v-75q18 35 48.5 59t81.5 24q34 0 61 -9zM198 684q-32 -47 -52.5 -93.5t-32.5 -91.5t-16.5 -87.5t-4.5 -79.5v-46q0 -36 4 -77.5t15.5 -87.5t32 -94.5t54.5 -98.5h-61
q-32 42 -53.5 89t-34.5 94t-18.5 93t-5.5 87v36q0 40 5.5 85t18.5 91.5t34.5 92.5t53.5 88h61zM773 684q32 -42 53.5 -88t34.5 -92.5t18.5 -91.5t5.5 -85v-36q0 -41 -5.5 -87t-18.5 -93t-34.5 -94t-53.5 -89h-61q34 50 54.5 98.5t32 94.5t15.5 87.5t4 77.5v46q0 37 -5 79.5
t-17 87.5t-32.5 91.5t-51.5 93.5h61z" />
    <glyph glyph-name="uni24AE" unicode="&#x24ae;" 
d="M198 684q-32 -47 -52.5 -93.5t-32.5 -91.5t-16.5 -87.5t-4.5 -79.5v-46q0 -36 4 -77.5t15.5 -87.5t32 -94.5t54.5 -98.5h-61q-32 42 -53.5 89t-34.5 94t-18.5 93t-5.5 87v36q0 40 5.5 85t18.5 91.5t34.5 92.5t53.5 88h61zM773 684q32 -42 53.5 -88t34.5 -92.5t18.5 -91.5
t5.5 -85v-36q0 -41 -5.5 -87t-18.5 -93t-34.5 -94t-53.5 -89h-61q34 50 54.5 98.5t32 94.5t15.5 87.5t4 77.5v46q0 37 -5 79.5t-17 87.5t-32.5 91.5t-51.5 93.5h61zM464 137q49 0 75 18t26 46v8q0 31 -23.5 46t-86.5 27q-71 14 -110.5 41.5t-39.5 83.5v11q0 24 9.5 45.5
t30 38t51 26.5t72.5 10q48 0 87 -12t69 -34l-31 -50q-25 17 -55 26.5t-68 9.5q-50 0 -74 -17.5t-24 -43.5v-8q0 -28 25.5 -42.5t78.5 -24.5q82 -15 120 -44t38 -87v-11q0 -27 -12 -49.5t-34 -39t-53 -25.5t-68 -9q-55 0 -99 15t-76 38l32 53q31 -20 65.5 -33t74.5 -13z" />
    <glyph glyph-name="uni24AF" unicode="&#x24af;" 
d="M198 684q-32 -47 -52.5 -93.5t-32.5 -91.5t-16.5 -87.5t-4.5 -79.5v-46q0 -36 4 -77.5t15.5 -87.5t32 -94.5t54.5 -98.5h-61q-32 42 -53.5 89t-34.5 94t-18.5 93t-5.5 87v36q0 40 5.5 85t18.5 91.5t34.5 92.5t53.5 88h61zM773 684q32 -42 53.5 -88t34.5 -92.5t18.5 -91.5
t5.5 -85v-36q0 -41 -5.5 -87t-18.5 -93t-34.5 -94t-53.5 -89h-61q34 50 54.5 98.5t32 94.5t15.5 87.5t4 77.5v46q0 37 -5 79.5t-17 87.5t-32.5 91.5t-51.5 93.5h61zM387 414h-75v58h75v113h67v-113h120v-58h-120v-261q0 -43 15.5 -57.5t44.5 -14.5q16 0 30.5 2t29.5 7
l11 -55q-14 -5 -36.5 -8.5t-43.5 -3.5q-61 0 -89.5 29.5t-28.5 99.5v262z" />
    <glyph glyph-name="uni24B0" unicode="&#x24b0;" 
d="M198 684q-32 -47 -52.5 -93.5t-32.5 -91.5t-16.5 -87.5t-4.5 -79.5v-46q0 -36 4 -77.5t15.5 -87.5t32 -94.5t54.5 -98.5h-61q-32 42 -53.5 89t-34.5 94t-18.5 93t-5.5 87v36q0 40 5.5 85t18.5 91.5t34.5 92.5t53.5 88h61zM773 684q32 -42 53.5 -88t34.5 -92.5t18.5 -91.5
t5.5 -85v-36q0 -41 -5.5 -87t-18.5 -93t-34.5 -94t-53.5 -89h-61q34 50 54.5 98.5t32 94.5t15.5 87.5t4 77.5v46q0 37 -5 79.5t-17 87.5t-32.5 91.5t-51.5 93.5h61zM283 529h67v-280q0 -53 22 -82.5t80 -29.5q24 0 45.5 8.5t38 23.5t26 34.5t9.5 42.5v283h68v-445h-66v59
q-18 -29 -51.5 -47.5t-83.5 -18.5q-71 0 -113 40t-42 115v297z" />
    <glyph glyph-name="uni24B1" unicode="&#x24b1;" 
d="M198 684q-32 -47 -52.5 -93.5t-32.5 -91.5t-16.5 -87.5t-4.5 -79.5v-46q0 -36 4 -77.5t15.5 -87.5t32 -94.5t54.5 -98.5h-61q-32 42 -53.5 89t-34.5 94t-18.5 93t-5.5 87v36q0 40 5.5 85t18.5 91.5t34.5 92.5t53.5 88h61zM773 684q32 -42 53.5 -88t34.5 -92.5t18.5 -91.5
t5.5 -85v-36q0 -41 -5.5 -87t-18.5 -93t-34.5 -94t-53.5 -89h-61q34 50 54.5 98.5t32 94.5t15.5 87.5t4 77.5v46q0 37 -5 79.5t-17 87.5t-32.5 91.5t-51.5 93.5h61zM583 529h71l-156 -444h-82l-158 444h74l127 -379z" />
    <glyph glyph-name="uni24B2" unicode="&#x24b2;" 
d="M366 85h-80l-116 444h70l88 -376l96 376h72l99 -376l86 376h66l-113 -444h-78l-97 363zM198 684q-32 -47 -52.5 -93.5t-32.5 -91.5t-16.5 -87.5t-4.5 -79.5v-46q0 -36 4 -77.5t15.5 -87.5t32 -94.5t54.5 -98.5h-61q-32 42 -53.5 89t-34.5 94t-18.5 93t-5.5 87v36
q0 40 5.5 85t18.5 91.5t34.5 92.5t53.5 88h61zM773 684q32 -42 53.5 -88t34.5 -92.5t18.5 -91.5t5.5 -85v-36q0 -41 -5.5 -87t-18.5 -93t-34.5 -94t-53.5 -89h-61q34 50 54.5 98.5t32 94.5t15.5 87.5t4 77.5v46q0 37 -5 79.5t-17 87.5t-32.5 91.5t-51.5 93.5h61z" />
    <glyph glyph-name="uni24B3" unicode="&#x24b3;" 
d="M198 684q-32 -47 -52.5 -93.5t-32.5 -91.5t-16.5 -87.5t-4.5 -79.5v-46q0 -36 4 -77.5t15.5 -87.5t32 -94.5t54.5 -98.5h-61q-32 42 -53.5 89t-34.5 94t-18.5 93t-5.5 87v36q0 40 5.5 85t18.5 91.5t34.5 92.5t53.5 88h61zM773 684q32 -42 53.5 -88t34.5 -92.5t18.5 -91.5
t5.5 -85v-36q0 -41 -5.5 -87t-18.5 -93t-34.5 -94t-53.5 -89h-61q34 50 54.5 98.5t32 94.5t15.5 87.5t4 77.5v46q0 37 -5 79.5t-17 87.5t-32.5 91.5t-51.5 93.5h61zM508 315l151 -230h-80l-115 187l-118 -187h-76l153 230l-145 214h79l110 -173l111 173h75z" />
    <glyph glyph-name="uni24B4" unicode="&#x24b4;" 
d="M198 684q-32 -47 -52.5 -93.5t-32.5 -91.5t-16.5 -87.5t-4.5 -79.5v-46q0 -36 4 -77.5t15.5 -87.5t32 -94.5t54.5 -98.5h-61q-32 42 -53.5 89t-34.5 94t-18.5 93t-5.5 87v36q0 40 5.5 85t18.5 91.5t34.5 92.5t53.5 88h61zM773 684q32 -42 53.5 -88t34.5 -92.5t18.5 -91.5
t5.5 -85v-36q0 -41 -5.5 -87t-18.5 -93t-34.5 -94t-53.5 -89h-61q34 50 54.5 98.5t32 94.5t15.5 87.5t4 77.5v46q0 37 -5 79.5t-17 87.5t-32.5 91.5t-51.5 93.5h61zM591 593h70l-231 -625l-60 21l58 156l-165 448h72l128 -365z" />
    <glyph glyph-name="uni24B5" unicode="&#x24b5;" 
d="M198 684q-32 -47 -52.5 -93.5t-32.5 -91.5t-16.5 -87.5t-4.5 -79.5v-46q0 -36 4 -77.5t15.5 -87.5t32 -94.5t54.5 -98.5h-61q-32 42 -53.5 89t-34.5 94t-18.5 93t-5.5 87v36q0 40 5.5 85t18.5 91.5t34.5 92.5t53.5 88h61zM773 684q32 -42 53.5 -88t34.5 -92.5t18.5 -91.5
t5.5 -85v-36q0 -41 -5.5 -87t-18.5 -93t-34.5 -94t-53.5 -89h-61q34 50 54.5 98.5t32 94.5t15.5 87.5t4 77.5v46q0 37 -5 79.5t-17 87.5t-32.5 91.5t-51.5 93.5h61zM630 479l-258 -337h270v-57h-353v50l258 336h-242v58h325v-50z" />
    <glyph glyph-name="uni24D0" unicode="&#x24d0;" 
d="M832 306q0 82 -28.5 152t-78.5 121t-119 79.5t-151 28.5t-151 -28.5t-119.5 -79.5t-78.5 -121t-28 -152q0 -83 28 -152.5t78.5 -120.5t119.5 -79.5t151 -28.5t151 28.5t119 79.5t78.5 120.5t28.5 152.5zM888 306q0 -94 -32.5 -173.5t-90.5 -137.5t-137.5 -90.5
t-172.5 -32.5q-94 0 -173.5 32.5t-137 90.5t-90 137.5t-32.5 173.5q0 93 32.5 172.5t90 137.5t137 91t173.5 33q93 0 172.5 -33t137.5 -91t90.5 -137.5t32.5 -172.5zM424 100q-61 0 -97.5 31t-36.5 85v19q0 52 35.5 84t111.5 32h107v28q0 42 -21 63t-66 21q-36 0 -63.5 -11
t-55.5 -30l-33 50q30 20 66.5 35.5t85.5 15.5q69 0 111 -34t42 -97v-286h-64l-1 50q-13 -24 -44.5 -40t-76.5 -16zM544 295h-105q-45 0 -64.5 -17t-19.5 -47v-11q0 -33 23 -48t53 -15q22 0 42.5 5.5t36 16.5t25 28t9.5 40v48z" />
    <glyph glyph-name="uni24D1" unicode="&#x24d1;" 
d="M832 306q0 82 -28.5 152t-78.5 121t-119 79.5t-151 28.5t-151 -28.5t-119.5 -79.5t-78.5 -121t-28 -152q0 -83 28 -152.5t78.5 -120.5t119.5 -79.5t151 -28.5t151 28.5t119 79.5t78.5 120.5t28.5 152.5zM888 306q0 -94 -32.5 -173.5t-90.5 -137.5t-137.5 -90.5
t-172.5 -32.5q-94 0 -173.5 32.5t-137 90.5t-90 137.5t-32.5 173.5q0 93 32.5 172.5t90 137.5t137 91t173.5 33q93 0 172.5 -33t137.5 -91t90.5 -137.5t32.5 -172.5zM373 82v-48h-65v567h66v-209q20 31 52 44.5t67 13.5q76 0 118 -45.5t42 -128.5v-73q0 -41 -12 -73.5
t-33.5 -55t-51 -34.5t-65.5 -12q-45 0 -74 16.5t-43 37.5h-1zM587 265q0 61 -27 93.5t-75 32.5q-22 0 -42 -7.5t-35.5 -21t-24.5 -33t-9 -44.5v-108q0 -17 8 -33t23 -29t35.5 -21t44.5 -8q48 0 75 33.5t27 93.5v52z" />
    <glyph glyph-name="uni24D2" unicode="&#x24d2;" 
d="M832 306q0 82 -28.5 152t-78.5 121t-119 79.5t-151 28.5t-151 -28.5t-119.5 -79.5t-78.5 -121t-28 -152q0 -83 28 -152.5t78.5 -120.5t119.5 -79.5t151 -28.5t151 28.5t119 79.5t78.5 120.5t28.5 152.5zM888 306q0 -94 -32.5 -173.5t-90.5 -137.5t-137.5 -90.5
t-172.5 -32.5q-94 0 -173.5 32.5t-137 90.5t-90 137.5t-32.5 173.5q0 93 32.5 172.5t90 137.5t137 91t173.5 33q93 0 172.5 -33t137.5 -91t90.5 -137.5t32.5 -172.5zM460 516q48 0 80.5 -12t58.5 -32l-32 -50q-28 20 -53 27t-54 7q-45 0 -76 -30t-31 -93v-52
q0 -67 31.5 -97.5t76.5 -30.5q41 0 67.5 10.5t49.5 27.5l31 -51q-21 -17 -56.5 -32t-91.5 -15q-84 0 -130 49t-46 138v51q0 89 48 137t127 48z" />
    <glyph glyph-name="uni24D3" unicode="&#x24d3;" 
d="M832 306q0 82 -28.5 152t-78.5 121t-119 79.5t-151 28.5t-151 -28.5t-119.5 -79.5t-78.5 -121t-28 -152q0 -83 28 -152.5t78.5 -120.5t119.5 -79.5t151 -28.5t151 28.5t119 79.5t78.5 120.5t28.5 152.5zM888 306q0 -94 -32.5 -173.5t-90.5 -137.5t-137.5 -90.5
t-172.5 -32.5q-94 0 -173.5 32.5t-137 90.5t-90 137.5t-32.5 173.5q0 93 32.5 172.5t90 137.5t137 91t173.5 33q93 0 172.5 -33t137.5 -91t90.5 -137.5t32.5 -172.5zM544 93h-1q-17 -29 -49.5 -43t-70.5 -14q-75 0 -117.5 45t-42.5 129v72q0 84 45 130t117 46
q46 0 74.5 -16.5t42.5 -36.5v204h66v-567h-64v51zM329 221q0 -60 27.5 -93.5t74.5 -33.5q46 0 78.5 27t32.5 77v111q0 16 -8 32.5t-23 29.5t-35.5 21t-44.5 8q-48 0 -75 -33.5t-27 -93.5v-52z" />
    <glyph glyph-name="uni24D4" unicode="&#x24d4;" 
d="M832 306q0 82 -28.5 152t-78.5 121t-119 79.5t-151 28.5t-151 -28.5t-119.5 -79.5t-78.5 -121t-28 -152q0 -83 28 -152.5t78.5 -120.5t119.5 -79.5t151 -28.5t151 28.5t119 79.5t78.5 120.5t28.5 152.5zM888 306q0 -94 -32.5 -173.5t-90.5 -137.5t-137.5 -90.5
t-172.5 -32.5q-94 0 -173.5 32.5t-137 90.5t-90 137.5t-32.5 173.5q0 93 32.5 172.5t90 137.5t137 91t173.5 33q93 0 172.5 -33t137.5 -91t90.5 -137.5t32.5 -172.5zM560 338v11q0 52 -27.5 82t-76.5 30q-48 0 -77.5 -31.5t-29.5 -82.5v-9h211zM615 141q-26 -17 -63 -31
t-92 -14q-39 0 -71.5 11.5t-56 34.5t-36.5 58.5t-13 83.5v48q0 91 48 138.5t125 47.5q79 0 124 -48t45 -136v-51h-276v-4q0 -61 31.5 -93.5t82.5 -32.5q40 0 69.5 11t54.5 28z" />
    <glyph glyph-name="uni24D5" unicode="&#x24d5;" 
d="M832 306q0 82 -28.5 152t-78.5 121t-119 79.5t-151 28.5t-151 -28.5t-119.5 -79.5t-78.5 -121t-28 -152q0 -83 28 -152.5t78.5 -120.5t119.5 -79.5t151 -28.5t151 28.5t119 79.5t78.5 120.5t28.5 152.5zM888 306q0 -94 -32.5 -173.5t-90.5 -137.5t-137.5 -90.5
t-172.5 -32.5q-94 0 -173.5 32.5t-137 90.5t-90 137.5t-32.5 173.5q0 93 32.5 172.5t90 137.5t137 91t173.5 33q93 0 172.5 -33t137.5 -91t90.5 -137.5t32.5 -172.5zM399 366h-68v57h68v48q0 63 29 91t86 28q18 0 38.5 -3t32.5 -8l-10 -54q-14 5 -28 6.5t-28 1.5
q-24 0 -39 -12.5t-15 -52.5v-45h109v-57h-109v-348h-66v348z" />
    <glyph glyph-name="uni24D6" unicode="&#x24d6;" 
d="M888 306q0 -94 -32.5 -173.5t-90.5 -137.5t-137.5 -90.5t-172.5 -32.5q-94 0 -173.5 32.5t-137 90.5t-90 137.5t-32.5 173.5q0 93 32.5 172.5t90 137.5t137 91t173.5 33q93 0 172.5 -33t137.5 -91t90.5 -137.5t32.5 -172.5zM832 306q0 82 -28.5 152t-78.5 121t-119 79.5
t-151 28.5t-151 -28.5t-119.5 -79.5t-78.5 -121t-28 -152q0 -83 28 -152.5t78.5 -120.5t119.5 -79.5t151 -28.5t151 28.5t119 79.5t78.5 120.5t28.5 152.5zM555 224q-17 -29 -49.5 -42t-68.5 -13q-75 0 -117.5 45t-42.5 129v64q0 84 45 130t117 46q46 0 74.5 -16.5
t42.5 -36.5v45h66v-402q0 -86 -45.5 -129.5t-132.5 -43.5q-42 0 -76.5 12t-59.5 32l30 51q23 -16 49.5 -25t58.5 -9q109 0 109 112v51zM342 353q0 -60 27.5 -93t75.5 -33q46 0 78.5 27t32.5 77v103q0 16 -8.5 32.5t-23 29.5t-35 21t-44.5 8q-48 0 -75.5 -33.5t-27.5 -93.5
v-45z" />
    <glyph glyph-name="uni24D7" unicode="&#x24d7;" 
d="M832 306q0 82 -28.5 152t-78.5 121t-119 79.5t-151 28.5t-151 -28.5t-119.5 -79.5t-78.5 -121t-28 -152q0 -83 28 -152.5t78.5 -120.5t119.5 -79.5t151 -28.5t151 28.5t119 79.5t78.5 120.5t28.5 152.5zM888 306q0 -94 -32.5 -173.5t-90.5 -137.5t-137.5 -90.5
t-172.5 -32.5q-94 0 -173.5 32.5t-137 90.5t-90 137.5t-32.5 173.5q0 93 32.5 172.5t90 137.5t137 91t173.5 33q93 0 172.5 -33t137.5 -91t90.5 -137.5t32.5 -172.5zM495 445q62 0 103 -37t41 -107v-272h-66v256q0 50 -21.5 75.5t-71.5 25.5q-21 0 -40.5 -7.5t-34.5 -20.5
t-24 -31.5t-9 -40.5v-257h-66v567h66v-210q18 26 48.5 42.5t74.5 16.5z" />
    <glyph glyph-name="uni24D8" unicode="&#x24d8;" 
d="M832 306q0 82 -28.5 152t-78.5 121t-119 79.5t-151 28.5t-151 -28.5t-119.5 -79.5t-78.5 -121t-28 -152q0 -83 28 -152.5t78.5 -120.5t119.5 -79.5t151 -28.5t151 28.5t119 79.5t78.5 120.5t28.5 152.5zM888 306q0 -94 -32.5 -173.5t-90.5 -137.5t-137.5 -90.5
t-172.5 -32.5q-94 0 -173.5 32.5t-137 90.5t-90 137.5t-32.5 173.5q0 93 32.5 172.5t90 137.5t137 91t173.5 33q93 0 172.5 -33t137.5 -91t90.5 -137.5t32.5 -172.5zM420 436h66v-408h-66v408zM417 580h71v-73h-71v73z" />
    <glyph glyph-name="uni24D9" unicode="&#x24d9;" 
d="M888 306q0 -94 -32.5 -173.5t-90.5 -137.5t-137.5 -90.5t-172.5 -32.5q-94 0 -173.5 32.5t-137 90.5t-90 137.5t-32.5 173.5q0 93 32.5 172.5t90 137.5t137 91t173.5 33q93 0 172.5 -33t137.5 -91t90.5 -137.5t32.5 -172.5zM832 306q0 82 -28.5 152t-78.5 121t-119 79.5
t-151 28.5t-151 -28.5t-119.5 -79.5t-78.5 -121t-28 -152q0 -83 28 -152.5t78.5 -120.5t119.5 -79.5t151 -28.5t151 28.5t119 79.5t78.5 120.5t28.5 152.5zM514 112q0 -63 -29 -91.5t-86 -28.5q-18 0 -38.5 3t-32.5 8l10 54q14 -5 27.5 -6.5t27.5 -1.5q24 0 39.5 12.5
t15.5 53.5v331h66v-334zM446 590h70v-73h-70v73z" />
    <glyph glyph-name="uni24DA" unicode="&#x24da;" 
d="M832 306q0 82 -28.5 152t-78.5 121t-119 79.5t-151 28.5t-151 -28.5t-119.5 -79.5t-78.5 -121t-28 -152q0 -83 28 -152.5t78.5 -120.5t119.5 -79.5t151 -28.5t151 28.5t119 79.5t78.5 120.5t28.5 152.5zM888 306q0 -94 -32.5 -173.5t-90.5 -137.5t-137.5 -90.5
t-172.5 -32.5q-94 0 -173.5 32.5t-137 90.5t-90 137.5t-32.5 173.5q0 93 32.5 172.5t90 137.5t137 91t173.5 33q93 0 172.5 -33t137.5 -91t90.5 -137.5t32.5 -172.5zM490 278l173 -247h-82l-137 201l-59 -59v-142h-66v567h66v-345l182 187h85z" />
    <glyph glyph-name="uni24DB" unicode="&#x24db;" 
d="M832 306q0 82 -28.5 152t-78.5 121t-119 79.5t-151 28.5t-151 -28.5t-119.5 -79.5t-78.5 -121t-28 -152q0 -83 28 -152.5t78.5 -120.5t119.5 -79.5t151 -28.5t151 28.5t119 79.5t78.5 120.5t28.5 152.5zM888 306q0 -94 -32.5 -173.5t-90.5 -137.5t-137.5 -90.5
t-172.5 -32.5q-94 0 -173.5 32.5t-137 90.5t-90 137.5t-32.5 173.5q0 93 32.5 172.5t90 137.5t137 91t173.5 33q93 0 172.5 -33t137.5 -91t90.5 -137.5t32.5 -172.5zM422 590h66v-567h-66v567z" />
    <glyph glyph-name="uni24DC" unicode="&#x24dc;" 
d="M832 306q0 82 -28.5 152t-78.5 121t-119 79.5t-151 28.5t-151 -28.5t-119.5 -79.5t-78.5 -121t-28 -152q0 -83 28 -152.5t78.5 -120.5t119.5 -79.5t151 -28.5t151 28.5t119 79.5t78.5 120.5t28.5 152.5zM888 306q0 -94 -32.5 -173.5t-90.5 -137.5t-137.5 -90.5
t-172.5 -32.5q-94 0 -173.5 32.5t-137 90.5t-90 137.5t-32.5 173.5q0 93 32.5 172.5t90 137.5t137 91t173.5 33q93 0 172.5 -33t137.5 -91t90.5 -137.5t32.5 -172.5zM608 512q65 0 97.5 -38.5t32.5 -107.5v-270h-66v250q0 52 -17.5 79t-59.5 27q-38 0 -66 -26t-28 -72v-258
h-66v250q0 52 -17.5 79t-59.5 27q-38 0 -66.5 -25t-28.5 -70v-261h-66v408h66v-55q13 26 39 44.5t68 18.5q44 0 72 -18.5t43 -51.5q18 29 47 49.5t76 20.5z" />
    <glyph glyph-name="uni24DD" unicode="&#x24dd;" 
d="M832 306q0 82 -28.5 152t-78.5 121t-119 79.5t-151 28.5t-151 -28.5t-119.5 -79.5t-78.5 -121t-28 -152q0 -83 28 -152.5t78.5 -120.5t119.5 -79.5t151 -28.5t151 28.5t119 79.5t78.5 120.5t28.5 152.5zM888 306q0 -94 -32.5 -173.5t-90.5 -137.5t-137.5 -90.5
t-172.5 -32.5q-94 0 -173.5 32.5t-137 90.5t-90 137.5t-32.5 173.5q0 93 32.5 172.5t90 137.5t137 91t173.5 33q93 0 172.5 -33t137.5 -91t90.5 -137.5t32.5 -172.5zM488 512q62 0 103 -37t41 -107v-272h-66v256q0 50 -21.5 75.5t-71.5 25.5q-21 0 -40.5 -7.5t-34.5 -20.5
t-24 -31.5t-9 -40.5v-257h-66v408h65v-53q17 26 48 43.5t76 17.5z" />
    <glyph glyph-name="uni24DE" unicode="&#x24de;" 
d="M832 306q0 82 -28.5 152t-78.5 121t-119 79.5t-151 28.5t-151 -28.5t-119.5 -79.5t-78.5 -121t-28 -152q0 -83 28 -152.5t78.5 -120.5t119.5 -79.5t151 -28.5t151 28.5t119 79.5t78.5 120.5t28.5 152.5zM888 306q0 -94 -32.5 -173.5t-90.5 -137.5t-137.5 -90.5
t-172.5 -32.5q-94 0 -173.5 32.5t-137 90.5t-90 137.5t-32.5 173.5q0 93 32.5 172.5t90 137.5t137 91t173.5 33q93 0 172.5 -33t137.5 -91t90.5 -137.5t32.5 -172.5zM456 519q84 0 131.5 -49t47.5 -137v-51q0 -88 -47.5 -137t-131.5 -49t-132 49t-48 137v51q0 89 48 137.5
t132 48.5zM456 154q51 0 82 33t31 101v39q0 68 -31 100.5t-82 32.5t-81.5 -32.5t-30.5 -100.5v-39q0 -68 30.5 -101t81.5 -33z" />
    <glyph glyph-name="uni24DF" unicode="&#x24df;" 
d="M832 306q0 82 -28.5 152t-78.5 121t-119 79.5t-151 28.5t-151 -28.5t-119.5 -79.5t-78.5 -121t-28 -152q0 -83 28 -152.5t78.5 -120.5t119.5 -79.5t151 -28.5t151 28.5t119 79.5t78.5 120.5t28.5 152.5zM888 306q0 -94 -32.5 -173.5t-90.5 -137.5t-137.5 -90.5
t-172.5 -32.5q-94 0 -173.5 32.5t-137 90.5t-90 137.5t-32.5 173.5q0 93 32.5 172.5t90 137.5t137 91t173.5 33q93 0 172.5 -33t137.5 -91t90.5 -137.5t32.5 -172.5zM496 154q-16 0 -33 4t-33 11t-29 16.5t-21 20.5v-206h-66v568h65v-52q18 31 50.5 45.5t70.5 14.5
q76 0 117.5 -46t41.5 -128v-73q0 -85 -45 -130t-118 -45zM593 391q0 61 -27 93.5t-75 32.5q-22 0 -42 -7.5t-35.5 -21t-24.5 -33t-9 -44.5v-108q0 -17 8 -33t23 -29t35.5 -21t44.5 -8q48 0 75 33.5t27 93.5v52z" />
    <glyph glyph-name="uni24E0" unicode="&#x24e0;" 
d="M832 306q0 82 -28.5 152t-78.5 121t-119 79.5t-151 28.5t-151 -28.5t-119.5 -79.5t-78.5 -121t-28 -152q0 -83 28 -152.5t78.5 -120.5t119.5 -79.5t151 -28.5t151 28.5t119 79.5t78.5 120.5t28.5 152.5zM888 306q0 -94 -32.5 -173.5t-90.5 -137.5t-137.5 -90.5
t-172.5 -32.5q-94 0 -173.5 32.5t-137 90.5t-90 137.5t-32.5 173.5q0 93 32.5 172.5t90 137.5t137 91t173.5 33q93 0 172.5 -33t137.5 -91t90.5 -137.5t32.5 -172.5zM534 210q-18 -29 -50.5 -42.5t-68.5 -13.5q-75 0 -117.5 45t-42.5 129v72q0 84 45 130t117 46
q46 0 74.5 -16.5t42.5 -36.5v45h66v-568h-66v210zM321 339q0 -60 27.5 -93.5t74.5 -33.5q46 0 78.5 27t32.5 77v111q0 16 -8 32.5t-23 29.5t-35.5 21t-44.5 8q-48 0 -75 -33.5t-27 -93.5v-52z" />
    <glyph glyph-name="uni24E1" unicode="&#x24e1;" 
d="M832 306q0 82 -28.5 152t-78.5 121t-119 79.5t-151 28.5t-151 -28.5t-119.5 -79.5t-78.5 -121t-28 -152q0 -83 28 -152.5t78.5 -120.5t119.5 -79.5t151 -28.5t151 28.5t119 79.5t78.5 120.5t28.5 152.5zM888 306q0 -94 -32.5 -173.5t-90.5 -137.5t-137.5 -90.5
t-172.5 -32.5q-94 0 -173.5 32.5t-137 90.5t-90 137.5t-32.5 173.5q0 93 32.5 172.5t90 137.5t137 91t173.5 33q93 0 172.5 -33t137.5 -91t90.5 -137.5t32.5 -172.5zM594 429q-11 4 -23 6.5t-26 2.5q-44 0 -74 -32t-30 -83v-237h-66v408h65v-66q17 32 45 53t75 21
q28 0 55 -8z" />
    <glyph glyph-name="uni24E2" unicode="&#x24e2;" 
d="M832 306q0 82 -28.5 152t-78.5 121t-119 79.5t-151 28.5t-151 -28.5t-119.5 -79.5t-78.5 -121t-28 -152q0 -83 28 -152.5t78.5 -120.5t119.5 -79.5t151 -28.5t151 28.5t119 79.5t78.5 120.5t28.5 152.5zM888 306q0 -94 -32.5 -173.5t-90.5 -137.5t-137.5 -90.5
t-172.5 -32.5q-94 0 -173.5 32.5t-137 90.5t-90 137.5t-32.5 173.5q0 93 32.5 172.5t90 137.5t137 91t173.5 33q93 0 172.5 -33t137.5 -91t90.5 -137.5t32.5 -172.5zM456 153q43 0 66.5 15.5t23.5 41.5v6q0 14 -4.5 23.5t-16 17t-30.5 13.5t-48 12q-66 13 -102 38t-36 78v9
q0 21 9 41t27 35.5t46.5 25t67.5 9.5q43 0 79 -11t65 -31l-30 -49q-22 15 -49.5 24t-61.5 9q-45 0 -66 -15t-21 -38v-8q0 -25 22 -37.5t70 -21.5q75 -14 110 -40.5t35 -81.5v-9q0 -24 -11 -45t-31 -36.5t-48.5 -24t-62.5 -8.5q-51 0 -92 13.5t-70 35.5l30 52q28 -19 60 -31
t69 -12z" />
    <glyph glyph-name="uni24E3" unicode="&#x24e3;" 
d="M832 306q0 82 -28.5 152t-78.5 121t-119 79.5t-151 28.5t-151 -28.5t-119.5 -79.5t-78.5 -121t-28 -152q0 -83 28 -152.5t78.5 -120.5t119.5 -79.5t151 -28.5t151 28.5t119 79.5t78.5 120.5t28.5 152.5zM888 306q0 -94 -32.5 -173.5t-90.5 -137.5t-137.5 -90.5
t-172.5 -32.5q-94 0 -173.5 32.5t-137 90.5t-90 137.5t-32.5 173.5q0 93 32.5 172.5t90 137.5t137 91t173.5 33q93 0 172.5 -33t137.5 -91t90.5 -137.5t32.5 -172.5zM391 406h-68v57h68v104h66v-104h110v-57h-110v-235q0 -39 14 -51t40 -12q14 0 27.5 2t27.5 7l10 -54
q-12 -5 -33 -8.5t-41 -3.5q-57 0 -84 28t-27 91v236z" />
    <glyph glyph-name="uni24E4" unicode="&#x24e4;" 
d="M832 306q0 82 -28.5 152t-78.5 121t-119 79.5t-151 28.5t-151 -28.5t-119.5 -79.5t-78.5 -121t-28 -152q0 -83 28 -152.5t78.5 -120.5t119.5 -79.5t151 -28.5t151 28.5t119 79.5t78.5 120.5t28.5 152.5zM888 306q0 -94 -32.5 -173.5t-90.5 -137.5t-137.5 -90.5
t-172.5 -32.5q-94 0 -173.5 32.5t-137 90.5t-90 137.5t-32.5 173.5q0 93 32.5 172.5t90 137.5t137 91t173.5 33q93 0 172.5 -33t137.5 -91t90.5 -137.5t32.5 -172.5zM432 83q-63 0 -103 35.5t-40 107.5v271h66v-255q0 -50 20.5 -75.5t70.5 -25.5q21 0 40.5 7.5t34 20.5
t23.5 31.5t9 40.5v256h66v-408h-65v53q-17 -26 -47.5 -42.5t-74.5 -16.5z" />
    <glyph glyph-name="uni24E5" unicode="&#x24e5;" 
d="M832 306q0 82 -28.5 152t-78.5 121t-119 79.5t-151 28.5t-151 -28.5t-119.5 -79.5t-78.5 -121t-28 -152q0 -83 28 -152.5t78.5 -120.5t119.5 -79.5t151 -28.5t151 28.5t119 79.5t78.5 120.5t28.5 152.5zM888 306q0 -94 -32.5 -173.5t-90.5 -137.5t-137.5 -90.5
t-172.5 -32.5q-94 0 -173.5 32.5t-137 90.5t-90 137.5t-32.5 173.5q0 93 32.5 172.5t90 137.5t137 91t173.5 33q93 0 172.5 -33t137.5 -91t90.5 -137.5t32.5 -172.5zM418 82l-142 405h71l113 -342l111 342h70l-141 -405h-82z" />
    <glyph glyph-name="uni24E6" unicode="&#x24e6;" 
d="M832 306q0 82 -28.5 152t-78.5 121t-119 79.5t-151 28.5t-151 -28.5t-119.5 -79.5t-78.5 -121t-28 -152q0 -83 28 -152.5t78.5 -120.5t119.5 -79.5t151 -28.5t151 28.5t119 79.5t78.5 120.5t28.5 152.5zM888 306q0 -94 -32.5 -173.5t-90.5 -137.5t-137.5 -90.5
t-172.5 -32.5q-94 0 -173.5 32.5t-137 90.5t-90 137.5t-32.5 173.5q0 93 32.5 172.5t90 137.5t137 91t173.5 33q93 0 172.5 -33t137.5 -91t90.5 -137.5t32.5 -172.5zM294 82l-107 405h69l79 -336h1l91 336h68l91 -336h1l80 336h65l-106 -405h-78l-88 324h-1l-87 -324h-78z
" />
    <glyph glyph-name="uni24E7" unicode="&#x24e7;" 
d="M832 306q0 82 -28.5 152t-78.5 121t-119 79.5t-151 28.5t-151 -28.5t-119.5 -79.5t-78.5 -121t-28 -152q0 -83 28 -152.5t78.5 -120.5t119.5 -79.5t151 -28.5t151 28.5t119 79.5t78.5 120.5t28.5 152.5zM888 306q0 -94 -32.5 -173.5t-90.5 -137.5t-137.5 -90.5
t-172.5 -32.5q-94 0 -173.5 32.5t-137 90.5t-90 137.5t-32.5 173.5q0 93 32.5 172.5t90 137.5t137 91t173.5 33q93 0 172.5 -33t137.5 -91t90.5 -137.5t32.5 -172.5zM500 303l137 -210h-80l-101 167l-103 -167h-75l138 210l-132 195h79l97 -154l97 154h74z" />
    <glyph glyph-name="uni24E8" unicode="&#x24e8;" 
d="M832 306q0 82 -28.5 152t-78.5 121t-119 79.5t-151 28.5t-151 -28.5t-119.5 -79.5t-78.5 -121t-28 -152q0 -83 28 -152.5t78.5 -120.5t119.5 -79.5t151 -28.5t151 28.5t119 79.5t78.5 120.5t28.5 152.5zM888 306q0 -94 -32.5 -173.5t-90.5 -137.5t-137.5 -90.5
t-172.5 -32.5q-94 0 -173.5 32.5t-137 90.5t-90 137.5t-32.5 173.5q0 93 32.5 172.5t90 137.5t137 91t173.5 33q93 0 172.5 -33t137.5 -91t90.5 -137.5t32.5 -172.5zM352 555l114 -330l115 330h68l-212 -573l-58 21l53 140l-151 412h71z" />
    <glyph glyph-name="uni24E9" unicode="&#x24e9;" 
d="M832 306q0 82 -28.5 152t-78.5 121t-119 79.5t-151 28.5t-151 -28.5t-119.5 -79.5t-78.5 -121t-28 -152q0 -83 28 -152.5t78.5 -120.5t119.5 -79.5t151 -28.5t151 28.5t119 79.5t78.5 120.5t28.5 152.5zM888 306q0 -94 -32.5 -173.5t-90.5 -137.5t-137.5 -90.5
t-172.5 -32.5q-94 0 -173.5 32.5t-137 90.5t-90 137.5t-32.5 173.5q0 93 32.5 172.5t90 137.5t137 91t173.5 33q93 0 172.5 -33t137.5 -91t90.5 -137.5t32.5 -172.5zM611 457l-231 -302h242v-57h-326v49l234 302h-219v58h300v-50z" />
    <glyph glyph-name="SF100000" unicode="&#x2500;" horiz-adv-x="920" 
d="M920 286h-920v29h920v-29z" />
    <glyph glyph-name="uni2501" unicode="&#x2501;" horiz-adv-x="920" 
d="M920 271h-920v54h920v-54z" />
    <glyph glyph-name="SF110000" unicode="&#x2502;" horiz-adv-x="920" 
d="M475 -200h-29v1000h29v-1000z" />
    <glyph glyph-name="uni2503" unicode="&#x2503;" horiz-adv-x="920" 
d="M487 -200h-54v1000h54v-1000z" />
    <glyph glyph-name="SF010000" unicode="&#x250c;" horiz-adv-x="920" 
d="M920 286h-445v-486h-29v515h474v-29z" />
    <glyph glyph-name="uni250D" unicode="&#x250d;" horiz-adv-x="920" 
d="M920 264h-441v-464h-38v536h479v-72z" />
    <glyph glyph-name="uni250E" unicode="&#x250e;" horiz-adv-x="920" 
d="M920 282h-422v-482h-76v518h498v-36z" />
    <glyph glyph-name="uni250F" unicode="&#x250f;" horiz-adv-x="920" 
d="M920 271h-433v-471h-54v525h487v-54z" />
    <glyph glyph-name="SF030000" unicode="&#x2510;" horiz-adv-x="920" 
d="M475 -200h-29v486h-446v29h475v-515z" />
    <glyph glyph-name="uni2511" unicode="&#x2511;" horiz-adv-x="920" 
d="M479 -200h-38v464h-441v72h479v-536z" />
    <glyph glyph-name="uni2512" unicode="&#x2512;" horiz-adv-x="920" 
d="M498 -200h-76v482h-422v36h498v-518z" />
    <glyph glyph-name="uni2513" unicode="&#x2513;" horiz-adv-x="920" 
d="M487 -200h-54v471h-433v54h487v-525z" />
    <glyph glyph-name="SF020000" unicode="&#x2514;" horiz-adv-x="920" 
d="M920 286h-474v514h29v-485h445v-29z" />
    <glyph glyph-name="uni2515" unicode="&#x2515;" horiz-adv-x="920" 
d="M920 264h-479v536h38v-464h441v-72z" />
    <glyph glyph-name="uni2516" unicode="&#x2516;" horiz-adv-x="920" 
d="M920 282h-498v518h76v-482h422v-36z" />
    <glyph glyph-name="uni2517" unicode="&#x2517;" horiz-adv-x="920" 
d="M920 271h-487v529h54v-475h433v-54z" />
    <glyph glyph-name="SF040000" unicode="&#x2518;" horiz-adv-x="920" 
d="M475 286h-475v29h446v485h29v-514z" />
    <glyph glyph-name="uni2519" unicode="&#x2519;" horiz-adv-x="920" 
d="M479 264h-479v72h441v464h38v-536z" />
    <glyph glyph-name="uni251A" unicode="&#x251a;" horiz-adv-x="920" 
d="M498 282h-498v36h422v482h76v-518z" />
    <glyph glyph-name="uni251B" unicode="&#x251b;" horiz-adv-x="920" 
d="M487 271h-487v54h433v475h54v-529z" />
    <glyph glyph-name="SF080000" unicode="&#x251c;" horiz-adv-x="920" 
d="M920 286h-445v-486h-29v1000h29v-485h445v-29z" />
    <glyph glyph-name="uni251D" unicode="&#x251d;" horiz-adv-x="920" 
d="M920 264h-441v-464h-38v1000h38v-464h441v-72z" />
    <glyph glyph-name="uni251E" unicode="&#x251e;" horiz-adv-x="920" 
d="M920 282h-442l1 -482h-38v500h-19v500h76v-482h422v-36z" />
    <glyph glyph-name="uni251F" unicode="&#x251f;" horiz-adv-x="920" 
d="M920 282h-422v-482h-76v500h19v500h38v-482h441v-36z" />
    <glyph glyph-name="uni2520" unicode="&#x2520;" horiz-adv-x="920" 
d="M920 282h-423v-482h-76v1000h76v-482h423v-36z" />
    <glyph glyph-name="uni2521" unicode="&#x2521;" horiz-adv-x="920" 
d="M920 264h-441v-464h-38v500h-19v500h76v-464h422v-72z" />
    <glyph glyph-name="uni2522" unicode="&#x2522;" horiz-adv-x="920" 
d="M920 264h-422v-464h-76v500h19v500h38v-464h441v-72z" />
    <glyph glyph-name="uni2523" unicode="&#x2523;" horiz-adv-x="920" 
d="M920 271h-433v-471h-54v1000h54v-475h433v-54z" />
    <glyph glyph-name="SF090000" unicode="&#x2524;" horiz-adv-x="920" 
d="M475 -200h-29v486h-446v29h446v485h29v-1000z" />
    <glyph glyph-name="uni2525" unicode="&#x2525;" horiz-adv-x="920" 
d="M479 -200h-38v464h-441v72h441v464h38v-1000z" />
    <glyph glyph-name="uni2526" unicode="&#x2526;" horiz-adv-x="920" 
d="M498 300h-19v-500h-38v482h-441v36h422v482h76v-500z" />
    <glyph glyph-name="uni2527" unicode="&#x2527;" horiz-adv-x="920" 
d="M498 -200h-76v482h-422v36h441v482h38v-500h19v-500z" />
    <glyph glyph-name="uni2528" unicode="&#x2528;" horiz-adv-x="920" 
d="M498 -200h-76v482h-422v36h422v482h76v-1000z" />
    <glyph glyph-name="uni2529" unicode="&#x2529;" horiz-adv-x="920" 
d="M498 300h-19v-500h-38v464h-441v72h422v464h76v-500z" />
    <glyph glyph-name="uni252A" unicode="&#x252a;" horiz-adv-x="920" 
d="M498 -200h-76v464h-422v72h441v464h38v-500h19v-500z" />
    <glyph glyph-name="uni252B" unicode="&#x252b;" horiz-adv-x="920" 
d="M487 -200h-54v471h-433v54h433v475h54v-1000z" />
    <glyph glyph-name="SF060000" unicode="&#x252c;" horiz-adv-x="920" 
d="M920 286h-445v-486h-29v486h-446v29h920v-29z" />
    <glyph glyph-name="uni252D" unicode="&#x252d;" horiz-adv-x="920" 
d="M920 282h-441v-482h-38v464h-441v72h460v-18h460v-36z" />
    <glyph glyph-name="uni252E" unicode="&#x252e;" horiz-adv-x="920" 
d="M920 264h-441v-464h-38v482h-441v36h460v18h460v-72z" />
    <glyph glyph-name="uni252F" unicode="&#x252f;" horiz-adv-x="920" 
d="M920 264h-441v-464h-38v464h-441v72h920v-72z" />
    <glyph glyph-name="uni2530" unicode="&#x2530;" horiz-adv-x="920" 
d="M920 282h-422v-482h-76v482h-422v36h920v-36z" />
    <glyph glyph-name="uni2531" unicode="&#x2531;" horiz-adv-x="920" 
d="M920 282h-422v-482h-76v464h-422v72h460v-18h460v-36z" />
    <glyph glyph-name="uni2532" unicode="&#x2532;" horiz-adv-x="920" 
d="M920 264h-422v-464h-76v482h-422v36h460v18h460v-72z" />
    <glyph glyph-name="uni2533" unicode="&#x2533;" horiz-adv-x="920" 
d="M920 271h-433v-471h-54v471h-433v54h920v-54z" />
    <glyph glyph-name="SF070000" unicode="&#x2534;" horiz-adv-x="920" 
d="M920 286h-920v29h446v485h29v-485h445v-29z" />
    <glyph glyph-name="uni2535" unicode="&#x2535;" horiz-adv-x="920" 
d="M920 282h-460v-18h-460v72h441v464h38v-482h441v-36z" />
    <glyph glyph-name="uni2536" unicode="&#x2536;" horiz-adv-x="920" 
d="M920 264h-460v18h-460v36h441v482h38v-464h441v-72z" />
    <glyph glyph-name="uni2537" unicode="&#x2537;" horiz-adv-x="920" 
d="M920 264h-920v72h441v464h38v-464h441v-72z" />
    <glyph glyph-name="uni2538" unicode="&#x2538;" horiz-adv-x="920" 
d="M920 282h-920v36h422v482h76v-482h422v-36z" />
    <glyph glyph-name="uni2539" unicode="&#x2539;" horiz-adv-x="920" 
d="M920 282h-460v-18h-460v72h422v464h76v-482h422v-36z" />
    <glyph glyph-name="uni253A" unicode="&#x253a;" horiz-adv-x="920" 
d="M920 264h-460v18h-460v36h422v482h76v-464h422v-72z" />
    <glyph glyph-name="uni253B" unicode="&#x253b;" horiz-adv-x="920" 
d="M920 271h-920v54h433v475h54v-475h433v-54z" />
    <glyph glyph-name="SF050000" unicode="&#x253c;" horiz-adv-x="920" 
d="M920 285h-445v-485h-29v485h-446v29h446v486h29v-486h445v-29z" />
    <glyph glyph-name="uni253D" unicode="&#x253d;" horiz-adv-x="920" 
d="M920 282h-441v-482h-38v464h-441v76h441v460h38v-482h441v-36z" />
    <glyph glyph-name="uni253E" unicode="&#x253e;" horiz-adv-x="920" 
d="M920 264h-441v-464h-38v482h-441v36h441v482h38v-464h441v-72z" />
    <glyph glyph-name="uni253F" unicode="&#x253f;" horiz-adv-x="920" 
d="M920 264h-441v-464h-38v464h-441v72h441v464h38v-464h441v-72z" />
    <glyph glyph-name="uni2540" unicode="&#x2540;" horiz-adv-x="920" 
d="M920 282h-441v-482h-38v482h-441v36h422v482h76v-482h422v-36z" />
    <glyph glyph-name="uni2541" unicode="&#x2541;" horiz-adv-x="920" 
d="M920 282h-422v-482h-76v482h-422v36h441v482h38v-482h441v-36z" />
    <glyph glyph-name="uni2542" unicode="&#x2542;" horiz-adv-x="920" 
d="M920 282h-422v-482h-76v482h-422v36h422v482h76v-482h422v-36z" />
    <glyph glyph-name="uni2543" unicode="&#x2543;" horiz-adv-x="920" 
d="M920 282h-441v-482h-38v464h-441v72h422v464h76v-482h422v-36z" />
    <glyph glyph-name="uni2544" unicode="&#x2544;" horiz-adv-x="920" 
d="M920 264h-441v-464h-38v482h-441v36h422v482h76v-464h422v-72z" />
    <glyph glyph-name="uni2545" unicode="&#x2545;" horiz-adv-x="920" 
d="M920 282h-422v-482h-76v464h-422v72h441v464h38v-482h441v-36z" />
    <glyph glyph-name="uni2546" unicode="&#x2546;" horiz-adv-x="920" 
d="M920 264h-422v-464h-76v482h-422v36h441v482h38v-464h441v-72z" />
    <glyph glyph-name="uni2547" unicode="&#x2547;" horiz-adv-x="920" 
d="M920 264h-441v-464h-38v464h-441v72h422v464h76v-464h422v-72z" />
    <glyph glyph-name="uni2548" unicode="&#x2548;" horiz-adv-x="920" 
d="M920 264h-422v-464h-76v464h-422v72h441v464h38v-464h441v-72z" />
    <glyph glyph-name="uni2549" unicode="&#x2549;" horiz-adv-x="920" 
d="M920 282h-422v-482h-76v464h-422v72h422v464h76v-482h422v-36z" />
    <glyph glyph-name="uni254A" unicode="&#x254a;" horiz-adv-x="920" 
d="M920 264h-422v-464h-76v482h-422v36h422v482h76v-464h422v-72z" />
    <glyph glyph-name="uni254B" unicode="&#x254b;" horiz-adv-x="920" 
d="M920 271h-433v-471h-54v471h-433v54h433v475h54v-475h433v-54z" />
    <glyph glyph-name="shade" unicode="&#x2592;" 
d="M199 19q0 -11 -6.5 -18.5t-17.5 -7.5t-18.5 7.5t-7.5 18.5t7.5 18t18.5 7q24 0 24 -25zM293 19q0 -11 -7.5 -18.5t-17.5 -7.5q-11 0 -18.5 7.5t-7.5 18.5t7.5 18t18.5 7q10 0 17.5 -7t7.5 -18zM199 113q0 -11 -6.5 -18.5t-17.5 -7.5t-18.5 7.5t-7.5 18.5q0 10 7.5 17
t18.5 7t17.5 -7t6.5 -17zM293 113q0 -11 -7.5 -18.5t-17.5 -7.5q-11 0 -18.5 7.5t-7.5 18.5q0 10 7.5 17t18.5 7q10 0 17.5 -7t7.5 -17zM387 19q0 -11 -7.5 -18.5t-18.5 -7.5t-18 7.5t-7 18.5q0 25 25 25q11 0 18.5 -7t7.5 -18zM199 206q0 -11 -6.5 -18.5t-17.5 -7.5
t-18.5 7.5t-7.5 18.5t7.5 18.5t18.5 7.5t17.5 -7.5t6.5 -18.5zM387 113q0 -11 -7.5 -18.5t-18.5 -7.5t-18 7.5t-7 18.5q0 10 7 17t18 7t18.5 -7t7.5 -17zM293 206q0 -11 -7.5 -18.5t-17.5 -7.5q-11 0 -18.5 7.5t-7.5 18.5t7.5 18.5t18.5 7.5q10 0 17.5 -7.5t7.5 -18.5z
M480 19q0 -11 -7 -18.5t-18 -7.5q-10 0 -17.5 7.5t-7.5 18.5t7.5 18t17.5 7q25 0 25 -25zM199 300q0 -10 -6.5 -17.5t-17.5 -7.5t-18.5 7.5t-7.5 17.5q0 11 7.5 18t18.5 7q24 0 24 -25zM480 113q0 -11 -7 -18.5t-18 -7.5q-10 0 -17.5 7.5t-7.5 18.5q0 10 7.5 17t17.5 7
q11 0 18 -7t7 -17zM387 206q0 -11 -7.5 -18.5t-18.5 -7.5t-18 7.5t-7 18.5t7 18.5t18 7.5t18.5 -7.5t7.5 -18.5zM293 300q0 -10 -7.5 -17.5t-17.5 -7.5q-11 0 -18.5 7.5t-7.5 17.5q0 11 7.5 18t18.5 7q10 0 17.5 -7t7.5 -18zM575 19q0 -11 -7.5 -18.5t-18.5 -7.5t-18.5 7.5
t-7.5 18.5t7.5 18t18.5 7t18.5 -7t7.5 -18zM199 394q0 -11 -6.5 -18.5t-17.5 -7.5t-18.5 7.5t-7.5 18.5t7.5 18.5t18.5 7.5t17.5 -7.5t6.5 -18.5zM575 113q0 -11 -7.5 -18.5t-18.5 -7.5t-18.5 7.5t-7.5 18.5q0 10 7.5 17t18.5 7t18.5 -7t7.5 -17zM480 206q0 -11 -7 -18.5
t-18 -7.5q-10 0 -17.5 7.5t-7.5 18.5t7.5 18.5t17.5 7.5q11 0 18 -7.5t7 -18.5zM387 300q0 -10 -7.5 -17.5t-18.5 -7.5t-18 7.5t-7 17.5q0 25 25 25q11 0 18.5 -7t7.5 -18zM293 394q0 -11 -7.5 -18.5t-17.5 -7.5q-11 0 -18.5 7.5t-7.5 18.5t7.5 18.5t18.5 7.5
q10 0 17.5 -7.5t7.5 -18.5zM668 19q0 -11 -7 -18.5t-18 -7.5t-18 7.5t-7 18.5q0 25 25 25t25 -25zM199 487q0 -10 -6.5 -17t-17.5 -7t-18.5 7t-7.5 17q0 11 7.5 18.5t18.5 7.5t17.5 -7.5t6.5 -18.5zM762 19q0 -11 -7.5 -18.5t-18.5 -7.5t-18 7.5t-7 18.5q0 25 25 25
q11 0 18.5 -7t7.5 -18zM668 113q0 -11 -7 -18.5t-18 -7.5t-18 7.5t-7 18.5q0 10 7 17t18 7t18 -7t7 -17zM575 206q0 -11 -7.5 -18.5t-18.5 -7.5t-18.5 7.5t-7.5 18.5t7.5 18.5t18.5 7.5t18.5 -7.5t7.5 -18.5zM480 300q0 -10 -7 -17.5t-18 -7.5q-10 0 -17.5 7.5t-7.5 17.5
q0 11 7.5 18t17.5 7q25 0 25 -25zM387 394q0 -11 -7.5 -18.5t-18.5 -7.5t-18 7.5t-7 18.5t7 18.5t18 7.5t18.5 -7.5t7.5 -18.5zM293 487q0 -10 -7.5 -17t-17.5 -7q-11 0 -18.5 7t-7.5 17q0 11 7.5 18.5t18.5 7.5q10 0 17.5 -7.5t7.5 -18.5zM199 581q0 -25 -24 -25
q-11 0 -18.5 7t-7.5 18t7.5 18.5t18.5 7.5t17.5 -7.5t6.5 -18.5zM762 113q0 -11 -7.5 -18.5t-18.5 -7.5t-18 7.5t-7 18.5q0 10 7 17t18 7t18.5 -7t7.5 -17zM293 581q0 -11 -7.5 -18t-17.5 -7q-11 0 -18.5 7t-7.5 18t7.5 18.5t18.5 7.5q10 0 17.5 -7.5t7.5 -18.5zM668 206
q0 -11 -7 -18.5t-18 -7.5t-18 7.5t-7 18.5t7 18.5t18 7.5t18 -7.5t7 -18.5zM575 300q0 -10 -7.5 -17.5t-18.5 -7.5t-18.5 7.5t-7.5 17.5q0 11 7.5 18t18.5 7t18.5 -7t7.5 -18zM480 394q0 -11 -7 -18.5t-18 -7.5q-10 0 -17.5 7.5t-7.5 18.5t7.5 18.5t17.5 7.5q11 0 18 -7.5
t7 -18.5zM387 487q0 -10 -7.5 -17t-18.5 -7t-18 7t-7 17q0 11 7 18.5t18 7.5t18.5 -7.5t7.5 -18.5zM762 206q0 -11 -7.5 -18.5t-18.5 -7.5t-18 7.5t-7 18.5t7 18.5t18 7.5t18.5 -7.5t7.5 -18.5zM387 581q0 -11 -7.5 -18t-18.5 -7q-25 0 -25 25q0 11 7 18.5t18 7.5t18.5 -7.5
t7.5 -18.5zM668 300q0 -10 -7 -17.5t-18 -7.5t-18 7.5t-7 17.5q0 25 25 25t25 -25zM575 394q0 -11 -7.5 -18.5t-18.5 -7.5t-18.5 7.5t-7.5 18.5t7.5 18.5t18.5 7.5t18.5 -7.5t7.5 -18.5zM480 487q0 -10 -7 -17t-18 -7q-10 0 -17.5 7t-7.5 17q0 11 7.5 18.5t17.5 7.5
q11 0 18 -7.5t7 -18.5zM762 300q0 -10 -7.5 -17.5t-18.5 -7.5t-18 7.5t-7 17.5q0 25 25 25q11 0 18.5 -7t7.5 -18zM480 581q0 -25 -25 -25q-10 0 -17.5 7t-7.5 18t7.5 18.5t17.5 7.5q11 0 18 -7.5t7 -18.5zM668 394q0 -11 -7 -18.5t-18 -7.5t-18 7.5t-7 18.5t7 18.5t18 7.5
t18 -7.5t7 -18.5zM575 487q0 -10 -7.5 -17t-18.5 -7t-18.5 7t-7.5 17q0 11 7.5 18.5t18.5 7.5t18.5 -7.5t7.5 -18.5zM762 394q0 -11 -7.5 -18.5t-18.5 -7.5t-18 7.5t-7 18.5t7 18.5t18 7.5t18.5 -7.5t7.5 -18.5zM575 581q0 -11 -7.5 -18t-18.5 -7t-18.5 7t-7.5 18t7.5 18.5
t18.5 7.5t18.5 -7.5t7.5 -18.5zM668 487q0 -10 -7 -17t-18 -7t-18 7t-7 17q0 11 7 18.5t18 7.5t18 -7.5t7 -18.5zM762 487q0 -10 -7.5 -17t-18.5 -7t-18 7t-7 17q0 11 7 18.5t18 7.5t18.5 -7.5t7.5 -18.5zM668 581q0 -25 -25 -25t-25 25q0 11 7 18.5t18 7.5t18 -7.5t7 -18.5
zM762 581q0 -11 -7.5 -18t-18.5 -7q-25 0 -25 25q0 11 7 18.5t18 7.5t18.5 -7.5t7.5 -18.5zM794 -41v677h-678v-677h678zM827 -74h-744v743h744v-743z" />
    <glyph glyph-name="filledbox" unicode="&#x25a0;" 
d="M111 0v687h688v-687h-688z" />
    <glyph glyph-name="H22073" unicode="&#x25a1;" 
d="M111 687h687v-687h-687v687zM162 636v-584h585v584h-585z" />
    <glyph glyph-name="uni25A3" unicode="&#x25a3;" 
d="M685 67h-460v460h460v-460zM789 -36v667h-668v-667h668zM827 -74h-744v743h744v-743z" />
    <glyph glyph-name="uni25A4" unicode="&#x25a4;" 
d="M794 -41v67h-678v-67h678zM794 58v68h-678v-68h678zM794 158v72h-678v-72h678zM794 262v71h-678v-71h678zM794 365v66h-678v-66h678zM794 463v73h-678v-73h678zM794 568v68h-678v-68h678zM827 -74h-744v743h744v-743z" />
    <glyph glyph-name="uni25A5" unicode="&#x25a5;" 
d="M184 -41v677h-68v-677h68zM289 -41v677h-73v-677h73zM387 -41v677h-66v-677h66zM490 -41v677h-71v-677h71zM594 -41v677h-72v-677h72zM694 -41v677h-68v-677h68zM794 -41v677h-68v-677h68zM827 -74h-744v743h744v-743z" />
    <glyph glyph-name="uni25A6" unicode="&#x25a6;" 
d="M187 -41v71h-71v-71h71zM187 60v71h-71v-71h71zM288 -41v71h-71v-71h71zM288 60v71h-71v-71h71zM187 161v71h-71v-71h71zM389 -41v71h-71v-71h71zM389 60v71h-71v-71h71zM288 161v71h-71v-71h71zM187 262v71h-71v-71h71zM490 -41v71h-71v-71h71zM490 60v71h-71v-71h71z
M389 161v71h-71v-71h71zM288 262v71h-71v-71h71zM187 363v71h-71v-71h71zM591 -41v71h-71v-71h71zM591 60v71h-71v-71h71zM490 161v71h-71v-71h71zM389 262v71h-71v-71h71zM288 363v71h-71v-71h71zM187 464v71h-71v-71h71zM692 -41v71h-71v-71h71zM692 60v71h-71v-71h71z
M591 161v71h-71v-71h71zM490 262v71h-71v-71h71zM389 363v71h-71v-71h71zM288 464v71h-71v-71h71zM187 565v71h-71v-71h71zM794 -41v71h-71v-71h71zM692 161v71h-71v-71h71zM591 262v71h-71v-71h71zM490 363v71h-71v-71h71zM389 464v71h-71v-71h71zM288 565v71h-71v-71h71z
M794 60v71h-71v-71h71zM692 262v71h-71v-71h71zM591 363v71h-71v-71h71zM490 464v71h-71v-71h71zM389 565v71h-71v-71h71zM794 161v71h-71v-71h71zM692 363v71h-71v-71h71zM591 464v71h-71v-71h71zM490 565v71h-71v-71h71zM794 262v71h-71v-71h71zM692 464v71h-71v-71h71z
M591 565v71h-71v-71h71zM794 363v71h-71v-71h71zM692 565v71h-71v-71h71zM794 464v71h-71v-71h71zM794 565v71h-71v-71h71zM827 -74h-744v743h744v-743z" />
    <glyph glyph-name="uni25A7" unicode="&#x25a7;" 
d="M272 -41l-156 156v-156h156zM438 -41l-322 322v-118l204 -204h118zM604 -41l-488 488v-118l370 -370h118zM770 -41l-654 654v-118l536 -536h118zM794 -17v118l-536 535h-117zM794 149v118l-370 369h-118zM794 315v119l-203 202h-119zM794 482v154h-155zM827 -74h-744v743
h744v-743z" />
    <glyph glyph-name="uni25A8" unicode="&#x25a8;" 
d="M769 636h-117l-536 -535v-118zM604 636h-118l-370 -369v-118zM438 636h-119l-203 -202v-119zM271 636h-155v-154zM794 -41v156l-156 -156h156zM794 163v118l-322 -322h118zM794 329v118l-488 -488h118zM794 495v118l-654 -654h118zM827 -74h-744v743h744v-743z" />
    <glyph glyph-name="uni25A9" unicode="&#x25a9;" 
d="M272 -41l-68 68l-67 -68h135zM180 51l-64 64v-128zM354 43l-67 67l-59 -59l68 -68zM263 134l-64 64l-59 -59l64 -64zM438 -41l-59 59l-60 -59h119zM175 222l-59 59v-117zM521 42l-59 59l-59 -59l59 -59zM438 125l-67 68l-60 -59l67 -68zM346 217l-64 64l-59 -59l64 -64z
M258 305l-59 59l-59 -59l59 -59zM175 388l-59 59v-118zM604 -41l-59 59l-59 -59h118zM687 42l-59 59l-59 -59l59 -59zM604 125l-59 59l-59 -59l59 -59zM429 299l-64 65l-59 -59l65 -64zM341 388l-59 59l-59 -59l59 -59zM258 471l-59 59l-59 -59l59 -59zM521 208l-67 68
l-59 -60l66 -66zM175 554l-59 59v-118zM770 -41l-59 59l-59 -59h118zM794 -17v118l-59 -59zM258 636h-117l58 -58zM424 470l-60 59l-58 -58l60 -60zM770 125l-59 59l-59 -59l59 -59zM687 208l-60 59l-58 -58l59 -60zM512 382l-64 64l-58 -59l64 -64zM341 553l-60 60l-58 -59
l59 -59zM604 291l-68 67l-58 -59l66 -66zM794 149v118l-59 -59zM424 636h-118l59 -59zM770 291l-60 59l-59 -59l60 -59zM686 375l-66 66l-59 -59l66 -67zM596 465l-65 63l-59 -58l65 -64zM508 553l-60 59l-59 -59l59 -59zM794 314v120l-60 -60zM592 636h-120l60 -60z
M679 548l-64 64l-60 -59l65 -65zM770 458l-66 67l-61 -60l67 -67zM768 636h-129l64 -64zM794 482v133l-67 -67zM827 -74h-744v743h744v-743z" />
    <glyph glyph-name="triagup" unicode="&#x25b2;" 
d="M88 -69l367 731l367 -731h-734z" />
    <glyph glyph-name="uni25B3" unicode="&#x25b3;" 
d="M87 -69l368 731l368 -731h-736zM736 -19l-283 565l-283 -565h566z" />
    <glyph glyph-name="uni25B6" unicode="&#x25b6;" 
d="M764 300l-618 -388v778z" />
    <glyph glyph-name="uni25B7" unicode="&#x25b7;" 
d="M701 300l-523 329v-656zM764 300l-618 -388v778z" />
    <glyph glyph-name="triagdn" unicode="&#x25bc;" 
d="M822 652l-367 -731l-367 731h734z" />
    <glyph glyph-name="uni25BD" unicode="&#x25bd;" 
d="M823 652l-368 -731l-368 731h736zM172 601l283 -565l283 565h-566z" />
    <glyph glyph-name="uni25C0" unicode="&#x25c0;" 
d="M764 -88l-618 388l618 390v-778z" />
    <glyph glyph-name="uni25C1" unicode="&#x25c1;" 
d="M732 -27v656l-523 -329zM764 -88l-618 388l618 390v-778z" />
    <glyph glyph-name="uni25C6" unicode="&#x25c6;" 
d="M66 344l389 388l389 -389l-388 -389z" />
    <glyph glyph-name="uni25C7" unicode="&#x25c7;" 
d="M455 732l388 -389l-388 -389l-389 389zM455 655l-312 -311l312 -313l311 312z" />
    <glyph glyph-name="uni25C8" unicode="&#x25c8;" 
d="M723 297l-268 -268l-269 268l269 268zM839 298l-384 383l-385 -384l384 -384zM889 298l-435 -434l-433 433l434 435z" />
    <glyph glyph-name="uni25C9" unicode="&#x25c9;" 
d="M610 299q0 -32 -12 -60.5t-33 -49.5t-49.5 -33t-60.5 -12t-60 12t-49 33t-33.5 49.5t-12.5 60.5t12.5 60.5t33.5 49.5t49 33t60 12t60.5 -12t49.5 -33t33 -49.5t12 -60.5zM806 299q0 72 -28 136t-75.5 111.5t-111.5 75.5t-136 28t-135.5 -28t-111.5 -75.5t-75.5 -111.5
t-27.5 -136t27.5 -135.5t75.5 -111.5t111.5 -75.5t135.5 -27.5t136 27.5t111.5 75.5t75.5 111.5t28 135.5zM845 299q0 -81 -30.5 -152t-83.5 -124t-124 -83.5t-152 -30.5q-80 0 -151 30.5t-124 83.5t-84 124t-31 152t31 152t84 124t124 83.5t151 30.5q81 0 152 -30.5
t124 -83.5t83.5 -124t30.5 -152z" />
    <glyph glyph-name="circle" unicode="&#x25cb;" 
d="M96 344q0 74 28 139.5t76.5 114t114 77t139.5 28.5q75 0 140 -28.5t114 -77t77 -114t28 -139.5q0 -75 -28 -140t-77 -114t-114 -77t-140 -28q-74 0 -139.5 28t-114 77t-76.5 114t-28 140zM146 344q0 -64 24 -120t66 -98t98 -66t120 -24t120.5 24t98.5 66t66 98t24 120
t-24 120t-66 98t-98.5 66.5t-120.5 24.5t-120 -24.5t-98 -66.5t-66 -98t-24 -120z" />
    <glyph glyph-name="uni25CE" unicode="&#x25ce;" 
d="M96 344q0 74 28 139.5t76.5 114t114 77t139.5 28.5q75 0 140 -28.5t114 -77t77 -114t28 -139.5q0 -75 -28 -140t-77 -114t-114 -77t-140 -28q-74 0 -139.5 28t-114 77t-76.5 114t-28 140zM148 344q0 -63 24 -119t65.5 -97.5t97.5 -65.5t119 -24q64 0 120 24t97.5 65.5
t65.5 97.5t24 119t-24 119t-65.5 97.5t-97.5 66t-120 24.5q-63 0 -119 -24.5t-97.5 -66t-65.5 -97.5t-24 -119zM239 344q0 44 17 83t46 68.5t68 46.5t84 17t84 -17t68 -46.5t46 -68.5t17 -83q0 -45 -17 -84t-46 -68t-68 -46t-84 -17t-84 17t-68 46t-46 68t-17 84zM292 344
q0 -33 13 -62.5t35 -51.5t51.5 -35t62.5 -13q34 0 63.5 13t51.5 35t35 51.5t13 62.5t-13 62.5t-35 52t-51.5 35.5t-63.5 13q-33 0 -62.5 -13t-51.5 -35.5t-35 -52t-13 -62.5z" />
    <glyph glyph-name="H18533" unicode="&#x25cf;" 
d="M96 344q0 74 28 139.5t76.5 114t114 77t139.5 28.5q75 0 140 -28.5t114 -77t77 -114t28 -139.5q0 -75 -28 -140t-77 -114t-114 -77t-140 -28q-74 0 -139.5 28t-114 77t-76.5 114t-28 140z" />
    <glyph glyph-name="uni25D0" unicode="&#x25d0;" 
d="M806 299q0 72 -28 136t-75.5 111.5t-111.5 75.5t-136 28v-701q72 0 136 27.5t111.5 75.5t75.5 111.5t28 135.5zM845 299q0 -81 -30.5 -152t-83.5 -124t-124 -83.5t-152 -30.5q-80 0 -151 30.5t-124 83.5t-84 124t-31 152t31 152t84 124t124 83.5t151 30.5q81 0 152 -30.5
t124 -83.5t83.5 -124t30.5 -152z" />
    <glyph glyph-name="uni25D1" unicode="&#x25d1;" 
d="M455 650q-72 0 -136 -28t-111.5 -75.5t-75.5 -111.5t-28 -136t28 -135.5t75.5 -111.5t111.5 -75.5t136 -27.5v701zM845 299q0 -81 -31 -152t-84 -124t-124 -83.5t-151 -30.5q-81 0 -152 30.5t-124 83.5t-83.5 124t-30.5 152t30.5 152t83.5 124t124 83.5t152 30.5
q80 0 151 -30.5t124 -83.5t84 -124t31 -152z" />
    <glyph glyph-name="uni2605" unicode="&#x2605;" 
d="M565 445h337l-273 -203l102 -322l-274 195l-279 -195l105 322l-275 203h342l107 319z" />
    <glyph glyph-name="uni2606" unicode="&#x2606;" 
d="M565 445h337l-273 -203l102 -322l-274 195l-279 -195l105 322l-275 203h342l107 319zM456 649l-80 -241h-258l207 -154l-81 -243l212 148l207 -148l-76 243l206 154h-255z" />
    <glyph glyph-name="uni260E" unicode="&#x260e;" 
d="M602 208q0 30 -11.5 57t-31.5 47t-47 31.5t-57 11.5t-57 -11.5t-47 -31.5t-31.5 -47t-11.5 -57t11.5 -57t31.5 -46.5t47 -31t57 -11.5t57 11.5t47 31t31.5 46.5t11.5 57zM533 439v65q-14 -4 -35 -7t-43 -3t-43 3t-35 7v-65h156zM878 328q-6 -10 -20 -12.5t-32.5 -1
t-39 6.5t-39.5 10q-31 9 -56 22.5t-29 31.5q-2 7 0.5 18t6.5 22t7 21.5t2 17.5q-4 20 -20 27t-35 10q-3 -23 -3 -51.5t14 -75.5q7 -26 16.5 -44.5t21 -33.5t25 -27t29.5 -25q25 -21 39 -44.5t21 -46.5t8.5 -43t1.5 -35q8 -3 12.5 -12t7 -21t2.5 -24.5t-1 -22.5
q-1 -9 -10 -12.5t-24 -3.5h-656q-15 0 -24 3.5t-10 12.5q-1 10 -1 22.5t2.5 24.5t7 21t12.5 12q0 15 1.5 35t8.5 43t21 46.5t39 44.5q16 13 29.5 25t25 27t21 33.5t16.5 44.5q13 47 13.5 75.5t-2.5 51.5q-19 -3 -35 -10t-20 -27q-2 -7 1 -17.5t7 -21.5t7 -22t1 -18
q-4 -18 -29 -31.5t-56 -22.5q-19 -5 -39.5 -10t-39 -6.5t-32.5 1t-20 12.5t-7.5 29t1.5 41.5t11.5 45t22.5 40.5q24 31 66.5 54t95.5 38t113 22t120 7t120 -7t113 -22t95.5 -38t66.5 -54q14 -18 22.5 -40.5t11.5 -45t1.5 -41.5t-7.5 -29z" />
    <glyph glyph-name="uni260F" unicode="&#x260f;" 
d="M602 208q0 30 -11.5 57t-31.5 47t-47 31.5t-57 11.5t-57 -11.5t-47 -31.5t-31.5 -47t-11.5 -57t11.5 -57t31.5 -46.5t47 -31t57 -11.5t57 11.5t47 31t31.5 46.5t11.5 57zM625 208q0 -35 -13.5 -66t-36.5 -54t-54 -36.5t-66 -13.5t-66 13.5t-54 36.5t-36.5 54t-13.5 66
t13.5 66t36.5 54t54 36.5t66 13.5t66 -13.5t54 -36.5t36.5 -54t13.5 -66zM788 0q3 0 5 8t1 19t-4.5 21.5t-12.5 15.5q0 12 -2 31t-7 39t-14 38.5t-22 31.5q-23 22 -40 38t-29 30t-21 28.5t-16 32.5q-19 51 -24 95t-2 76h-47v-84h-196v84h-47q3 -32 -2 -76t-24 -95
q-7 -18 -16 -32.5t-21 -28.5t-29 -30t-40 -38q-14 -13 -22.5 -31.5t-13.5 -38.5t-7 -39t-2 -31q-9 -5 -12.5 -15.5t-4.5 -21.5t1 -19t5 -8h666zM852 338q6 1 9.5 18.5t-0.5 42.5t-18 53.5t-42 51.5q-22 18 -64 33t-91.5 26t-100.5 17t-90 6q-52 0 -104 -6t-98.5 -17t-84 -26
t-59.5 -33q-29 -23 -42.5 -51.5t-17.5 -53.5t-0.5 -42.5t9.5 -18.5q19 -2 42 1.5t45 9.5t41.5 14t33.5 16q6 4 3.5 15t-6.5 25.5t-6.5 30.5t3.5 30q8 21 36.5 33t95.5 12q11 0 22 -1.5t24 -3.5q17 -4 31.5 -6t31.5 -2t31.5 2t31.5 6q13 2 24 3.5t22 1.5q33 0 56 -3t38 -9
t24 -14.5t14 -18.5q6 -14 3.5 -30t-6.5 -30.5t-6.5 -25.5t3.5 -15q13 -8 33 -16.5t42.5 -14.5t45 -9t41.5 -1zM533 439v65q-14 -4 -35 -7t-43 -3t-43 3t-35 7v-65h156zM878 328q-6 -10 -20 -12.5t-32.5 -1t-39 6.5t-39.5 10q-31 9 -56 22.5t-29 31.5q-2 7 0.5 18t6.5 22
t7 21.5t2 17.5q-4 20 -20 27t-35 10q-3 -23 -3 -51.5t14 -75.5q7 -26 16.5 -44.5t21 -33.5t25 -27t29.5 -25q25 -21 39 -44.5t21 -46.5t8.5 -43t1.5 -35q8 -3 12.5 -12t7 -21t2.5 -24.5t-1 -22.5q-1 -9 -10 -12.5t-24 -3.5h-656q-15 0 -24 3.5t-10 12.5q-1 10 -1 22.5
t2.5 24.5t7 21t12.5 12q0 15 1.5 35t8.5 43t21 46.5t39 44.5q16 13 29.5 25t25 27t21 33.5t16.5 44.5q13 47 13.5 75.5t-2.5 51.5q-19 -3 -35 -10t-20 -27q-2 -7 1 -17.5t7 -21.5t7 -22t1 -18q-4 -18 -29 -31.5t-56 -22.5q-19 -5 -39.5 -10t-39 -6.5t-32.5 1t-20 12.5
t-7.5 29t1.5 41.5t11.5 45t22.5 40.5q24 31 66.5 54t95.5 38t113 22t120 7t120 -7t113 -22t95.5 -38t66.5 -54q14 -18 22.5 -40.5t11.5 -45t1.5 -41.5t-7.5 -29z" />
    <glyph glyph-name="uni261C" unicode="&#x261c;" 
d="M847 184h-76v21h-29q-26 -16 -64.5 -30t-103.5 -25q-18 -3 -44.5 -4t-54 -1t-53 1.5t-41.5 3.5q-18 3 -34.5 9.5t-20.5 23.5q-2 12 2.5 19.5t12.5 12.5q-14 0 -25.5 9t-12.5 24q-1 11 2.5 18t8.5 12q-14 2 -25 9t-11 24q0 22 19 31t63 9l-3 8q-24 1 -43 1.5t-38.5 1
t-40.5 1.5t-49 3q-21 1 -43 2t-40 5t-29.5 12.5t-11.5 23.5q0 13 9 20t25 10.5t37.5 5t46.5 3.5q14 1 45 2t71 1.5t84.5 1t86.5 0.5q32 0 64.5 -0.5t64 -5.5t61 -17t55.5 -36q16 -4 32 -5.5t28 -0.5v32h75v-236zM772 217v154q-8 -1 -21.5 0t-22.5 3l2 -8q2 -10 0 -10.5
t-7 5.5q-8 10 -22.5 22.5t-35.5 26.5q-15 10 -41 16t-53.5 9t-52.5 3.5t-38 -1.5q-14 -2 -33 -8.5t-33 -15.5q-8 -5 -12.5 -12t-9.5 -15q-8 -17 -19 -24q-4 -5 3 -9t28 4q10 4 18 10.5t14 12t10 9t6 0.5q5 -6 -4 -15q8 -3 20.5 -4.5t20.5 0.5q20 5 30 12.5t12 3.5
q2 -5 -2 -11.5t-12 -11.5q6 -9 26.5 -25t52.5 -27q20 -7 37 -9.5t29 -4t19 -3t7 -5.5q0 -3 -9 -4t-22.5 0t-28.5 3.5t-27 5.5q-21 7 -37.5 16t-29 18.5t-21 18t-12.5 14.5q-5 -3 -11.5 -3.5t-11.5 -0.5q-14 1 -25.5 3t-16.5 4l-15 -13q26 0 44 -6.5t21 -18.5
q4 -14 0.5 -24.5t-11.5 -16.5q28 -7 31 -28q2 -14 -2.5 -20.5t-12.5 -11.5q29 -6 32 -28q2 -14 -4.5 -22.5t-8.5 -10.5q14 -3 35 0q39 3 69.5 9.5t54.5 14.5t43 18t35 20q3 3 5.5 3t1.5 -4l-2 -8h20zM429 437q-49 0 -114.5 -1t-133.5 -3q-48 -2 -75 -5.5t-27 -18.5
q0 -16 23 -19.5t79 -7.5q62 -3 104 -5t83 -3l21 32q8 11 17 18.5t23 12.5zM831 200v203h-44v-203h44zM490 247q1 15 -6 20.5t-22 7.5q-7 1 -23 1h-34.5t-35.5 -0.5t-26 -0.5q-10 -1 -16.5 -8t-6.5 -17q0 -16 25 -20q5 -1 23.5 -2t38 -1h35.5h17q10 0 20 4.5t11 15.5z
M507 194q-1 11 -11.5 14.5t-19.5 3.5q-27 1 -59 1t-54 -2q-11 -1 -15.5 -8.5t-2.5 -15.5q1 -6 5.5 -11t12.5 -7q26 -5 57.5 -5.5t56.5 1.5q33 2 30 29zM467 316q0 6 -4.5 11t-15.5 6q-37 2 -69.5 3t-64.5 -3q-10 -2 -15 -8t-4 -14q0 -7 5 -13t15 -6q15 -1 34 -1h37.5t35 1
t27.5 2q8 2 13.5 6.5t5.5 15.5z" />
    <glyph glyph-name="uni261E" unicode="&#x261e;" 
d="M847 409q0 -15 -11.5 -23.5t-29.5 -12.5t-40 -5t-43 -2q-28 -2 -49 -3t-40.5 -1.5t-38.5 -1t-43 -1.5l-3 -8q44 0 63 -9t19 -31q0 -17 -11 -24t-25 -9q5 -5 8.5 -12t2.5 -18q-1 -15 -12.5 -24t-25.5 -9q8 -5 12.5 -12.5t2.5 -19.5q-4 -17 -20.5 -23.5t-34.5 -9.5
q-16 -2 -41.5 -3.5t-53 -1.5t-54 1t-44.5 4q-65 11 -103.5 25t-64.5 30h-29v-21h-76v236h75v-32q12 -1 28 0.5t32 5.5q26 24 55.5 36t61 17t64 5.5t64.5 0.5q42 0 86.5 -0.5t84.5 -1t71 -1.5t45 -2q25 -2 46.5 -3.5t37.5 -5t25 -10.5t9 -20zM536 362q-11 7 -19 24
q-5 8 -9.5 15t-12.5 12q-14 9 -33 15.5t-33 8.5t-38.5 1.5t-52 -3.5t-53.5 -9t-41 -16q-21 -14 -35.5 -26.5t-22.5 -22.5q-5 -6 -7 -5.5t0 10.5l2 8q-9 -2 -22.5 -3t-21.5 0v-154h20l-2 8q-2 5 1 4t6 -3q31 -20 77.5 -37.5t124.5 -24.5q19 -3 33 0q-2 1 -8 9.5t-3 23.5
q3 22 32 28q-8 5 -12.5 11.5t-2.5 20.5q5 21 31 28q-8 6 -11.5 16.5t0.5 24.5q4 12 21.5 18.5t43.5 6.5l-15 13q-5 -2 -16.5 -4t-25.5 -3q-5 0 -11.5 0.5t-11.5 3.5q-4 -6 -12.5 -14.5t-21 -18t-29 -18.5t-37.5 -16q-12 -3 -27 -5.5t-28.5 -3.5t-22.5 0t-9 4q0 4 7 5.5t19 3
t29 4t37 9.5q32 11 52.5 27t26.5 25q-8 5 -12 11.5t-2 11.5q2 4 12 -3.5t30 -12.5q8 -2 20.5 -0.5t20.5 4.5q-4 4 -5.5 8t1.5 7q2 3 6 -0.5t10 -9t14 -12t18 -10.5q21 -8 28 -4t3 9zM830 409q0 15 -27 18.5t-75 5.5q-68 2 -133.5 3t-114.5 1q14 -5 23 -12.5t17 -18.5l21 -32
q41 1 83 3t104 5q56 4 79 7.5t23 19.5zM122 200v203h-44v-203h44zM589 250q0 10 -6.5 17t-16.5 8q-9 0 -26 0.5t-35.5 0.5h-34.5t-23 -1q-14 -2 -21.5 -7.5t-6.5 -20.5q1 -11 11 -15.5t20 -4.5h17h35.5t38 1t23.5 2q25 4 25 20zM564 187q2 8 -2.5 15.5t-15.5 8.5
q-22 2 -54 2t-59 -1q-9 0 -19.5 -3.5t-11.5 -14.5q-3 -27 30 -29q25 -2 56.5 -1.5t57.5 5.5q8 2 12.5 7t5.5 11zM615 311q1 8 -4 14t-15 8q-32 4 -64.5 3t-69.5 -3q-11 -1 -15.5 -6t-4.5 -11q0 -11 5.5 -15.5t13.5 -6.5q11 -1 27.5 -2t35 -1h37.5t34 1q10 0 15 6t5 13z" />
    <glyph glyph-name="female" unicode="&#x2640;" horiz-adv-x="652" 
d="M292 187q-51 7 -95.5 30.5t-77.5 60t-51.5 83.5t-18.5 101q0 57 21.5 107.5t59 88t88 59.5t108.5 22q57 0 107.5 -22t88 -59.5t59.5 -88t22 -107.5q0 -54 -18.5 -101t-51.5 -83.5t-77.5 -60t-95.5 -30.5v-130h142v-64h-142v-142h-68v142h-143v64h143v130zM112 462
q0 -45 16.5 -84.5t45 -69.5t67.5 -47.5t85 -17.5q45 0 84 17.5t68 47.5t45.5 69.5t16.5 84.5t-16.5 85t-45.5 69.5t-68 47t-84 17.5q-46 0 -85 -17.5t-67.5 -47t-45 -69.5t-16.5 -85z" />
    <glyph glyph-name="male" unicode="&#x2642;" horiz-adv-x="776" 
d="M49 262q0 57 21.5 107.5t59 88t88 59.5t108.5 22q49 0 92 -15.5t79 -43.5l121 120h-109v63h219v-218h-64v110l-121 -122q28 -35 44 -78.5t16 -92.5q0 -57 -22 -107.5t-59.5 -88t-88 -59.5t-107.5 -22q-58 0 -108.5 22t-88 59.5t-59 88t-21.5 107.5zM112 262
q0 -45 16.5 -84.5t45 -69.5t67.5 -47.5t85 -17.5q45 0 84 17.5t68 47.5t45.5 69.5t16.5 84.5t-16.5 85t-45.5 69.5t-68 47t-84 17.5q-46 0 -85 -17.5t-67.5 -47t-45 -69.5t-16.5 -85z" />
    <glyph glyph-name="spade" unicode="&#x2660;" 
d="M782 201q0 -33 -10 -60.5t-28 -47.5t-44 -31.5t-57 -11.5q-29 0 -57 12.5t-66 34.5q1 -19 5.5 -43.5t11.5 -50t16 -50.5t19 -44q9 -19 -14 -22q-20 -2 -48.5 -3.5t-54.5 -1.5q-29 0 -55.5 1.5t-47.5 3.5q-23 3 -14 22q10 21 18.5 45.5t15.5 49.5t11.5 49t6.5 44
q-38 -22 -66 -34.5t-57 -12.5q-32 0 -57.5 11.5t-43.5 31.5t-28 47.5t-10 60.5q0 44 29.5 104t77 128.5t105.5 142.5t115 145q57 -71 115 -145t105.5 -142.5t77 -128.5t29.5 -104z" />
    <glyph glyph-name="uni2661" unicode="&#x2661;" 
d="M760 470q0 34 -9.5 63.5t-28 51.5t-47.5 34t-68 12q-24 0 -42.5 -12t-32.5 -30.5t-23.5 -40.5t-15.5 -42q-5 -19 -13 -35.5t-25 -16.5t-25 16.5t-13 35.5q-6 20 -16 42t-24 40.5t-32.5 30.5t-41.5 12q-39 0 -68 -12t-47.5 -34t-28 -51.5t-9.5 -63.5q0 -59 29.5 -126.5
t74.5 -135t99 -130.5t102 -113q48 50 102 113t99 130.5t74.5 135t29.5 126.5zM805 477q0 -72 -34.5 -150.5t-86.5 -154.5t-113.5 -145t-115.5 -121q-54 52 -115.5 121t-113.5 145t-86.5 154.5t-34.5 150.5q0 42 14 78t38 62t56 41t69 15q64 0 107.5 -42t65.5 -138
q22 96 65.5 138t107.5 42q37 0 69 -15t56 -41t38 -62t14 -78z" />
    <glyph glyph-name="club" unicode="&#x2663;" 
d="M854 211q0 -36 -12 -70t-34.5 -59.5t-53.5 -41t-70 -15.5q-26 0 -50 8t-45 20.5t-37.5 27t-27.5 26.5q7 -17 14 -40.5t12.5 -50.5t9 -56t3.5 -56q0 -7 -5.5 -11t-12.5 -5q-12 -1 -20 -1.5l-16 -1t-20.5 -0.5h-33.5q-23 0 -44 0.5t-46 2.5q-7 1 -12.5 5t-5.5 11q0 27 3 56
t8.5 56t12.5 50.5t15 40.5q-11 -12 -27.5 -26.5t-37.5 -27t-45 -20.5t-50 -8q-39 0 -70 15.5t-53.5 41t-34.5 59.5t-12 70q0 35 12.5 67.5t34 57t52 39.5t66.5 15q33 0 63 -11.5t59 -25.5q8 -4 17 -3t12 6q5 8 1 16t-9 13q-24 21 -41 39.5t-28 38t-16 41t-5 48.5q0 37 15 67
t40 51t57.5 32.5t68.5 11.5t68.5 -11.5t57.5 -32.5t40 -51t15 -67q0 -27 -5 -48.5t-16 -41t-28 -38t-41 -39.5q-5 -5 -9 -13t1 -16q3 -5 12 -6t17 3q29 14 59 25.5t63 11.5q36 0 66.5 -15t52 -39.5t34 -57t12.5 -67.5z" />
    <glyph glyph-name="uni2664" unicode="&#x2664;" 
d="M738 205q0 25 -13 58.5t-34.5 72t-50 80.5t-60 83.5t-64 82t-61.5 75.5q-29 -35 -61.5 -75.5t-64 -82t-60 -83.5t-50 -80.5t-34.5 -72t-13 -58.5q0 -18 5 -38t16.5 -37.5t29.5 -28.5t44 -11q22 0 42 8.5t37 19t30.5 19t22.5 8.5q20 0 26 -11t4 -36q-2 -33 -10.5 -70.5
t-22.5 -82.5q-4 -18 19 -19q9 -1 19 -1.5t21 -0.5t21 0.5t19 1.5q23 1 19 19q-14 45 -22.5 82.5t-10.5 70.5q-2 25 4 36t26 11q9 0 22.5 -8.5t30.5 -19t37 -19t42 -8.5q26 0 44 11t29.5 28.5t16.5 37.5t5 38zM782 201q0 -33 -10 -60.5t-28 -47.5t-44 -31.5t-57 -11.5
q-29 0 -57 12.5t-66 34.5q1 -19 5.5 -43.5t11.5 -50t16 -50.5t19 -44q9 -19 -14 -22q-20 -2 -48.5 -3.5t-54.5 -1.5q-29 0 -55.5 1.5t-47.5 3.5q-23 3 -14 22q10 21 18.5 45.5t15.5 49.5t11.5 49t6.5 44q-38 -22 -66 -34.5t-57 -12.5q-32 0 -57.5 11.5t-43.5 31.5t-28 47.5
t-10 60.5q0 44 29.5 104t77 128.5t105.5 142.5t115 145q57 -71 115 -145t105.5 -142.5t77 -128.5t29.5 -104z" />
    <glyph glyph-name="heart" unicode="&#x2665;" 
d="M805 477q0 -72 -34.5 -150.5t-86.5 -154.5t-113.5 -145t-115.5 -121q-54 52 -115.5 121t-113.5 145t-86.5 154.5t-34.5 150.5q0 42 14 78t38 62t56 41t69 15q64 0 107.5 -42t65.5 -138q22 96 65.5 138t107.5 42q37 0 69 -15t56 -41t38 -62t14 -78z" />
    <glyph glyph-name="uni2667" unicode="&#x2667;" 
d="M809 212q0 25 -8.5 50t-24 45t-38 32.5t-50.5 12.5q-26 0 -47.5 -8t-40 -18t-34 -18t-29.5 -8q-25 0 -38.5 15.5t-13.5 39.5q0 23 16.5 39t37 35.5t37 47.5t16.5 75q0 29 -11.5 52t-30.5 38.5t-44 23.5t-51 8t-50.5 -8t-43.5 -23.5t-31 -38.5t-12 -52q0 -47 16.5 -75
t37 -47.5t37 -35.5t16.5 -39q0 -24 -13.5 -39.5t-38.5 -15.5q-14 0 -29.5 8t-34 18t-40 18t-47.5 8q-28 0 -50.5 -12.5t-38 -32.5t-24 -45t-8.5 -50q0 -27 8.5 -53t24.5 -46t39.5 -32t53.5 -12q38 0 65 14.5t47 32.5t36 32.5t33 14.5q11 0 14 -6t3 -17q0 -21 -5 -41
t-10.5 -44t-10.5 -53t-5 -67q0 -12 13 -13q22 -3 48 -3q25 0 48 3q13 1 13 13q0 38 -5 67t-10.5 53t-10.5 44t-5 41q0 11 3 17t14 6q16 0 32 -14.5t36.5 -32.5t47.5 -32.5t65 -14.5q30 0 53.5 12t39.5 32t24.5 46t8.5 53zM854 211q0 -36 -12 -70t-34.5 -59.5t-53.5 -41
t-70 -15.5q-26 0 -50 8t-45 20.5t-37.5 27t-27.5 26.5q7 -17 14 -40.5t12.5 -50.5t9 -56t3.5 -56q0 -7 -5.5 -11t-12.5 -5q-12 -1 -20 -1.5l-16 -1t-20.5 -0.5h-33.5q-23 0 -44 0.5t-46 2.5q-7 1 -12.5 5t-5.5 11q0 27 3 56t8.5 56t12.5 50.5t15 40.5q-11 -12 -27.5 -26.5
t-37.5 -27t-45 -20.5t-50 -8q-39 0 -70 15.5t-53.5 41t-34.5 59.5t-12 70q0 35 12.5 67.5t34 57t52 39.5t66.5 15q33 0 63 -11.5t59 -25.5q8 -4 17 -3t12 6q5 8 1 16t-9 13q-24 21 -41 39.5t-28 38t-16 41t-5 48.5q0 37 15 67t40 51t57.5 32.5t68.5 11.5t68.5 -11.5
t57.5 -32.5t40 -51t15 -67q0 -27 -5 -48.5t-16 -41t-28 -38t-41 -39.5q-5 -5 -9 -13t1 -16q3 -5 12 -6t17 3q29 14 59 25.5t63 11.5q36 0 66.5 -15t52 -39.5t34 -57t12.5 -67.5z" />
    <glyph glyph-name="uni2668" unicode="&#x2668;" 
d="M853 101q0 -46 -32 -84.5t-86 -66t-125 -43t-150 -15.5t-152 13.5t-129 37.5t-89.5 57.5t-33.5 73.5t25 70.5t58.5 52t68.5 34.5t56 19q11 4 13 -4.5t-11 -13.5q-4 -2 -26 -12.5t-46.5 -28.5t-44.5 -42.5t-20 -54.5q0 -26 29.5 -45t76.5 -31.5t106.5 -19t119.5 -6.5
t119 8.5t106 24.5t76.5 38.5t29.5 51.5q0 21 -13 39t-31 32.5t-38 24.5t-33 14q-12 4 -9 11t13 5q15 -2 43.5 -11.5t57 -27t50 -43t21.5 -58.5zM383 261q3 -30 -13.5 -73.5t-41.5 -91.5q-13 -24 -18 -38.5t-6 -23.5q-1 -8 -6.5 -8.5t-10.5 8.5q-6 13 -9 39t8 58q5 14 11 39
t9 55t0.5 61.5t-13.5 58.5q-14 34 -18 67t0 64.5t14.5 61t25.5 57.5q8 14 14 30t9 30q2 8 7 7.5t7 -6.5q5 -15 6 -52.5t-16 -97.5q-6 -22 -2 -49t12.5 -58t17.5 -66t13 -72zM525 286q4 -22 -2.5 -49t-17.5 -53.5t-23 -49.5t-19 -37q-15 -28 -22 -45.5t-8 -27.5
q-1 -9 -7.5 -8.5t-9.5 7.5q-7 16 -8 48.5t16 74.5q15 35 18 70t0 65t-9 52t-10 30q-20 46 -23 82t3.5 65t18.5 52.5t22 44.5q14 29 18.5 53t4.5 40q0 11 5.5 10.5t9.5 -8.5q5 -11 9.5 -28.5t6 -39.5t-1 -46.5t-11.5 -49.5q-13 -36 -11 -65.5t10.5 -58t20.5 -59t20 -69.5z
M657 298q3 -38 -5 -67t-20 -52.5t-25.5 -42.5t-21.5 -35q-13 -25 -19.5 -44.5t-8.5 -28.5q-2 -5 -6.5 -7t-7.5 7q-3 7 -4.5 19t-1.5 26t2.5 28t7.5 26q9 22 18.5 50t14.5 57t4.5 58.5t-11.5 55.5q-17 38 -23 69.5t-4.5 59t9 53t18.5 51.5q7 17 10 36.5t3 32.5q0 9 4.5 11
t9.5 -9q8 -16 14 -51t-2 -92q-5 -35 0 -58t13.5 -44.5t18 -46.5t13.5 -62z" />
    <glyph glyph-name="uni2669" unicode="&#x2669;" horiz-adv-x="388" 
d="M288 115q0 -43 -6.5 -71t-28.5 -54q-14 -16 -32 -29.5t-37.5 -20.5t-38 -4.5t-31.5 17.5q-14 15 -14.5 34t8 38t24 35.5t33.5 27.5q37 22 85 29v545h38v-547z" />
    <glyph glyph-name="musicalnote" unicode="&#x266a;" horiz-adv-x="539" 
d="M479 339q0 -30 -9 -61.5t-30 -63.5q-20 -30 -50 -58.5t-57 -44.5q-11 -7 -14.5 -1.5t4.5 13.5q13 13 30 32t32.5 43.5t26 54t10.5 63.5q0 33 -19 56t-46 39.5t-57 26.5t-52 17v-340q0 -43 -6.5 -71t-28.5 -54q-14 -16 -32 -29.5t-37.5 -20.5t-38 -4.5t-31.5 17.5
q-14 15 -14.5 34t8 38t24 35.5t33.5 27.5q37 22 85 29v500q0 13 1 26.5t8 13.5t13 -5t18 -19q13 -15 28 -31.5t42 -39.5q43 -37 73.5 -68t49.5 -58t27.5 -50.5t8.5 -46.5z" />
    <glyph glyph-name="uni266C" unicode="&#x266c;" horiz-adv-x="693" 
d="M598 486v58l-347 -74v-58zM638 191q0 -35 -19 -65t-48 -54q-13 -11 -29.5 -20t-33 -12t-32 0.5t-26.5 18.5q-9 11 -8 26.5t8 31.5t18.5 30.5t24.5 24.5q29 21 53.5 27.5t51.5 10.5v182l-347 -75v-223q0 -35 -19 -65t-48 -54q-13 -11 -29.5 -20t-33 -12t-32 0.5
t-26.5 18.5q-9 11 -8 26.5t8 31.5t18.5 30.5t24.5 24.5q29 21 53.5 27.5t51.5 10.5v446l427 86v-454z" />
    <glyph glyph-name="uni266D" unicode="&#x266d;" horiz-adv-x="517" 
d="M418 266q0 -56 -14.5 -99.5t-38.5 -75t-56 -53t-67.5 -35t-72.5 -20t-70 -8.5v665h63v-328q6 16 15.5 32.5t26 30.5t40.5 23t58 9q24 0 45 -10t37 -28.5t25 -44.5t9 -58zM343 229q0 27 -5 50t-14.5 40t-23 27t-29.5 10q-28 0 -48.5 -12t-34 -29.5t-20 -38t-6.5 -38.5
v-214q29 2 61 14t58.5 36t43.5 62t17 93h1z" />
    <glyph glyph-name="uni3000" unicode="&#x3000;" 
 />
    <glyph glyph-name="uni3001" unicode="&#x3001;" 
d="M258 -110q-25 34 -47 61t-44 50.5t-46.5 45t-54.5 45.5l57 50q32 -24 57 -45t48 -43.5t45.5 -48t48.5 -58.5z" />
    <glyph glyph-name="uni3002" unicode="&#x3002;" 
d="M174 -106q-31 0 -57 11t-45 30.5t-29.5 45.5t-10.5 56t10.5 55.5t29.5 45t45 30.5t57 11q32 0 58.5 -11t45 -30.5t29 -45t10.5 -55.5t-10.5 -56t-29 -45.5t-45 -30.5t-58.5 -11zM174 -55q42 0 67 27t25 65t-25 65t-67 27q-41 0 -66 -27t-25 -65t25 -65t66 -27z" />
    <glyph glyph-name="uni3003" unicode="&#x3003;" 
d="M469 446l-153 -309h-55l125 309h83zM649 446l-153 -309h-55l125 309h83z" />
    <glyph glyph-name="uni3008" unicode="&#x3008;" horiz-adv-x="467" 
d="M424 -102l-39 -30l-341 433l340 433l40 -30l-318 -403z" />
    <glyph glyph-name="uni3009" unicode="&#x3009;" horiz-adv-x="477" 
d="M428 301l-340 -433l-40 30l318 403l-318 403l39 30z" />
    <glyph glyph-name="uni300A" unicode="&#x300a;" horiz-adv-x="474" 
d="M331 -127l-41 -24l-261 452l261 452l41 -24l-248 -428zM441 -127l-41 -24l-261 452l261 452l41 -24l-247 -428z" />
    <glyph glyph-name="uni300B" unicode="&#x300b;" horiz-adv-x="474" 
d="M329 301l-261 -452l-41 24l247 428l-247 428l41 24zM439 301l-261 -452l-41 24l248 428l-248 428l41 24z" />
    <glyph glyph-name="uni300C" unicode="&#x300c;" horiz-adv-x="351" 
d="M324 708h-224v-371h-73v432h297v-61z" />
    <glyph glyph-name="uni300D" unicode="&#x300d;" horiz-adv-x="351" 
d="M324 -167h-297v61h224v371h73v-432z" />
    <glyph glyph-name="uni300E" unicode="&#x300e;" horiz-adv-x="356" 
d="M281 702v25h-206v-348h36v323h170zM326 660h-170v-323h-126v432h296v-109z" />
    <glyph glyph-name="uni300F" unicode="&#x300f;" horiz-adv-x="356" 
d="M281 -125v348h-36v-323h-170v-25h206zM326 -167h-296v109h170v323h126v-432z" />
    <glyph glyph-name="uni3010" unicode="&#x3010;" horiz-adv-x="374" 
d="M21 -129v860h351q-56 -36 -101.5 -84t-78 -103.5t-50 -117t-17.5 -126.5t17.5 -126.5t50 -117t78.5 -102.5t102 -83h-352z" />
    <glyph glyph-name="uni3011" unicode="&#x3011;" horiz-adv-x="382" 
d="M357 -129h-352q56 36 102 83t78.5 102.5t50 117t17.5 126.5t-17.5 126.5t-50 117t-78 103.5t-101.5 84h351v-860z" />
    <glyph glyph-name="uni3013" unicode="&#x3013;" 
d="M779 195h-648v38h648v-38zM779 391h-648v38h648v-38z" />
    <glyph glyph-name="uni3014" unicode="&#x3014;" horiz-adv-x="344" 
d="M307 -97l-28 -49l-239 133v628l239 133l28 -49l-207 -116v-563z" />
    <glyph glyph-name="uni3015" unicode="&#x3015;" horiz-adv-x="358" 
d="M311 -13l-239 -133l-28 49l207 117v563q-50 29 -103 58t-104 58l28 49l239 -133v-628z" />
    <glyph glyph-name="uni301C" unicode="&#x301c;" 
d="M742 339q-11 -18 -28 -35t-37 -30t-42 -21t-44 -8q-43 0 -73.5 9t-62.5 26q-26 14 -61 27.5t-75 13.5q-37 0 -64 -17.5t-46 -45.5l-41 27q11 18 28 35t37 30t42 21t44 8q43 0 73.5 -9t62.5 -26t64 -29t72 -12q37 0 64 17.5t46 45.5z" />
    <glyph glyph-name="uni3041" unicode="&#x3041;" 
d="M521 -60q37 8 68 18.5t54 27.5q67 45 67 112q0 98 -112 140q-37 -66 -78 -123t-89 -103q-50 -48 -92.5 -70.5t-77.5 -22.5q-56 0 -86.5 34t-30.5 90q0 32 10.5 62t33.5 58q22 26 53 49t72 41q0 13 0.5 30.5t1 35.5t1.5 34t2 26h-142v53h147q1 21 3.5 53.5t6.5 63.5h56
q-5 -35 -7 -64t-4 -52q130 1 261 21v-53q-65 -7 -130.5 -11.5t-134.5 -6.5q-4 -29 -5 -57t-1 -55q72 23 139 23q119 0 189 -51q70 -52 70 -145q0 -45 -19.5 -83t-54.5 -65q-28 -22 -65 -37t-81 -23zM397 51q38 38 76 87.5t73 108.5q-50 2 -97.5 -6t-78.5 -22q2 -36 9 -79.5
t18 -88.5zM313 200q-10 -5 -22 -13.5t-24 -18t-22.5 -20.5t-16.5 -20q-28 -40 -28 -82q0 -27 17.5 -49t46.5 -21q20 0 42 10.5t47 33.5q-16 37 -24.5 77.5t-15.5 102.5z" />
    <glyph glyph-name="uni3042" unicode="&#x3042;" 
d="M546 -39q98 18 150 51q42 26 61.5 63t19.5 84q0 65 -47 114q-20 20 -44.5 34.5t-62.5 24.5q-30 -95 -83 -169.5t-112 -128.5q-53 -50 -108 -77t-105 -27q-64 0 -103 40q-44 43 -44 125q0 38 18 79t53 80q62 68 153 104q0 32 1 74.5t1 78.5h-166v56h172q2 41 5.5 76
t8.5 65l63 1q-5 -32 -8.5 -66t-6.5 -71q71 1 152.5 4t160.5 10v-56q-82 -7 -159.5 -10t-158.5 -5q-1 -12 -1.5 -31.5t-1 -40t-0.5 -39v-30.5q19 6 41 10t44 7t43 4.5t38 1.5q77 0 132 -16.5t101 -48.5q88 -64 88 -173q0 -61 -23 -106.5t-67 -79.5q-34 -26 -78.5 -43.5
t-98.5 -27.5zM387 72q60 53 102.5 124t71.5 145q-28 1 -57 0t-56.5 -4.5t-51.5 -8.5t-42 -12q1 -57 8.5 -123t24.5 -121zM294 299q-38 -16 -69.5 -40t-51.5 -50q-46 -56 -46 -114q0 -45 23.5 -73.5t70.5 -28.5q26 0 56 11.5t57 34.5q-10 24 -17 55.5t-12 67t-7.5 71
t-3.5 66.5z" />
    <glyph glyph-name="uni3043" unicode="&#x3043;" 
d="M424 72q-35 -75 -68 -106t-63 -31q-32 0 -59 20.5t-45 59.5q-17 36 -24 86t-7 109q0 57 1.5 109t5.5 106l64 -6q-5 -49 -6.5 -100.5t-1.5 -108.5q0 -56 4.5 -87.5t9.5 -48.5q11 -33 25 -52.5t33 -19.5q21 0 43 28t48 88zM690 29q-11 77 -37.5 160t-74.5 164l57 26
q49 -80 79 -162t38 -165z" />
    <glyph glyph-name="uni3044" unicode="&#x3044;" 
d="M418 143q-18 -46 -36.5 -82.5t-38.5 -61.5q-44 -57 -89 -57q-34 0 -63 22.5t-51 67.5q-24 48 -35 110t-11 138q0 85 3.5 167.5t9.5 163.5l70 -7q-8 -76 -11.5 -156.5t-3.5 -166.5q1 -50 6 -93t16 -79q27 -85 69 -85q16 0 31.5 16t33.5 46q14 23 26 47.5t24 56.5zM743 72
q-5 66 -14.5 123.5t-24.5 111.5t-36.5 107t-49.5 110l61 23q64 -112 97.5 -226.5t39.5 -229.5z" />
    <glyph glyph-name="uni3045" unicode="&#x3045;" 
d="M568 459q-57 11 -115.5 29t-115.5 40l31 48q51 -20 107 -36t114 -28zM364 -48q53 12 95 29t75 41q85 61 85 150q0 30 -7 54.5t-22 41.5q-31 37 -95 37q-45 0 -106.5 -12.5t-141.5 -38.5l-18 58q78 26 144.5 38.5t120.5 12.5q92 0 139 -50q48 -50 48 -141q0 -110 -93 -188
q-39 -32 -88 -53t-110 -35z" />
    <glyph glyph-name="uni3046" unicode="&#x3046;" 
d="M334 -55q76 12 139 37.5t105 59.5q43 36 66.5 86.5t23.5 107.5q0 82 -47 123q-44 39 -118 39q-69 0 -158 -23q-30 -8 -70 -20t-82 -27l-18 69q43 15 81 25.5t70 18.5q91 21 178 21q113 0 170 -54q61 -55 61 -172q0 -71 -26 -131.5t-74 -106.5q-46 -45 -115 -74t-154 -42z
M338 705q137 -45 286 -69l-26 -58q-34 5 -72 12.5t-77 16.5t-76 19t-70 20z" />
    <glyph glyph-name="uni3047" unicode="&#x3047;" 
d="M557 464q-58 7 -115 19t-112 31l25 46q54 -17 108.5 -28t116.5 -18zM731 -81q-12 -1 -30.5 -2t-39 -1.5t-40.5 -0.5h-35q-22 0 -44.5 4.5t-36.5 21.5q-11 13 -16.5 33t-5.5 66q0 28 -6.5 36t-30.5 8q-13 0 -31.5 -8t-44.5 -27t-62.5 -50.5t-85.5 -77.5l-44 44
q89 75 173 159t162 178q-139 -22 -281 -24l-3 57q72 1 151.5 5.5t166.5 13.5l40 -47q-16 -20 -35.5 -43.5t-40 -48t-41.5 -48.5t-39 -43q10 4 23.5 6.5t29.5 2.5q26 0 37 -18t11 -44q0 -40 1 -54.5t7 -24.5q5 -9 16 -15t34 -6q15 0 34 0.5t38.5 1t37.5 1.5t31 3v-58z" />
    <glyph glyph-name="uni3048" unicode="&#x3048;" 
d="M807 -76q-44 -3 -84 -3.5t-79 -0.5q-45 0 -69 5t-43 21q-17 14 -28.5 42.5t-11.5 87.5q0 43 -13 55.5t-40 12.5q-16 0 -30.5 -4.5t-30.5 -14.5t-35 -26.5t-44 -40.5l-42.5 -42.5t-37.5 -37t-35 -34t-34 -32.5l-47 57q118 103 223.5 218t196.5 237q-98 -14 -187.5 -20.5
t-170.5 -7.5v64q94 1 195 9t216 22l45 -58q-48 -58 -97 -120.5t-100 -117.5q15 7 27.5 10t33.5 3q12 0 24.5 -5t19.5 -13q11 -11 17 -25.5t6 -31.5v-41q0 -26 3.5 -50t16.5 -36q11 -11 27 -16.5t42 -5.5q40 0 83.5 1.5t82.5 4.5v-66zM575 605q-74 5 -144 17t-139 32l33 55
q63 -17 132 -29t148 -17z" />
    </font>
</defs>
</svg>
